  0
SECTION
  2
HEADER
  9
$ACADVER
  1
AC1014
  9
$ACADMAINTVER
 70
     9
  9
$DWGCODEPAGE
  3
ANSI_932
  9
$INSBASE
 10
0.0
 20
0.0
 30
0.0
  9
$EXTMIN
 10
395.7529427151843
 20
39.28073546338533
 30
-0.0000000000000058
  9
$EXTMAX
 10
894.417106295344
 20
459.9519169168626
 30
0.0000000000000104
  9
$LIMMIN
 10
344.6051892129161
 20
-2.088437657354575
  9
$LIMMAX
 10
921.743460831043
 20
458.7306573456678
  9
$ORTHOMODE
 70
     1
  9
$REGENMODE
 70
     1
  9
$FILLMODE
 70
     1
  9
$QTEXTMODE
 70
     0
  9
$MIRRTEXT
 70
     1
  9
$DRAGMODE
 70
     2
  9
$LTSCALE
 40
23.1
  9
$OSMODE
 70
  3071
  9
$ATTMODE
 70
     1
  9
$TEXTSIZE
 40
0.2
  9
$TRACEWID
 40
0.05
  9
$TEXTSTYLE
  7
STANDARD
  9
$CLAYER
  8
0
  9
$CELTYPE
  6
BYLAYER
  9
$CECOLOR
 62
   256
  9
$CELTSCALE
 40
1.0
  9
$DELOBJ
 70
     1
  9
$DISPSILH
 70
     0
  9
$DIMSCALE
 40
1.0
  9
$DIMASZ
 40
2.0
  9
$DIMEXO
 40
2.625
  9
$DIMDLI
 40
15.96
  9
$DIMRND
 40
0.0
  9
$DIMDLE
 40
0.0
  9
$DIMEXE
 40
7.559999999999998
  9
$DIMTP
 40
0.001
  9
$DIMTM
 40
0.001
  9
$DIMTXT
 40
2.799999999999998
  9
$DIMCEN
 40
3.779999999999998
  9
$DIMTSZ
 40
0.0
  9
$DIMTOL
 70
     1
  9
$DIMLIM
 70
     0
  9
$DIMTIH
 70
     1
  9
$DIMTOH
 70
     1
  9
$DIMSE1
 70
     0
  9
$DIMSE2
 70
     0
  9
$DIMTAD
 70
     0
  9
$DIMZIN
 70
     0
  9
$DIMBLK
  1

  9
$DIMASO
 70
     1
  9
$DIMSHO
 70
     1
  9
$DIMPOST
  1

  9
$DIMAPOST
  1

  9
$DIMALT
 70
     0
  9
$DIMALTD
 70
     2
  9
$DIMALTF
 40
25.4
  9
$DIMLFAC
 40
1.0
  9
$DIMTOFL
 70
     0
  9
$DIMTVP
 40
0.0
  9
$DIMTIX
 70
     0
  9
$DIMSOXD
 70
     0
  9
$DIMSAH
 70
     0
  9
$DIMBLK1
  1

  9
$DIMBLK2
  1

  9
$DIMSTYLE
  2
STANDARD
  9
$DIMCLRD
 70
     0
  9
$DIMCLRE
 70
     0
  9
$DIMCLRT
 70
     0
  9
$DIMTFAC
 40
1.0
  9
$DIMGAP
 40
0.09
  9
$DIMJUST
 70
     0
  9
$DIMSD1
 70
     0
  9
$DIMSD2
 70
     0
  9
$DIMTOLJ
 70
     1
  9
$DIMTZIN
 70
     0
  9
$DIMALTZ
 70
     0
  9
$DIMALTTZ
 70
     0
  9
$DIMFIT
 70
     3
  9
$DIMUPT
 70
     0
  9
$DIMUNIT
 70
     2
  9
$DIMDEC
 70
     4
  9
$DIMTDEC
 70
     4
  9
$DIMALTU
 70
     2
  9
$DIMALTTD
 70
     2
  9
$DIMTXSTY
  7
STANDARD
  9
$DIMAUNIT
 70
     0
  9
$LUNITS
 70
     2
  9
$LUPREC
 70
     4
  9
$SKETCHINC
 40
0.1
  9
$FILLETRAD
 40
0.0
  9
$AUNITS
 70
     0
  9
$AUPREC
 70
     0
  9
$MENU
  1
.
  9
$ELEVATION
 40
0.0
  9
$PELEVATION
 40
0.0
  9
$THICKNESS
 40
0.0
  9
$LIMCHECK
 70
     0
  9
$BLIPMODE
 70
     0
  9
$CHAMFERA
 40
0.0
  9
$CHAMFERB
 40
0.0
  9
$CHAMFERC
 40
0.0
  9
$CHAMFERD
 40
0.0
  9
$SKPOLY
 70
     0
  9
$TDCREATE
 40
2453691.470475984
  9
$TDUPDATE
 40
2454681.946303113
  9
$TDINDWG
 40
0.0182799421
  9
$TDUSRTIMER
 40
0.0182797569
  9
$USRTIMER
 70
     1
  9
$ANGBASE
 50
0.0
  9
$ANGDIR
 70
     0
  9
$PDMODE
 70
     0
  9
$PDSIZE
 40
0.0
  9
$PLINEWID
 40
0.0
  9
$COORDS
 70
     0
  9
$SPLFRAME
 70
     0
  9
$SPLINETYPE
 70
     6
  9
$SPLINESEGS
 70
     8
  9
$ATTDIA
 70
     0
  9
$ATTREQ
 70
     1
  9
$HANDLING
 70
     1
  9
$HANDSEED
  5
F06
  9
$SURFTAB1
 70
     6
  9
$SURFTAB2
 70
     6
  9
$SURFTYPE
 70
     6
  9
$SURFU
 70
     6
  9
$SURFV
 70
     6
  9
$UCSNAME
  2

  9
$UCSORG
 10
0.0
 20
0.0
 30
0.0
  9
$UCSXDIR
 10
1.0
 20
0.0
 30
0.0
  9
$UCSYDIR
 10
0.0
 20
1.0
 30
0.0
  9
$PUCSNAME
  2

  9
$PUCSORG
 10
0.0
 20
0.0
 30
0.0
  9
$PUCSXDIR
 10
1.0
 20
0.0
 30
0.0
  9
$PUCSYDIR
 10
0.0
 20
1.0
 30
0.0
  9
$USERI1
 70
     0
  9
$USERI2
 70
     0
  9
$USERI3
 70
     0
  9
$USERI4
 70
     0
  9
$USERI5
 70
     0
  9
$USERR1
 40
0.0
  9
$USERR2
 40
0.0
  9
$USERR3
 40
0.0
  9
$USERR4
 40
0.0
  9
$USERR5
 40
0.0
  9
$WORLDVIEW
 70
     1
  9
$SHADEDGE
 70
     3
  9
$SHADEDIF
 70
    70
  9
$TILEMODE
 70
     1
  9
$MAXACTVP
 70
    64
  9
$PINSBASE
 10
0.0
 20
0.0
 30
0.0
  9
$PLIMCHECK
 70
     0
  9
$PEXTMIN
 10
1.000000000000000E+20
 20
1.000000000000000E+20
 30
1.000000000000000E+20
  9
$PEXTMAX
 10
-1.000000000000000E+20
 20
-1.000000000000000E+20
 30
-1.000000000000000E+20
  9
$PLIMMIN
 10
0.0
 20
0.0
  9
$PLIMMAX
 10
12.0
 20
9.0
  9
$UNITMODE
 70
     0
  9
$VISRETAIN
 70
     1
  9
$PLINEGEN
 70
     0
  9
$PSLTSCALE
 70
     1
  9
$TREEDEPTH
 70
  3020
  9
$PICKSTYLE
 70
     1
  9
$CMLSTYLE
  2
STANDARD
  9
$CMLJUST
 70
     0
  9
$CMLSCALE
 40
1.0
  9
$PROXYGRAPHICS
 70
     1
  9
$MEASUREMENT
 70
     1
  0
ENDSEC
  0
SECTION
  2
CLASSES
  0
CLASS
  1
ACDBDICTIONARYWDFLT
  2
AcDbDictionaryWithDefault
  3
AutoCAD 2000
 90
        0
280
     0
281
     0
  0
CLASS
  1
ACDBPLACEHOLDER
  2
AcDbPlaceHolder
  3
AutoCAD 2000
 90
        0
280
     0
281
     0
  0
CLASS
  1
LAYOUT
  2
AcDbLayout
  3
AutoCAD 2000
 90
        0
280
     0
281
     0
  0
CLASS
  1
DICTIONARYVAR
  2
AcDbDictionaryVar
  3
AutoCAD 2000
 90
        0
280
     0
281
     0
  0
CLASS
  1
LONG_TRANSACTION
  2
AcDbLongTransaction
  3
AutoCAD 2000
 90
        0
280
     0
281
     0
  0
CLASS
  1
LWPOLYLINE
  2
AcDbPolyline
  3
AutoCAD 2000
 90
        0
280
     0
281
     1
  0
CLASS
  1
HATCH
  2
AcDbHatch
  3
AutoCAD 2000
 90
        0
280
     0
281
     1
  0
CLASS
  1
XRECORD
  2
AcDbXrecord
  3
AutoCAD 2000
 90
        0
280
     0
281
     0
  0
CLASS
  1
DIMASSOC
  2
AcDbDimAssoc
  3
"AcDbDimAssoc|Product Desc:     AcDim ARX App For Dimension|Company:          Autodesk, Inc.|WEB Address:      www.autodesk.com"
 90
        0
280
     0
281
     0
  0
CLASS
  1
LONG_TRANSACTION
  2
AcDbLongTransaction
  3
AutoCAD 2000
 90
        0
280
     0
281
     0
  0
CLASS
  1
LWPOLYLINE
  2
AcDbPolyline
  3
AutoCAD 2000
 90
        0
280
     0
281
     1
  0
CLASS
  1
HATCH
  2
AcDbHatch
  3
AutoCAD 2000
 90
        0
280
     0
281
     1
  0
CLASS
  1
XRECORD
  2
AcDbXrecord
  3
AutoCAD 2000
 90
        0
280
     0
281
     0
  0
ENDSEC
  0
SECTION
  2
TABLES
  0
TABLE
  2
VPORT
  5
8
330
0
100
AcDbSymbolTable
 70
     2
  0
VPORT
  5
ED1
330
8
100
AcDbSymbolTableRecord
100
AcDbViewportTableRecord
  2
*ACTIVE
 70
     0
 10
0.0
 20
0.0
 11
1.0
 21
1.0
 12
633.1743250219796
 22
228.931739629754
 13
0.0
 23
0.0
 14
1.0
 24
1.0
 15
0.0
 25
0.0
 16
0.0
 26
0.0
 36
1.0
 17
0.0
 27
0.0
 37
0.0
 40
465.5539694378994
 41
1.25
 42
50.0
 43
0.0
 44
0.0
 50
0.0
 51
0.0
 71
     0
 72
   100
 73
     1
 74
     1
 75
     0
 76
     0
 77
     0
 78
     0
  0
ENDTAB
  0
TABLE
  2
LTYPE
  5
5
330
0
100
AcDbSymbolTable
 70
     7
  0
LTYPE
  5
14
330
5
100
AcDbSymbolTableRecord
100
AcDbLinetypeTableRecord
  2
BYBLOCK
 70
     0
  3

 72
    65
 73
     0
 40
0.0
  0
LTYPE
  5
15
330
5
100
AcDbSymbolTableRecord
100
AcDbLinetypeTableRecord
  2
BYLAYER
 70
     0
  3

 72
    65
 73
     0
 40
0.0
  0
LTYPE
  5
16
330
5
100
AcDbSymbolTableRecord
100
AcDbLinetypeTableRecord
  2
CONTINUOUS
 70
     0
  3
Solid line
 72
    65
 73
     0
 40
0.0
  0
LTYPE
  5
1F5
330
5
100
AcDbSymbolTableRecord
100
AcDbLinetypeTableRecord
  2
CENTER
 70
     0
  3
____ _ ____ _ ____ _ ____ _ ____ _ ____ _ ____
 72
    65
 73
     4
 40
0.6
 49
0.375
 74
     0
 49
-0.075
 74
     0
 49
0.075
 74
     0
 49
-0.075
 74
     0
  0
LTYPE
  5
1F6
330
5
100
AcDbSymbolTableRecord
100
AcDbLinetypeTableRecord
  2
HIDDEN
 70
     0
  3
- - - - - - - - - - - - - - - - - - - -
 72
    65
 73
     2
 40
0.2
 49
0.1
 74
     0
 49
-0.1
 74
     0
  0
LTYPE
  5
1F7
330
5
100
AcDbSymbolTableRecord
100
AcDbLinetypeTableRecord
  2
PHANTOM
 70
     0
  3
_____ _ _ _____ _ _ _____ _ _ _____
 72
    65
 73
     6
 40
0.8
 49
0.45
 74
     0
 49
-0.05
 74
     0
 49
0.1
 74
     0
 49
-0.05
 74
     0
 49
0.1
 74
     0
 49
-0.05
 74
     0
  0
LTYPE
  5
1F8
330
5
100
AcDbSymbolTableRecord
100
AcDbLinetypeTableRecord
  2
DOT
 70
     0
  3
. . . . . . . . . . . . . . . . . . . .
 72
    65
 73
     2
 40
0.2
 49
0.1
 74
     0
 49
-0.1
 74
     0
  0
LTYPE
  5
1F9
330
5
100
AcDbSymbolTableRecord
100
AcDbLinetypeTableRecord
  2
DASHED
 70
     0
  3
- - - - - - - - - - - - - - - - - - - -
 72
    65
 73
     2
 40
0.2
 49
0.1
 74
     0
 49
-0.1
 74
     0
  0
LTYPE
  5
6AE
330
5
100
AcDbSymbolTableRecord
100
AcDbLinetypeTableRecord
  2
CONTINOUS
 70
     0
  3
Solid line
 72
    65
 73
     0
 40
0.0
  0
ENDTAB
  0
TABLE
  2
LAYER
  5
2
102
{ACAD_XDICTIONARY
360
5F0
102
}
330
0
100
AcDbSymbolTable
 70
    29
  0
LAYER
  5
10
330
2
100
AcDbSymbolTableRecord
100
AcDbLayerTableRecord
  2
0
 70
     0
 62
     7
  6
CONTINUOUS
  0
LAYER
  5
1FA
330
2
100
AcDbSymbolTableRecord
100
AcDbLayerTableRecord
  2
DEFAULT_1
 70
     0
 62
     7
  6
CENTER
  0
LAYER
  5
1FB
330
2
100
AcDbSymbolTableRecord
100
AcDbLayerTableRecord
  2
DEFAULT_2
 70
     0
 62
     8
  6
HIDDEN
  0
LAYER
  5
1FC
330
2
100
AcDbSymbolTableRecord
100
AcDbLayerTableRecord
  2
DEFAULT_3
 70
     0
 62
     7
  6
PHANTOM
  0
LAYER
  5
1FD
330
2
100
AcDbSymbolTableRecord
100
AcDbLayerTableRecord
  2
0_COMPONENTS
 70
     0
 62
     7
  6
CONTINUOUS
  0
LAYER
  5
1FE
330
2
100
AcDbSymbolTableRecord
100
AcDbLayerTableRecord
  2
1_ALL_DIMS
 70
     0
 62
     7
  6
CONTINUOUS
  0
LAYER
  5
1FF
330
2
100
AcDbSymbolTableRecord
100
AcDbLayerTableRecord
  2
1_ALL_DRAFT_DIMS
 70
     0
 62
     7
  6
CONTINUOUS
  0
LAYER
  5
200
330
2
100
AcDbSymbolTableRecord
100
AcDbLayerTableRecord
  2
1_ALL_PLANES
 70
     0
 62
     7
  6
CONTINUOUS
  0
LAYER
  5
201
330
2
100
AcDbSymbolTableRecord
100
AcDbLayerTableRecord
  2
2_ALL_CSYS
 70
     0
 62
     7
  6
CONTINUOUS
  0
LAYER
  5
202
330
2
100
AcDbSymbolTableRecord
100
AcDbLayerTableRecord
  2
2_ALL_NOTES
 70
     0
 62
     7
  6
CONTINUOUS
  0
LAYER
  5
203
330
2
100
AcDbSymbolTableRecord
100
AcDbLayerTableRecord
  2
3_ALL_AXES
 70
     0
 62
     7
  6
CONTINUOUS
  0
LAYER
  5
204
330
2
100
AcDbSymbolTableRecord
100
AcDbLayerTableRecord
  2
3_ALL_SYMBOLS
 70
     0
 62
     7
  6
CONTINUOUS
  0
LAYER
  5
205
330
2
100
AcDbSymbolTableRecord
100
AcDbLayerTableRecord
  2
3__ALL_HOLES
 70
     0
 62
     7
  6
CONTINUOUS
  0
LAYER
  5
206
330
2
100
AcDbSymbolTableRecord
100
AcDbLayerTableRecord
  2
5_ALL_CURVES
 70
     0
 62
     7
  6
CONTINUOUS
  0
LAYER
  5
207
330
2
100
AcDbSymbolTableRecord
100
AcDbLayerTableRecord
  2
6_ALL_SFINS
 70
     0
 62
     7
  6
CONTINUOUS
  0
LAYER
  5
208
330
2
100
AcDbSymbolTableRecord
100
AcDbLayerTableRecord
  2
7_ALL_FEATURES
 70
     0
 62
     7
  6
CONTINUOUS
  0
LAYER
  5
209
330
2
100
AcDbSymbolTableRecord
100
AcDbLayerTableRecord
  2
8_ALL_DTL_ITEMS
 70
     0
 62
     7
  6
CONTINUOUS
  0
LAYER
  5
20A
330
2
100
AcDbSymbolTableRecord
100
AcDbLayerTableRecord
  2
8_ALL_ROUNDS
 70
     0
 62
     7
  6
CONTINUOUS
  0
LAYER
  5
20B
330
2
100
AcDbSymbolTableRecord
100
AcDbLayerTableRecord
  2
8_ALL_ROUNS
 70
     0
 62
     7
  6
CONTINUOUS
  0
LAYER
  5
20C
330
2
100
AcDbSymbolTableRecord
100
AcDbLayerTableRecord
  2
9_ALL_COSM_SKETCHS
 70
     0
 62
     7
  6
CONTINUOUS
  0
LAYER
  5
20D
330
2
100
AcDbSymbolTableRecord
100
AcDbLayerTableRecord
  2
AXIS
 70
     0
 62
     7
  6
CONTINUOUS
  0
LAYER
  5
20E
330
2
100
AcDbSymbolTableRecord
100
AcDbLayerTableRecord
  2
CSYS
 70
     0
 62
     7
  6
CONTINUOUS
  0
LAYER
  5
20F
330
2
100
AcDbSymbolTableRecord
100
AcDbLayerTableRecord
  2
FUYOU1
 70
     0
 62
     7
  6
CONTINUOUS
  0
LAYER
  5
210
330
2
100
AcDbSymbolTableRecord
100
AcDbLayerTableRecord
  2
PLN
 70
     0
 62
     7
  6
CONTINUOUS
  0
LAYER
  5
211
330
2
100
AcDbSymbolTableRecord
100
AcDbLayerTableRecord
  2
PNT
 70
     0
 62
     7
  6
CONTINUOUS
  0
LAYER
  5
212
330
2
100
AcDbSymbolTableRecord
100
AcDbLayerTableRecord
  2
XSEC_DATUMS
 70
     0
 62
     7
  6
CONTINUOUS
  0
LAYER
  5
57F
330
2
100
AcDbSymbolTableRecord
100
AcDbLayerTableRecord
  2
1
 70
     0
 62
     7
  6
CONTINUOUS
  0
LAYER
  5
5C9
330
2
100
AcDbSymbolTableRecord
100
AcDbLayerTableRecord
  2
DEFPOINTS
 70
     0
 62
     7
  6
CONTINUOUS
  0
LAYER
  5
6AF
330
2
100
AcDbSymbolTableRecord
100
AcDbLayerTableRecord
  2
文字
 70
     0
 62
     7
  6
CONTINUOUS
  0
ENDTAB
  0
TABLE
  2
STYLE
  5
3
330
0
100
AcDbSymbolTable
 70
     3
  0
STYLE
  5
11
330
3
100
AcDbSymbolTableRecord
100
AcDbTextStyleTableRecord
  2
STANDARD
 70
     0
 40
0.0
 41
0.8
 50
0.0
 71
     0
 42
0.2
  3
txt.shx
  4
bigfont.shx
  0
STYLE
  5
213
330
3
100
AcDbSymbolTableRecord
100
AcDbTextStyleTableRecord
  2
TEXTSTYLE_1
 70
     0
 40
0.0
 41
0.8
 50
0.0
 71
     0
 42
0.2
  3
txt
  4

  0
STYLE
  5
580
330
3
100
AcDbSymbolTableRecord
100
AcDbTextStyleTableRecord
  2
STANDARD1
 70
     0
 40
0.0
 41
1.0
 50
0.0
 71
     0
 42
4.0
  3
monotxt.shx
  4
bigfont.shx
  0
ENDTAB
  0
TABLE
  2
VIEW
  5
6
330
0
100
AcDbSymbolTable
 70
     0
  0
ENDTAB
  0
TABLE
  2
UCS
  5
7
330
0
100
AcDbSymbolTable
 70
     0
  0
ENDTAB
  0
TABLE
  2
APPID
  5
9
330
0
100
AcDbSymbolTable
 70
     1
  0
APPID
  5
214
330
9
100
AcDbSymbolTableRecord
100
AcDbRegAppTableRecord
  2
ACAD
 70
     0
  0
ENDTAB
  0
TABLE
  2
DIMSTYLE
  5
A
330
0
100
AcDbSymbolTable
 70
     8
  0
DIMSTYLE
105
215
330
A
100
AcDbSymbolTableRecord
100
AcDbDimStyleTableRecord
  2
STANDARD
 70
     0
  3

  4

  5

  6

  7

 40
1.0
 41
2.0
 42
0.0625
 43
0.38
 44
0.18
 45
0.0
 46
0.0
 47
0.001
 48
0.001
140
2.799999999999998
141
0.09
142
0.0
143
25.4
144
1.0
145
0.0
146
1.0
147
0.09
 71
     1
 72
     0
 73
     0
 74
     0
 75
     0
 76
     0
 77
     1
 78
     8
170
     0
171
     2
172
     0
173
     0
174
     0
175
     0
176
     0
177
     0
178
     0
270
     2
271
     3
272
     3
273
     2
274
     2
340
11
275
     0
280
     0
281
     0
282
     0
283
     1
284
     8
285
     0
286
     0
287
     3
288
     0
  0
DIMSTYLE
105
216
102
{ACAD_REACTORS
330
938
330
922
330
91F
330
927
330
919
330
926
330
91A
330
918
330
837
330
852
330
843
330
844
330
838
330
83E
330
841
102
}
330
A
100
AcDbSymbolTableRecord
100
AcDbDimStyleTableRecord
  2
DIMSTYLE_1
 70
     0
  3

  4

  5
OPEN30
  6

  7

 40
1.0
 41
2.5
 42
1.0
 43
0.38
 44
2.0
 45
0.0
 46
0.0
 47
0.3
 48
0.3
140
3.5
141
0.09
142
0.0
143
25.4
144
1.0
145
0.0
146
1.0
147
1.0
 71
     0
 72
     0
 73
     0
 74
     0
 75
     0
 76
     0
 77
     3
 78
     8
170
     0
171
     2
172
     1
173
     0
174
     0
175
     0
176
     0
177
     0
178
     0
270
     2
271
     1
272
     1
273
     2
274
     2
340
11
275
     0
280
     0
281
     0
282
     0
283
     1
284
     8
285
     0
286
     0
287
     3
288
     0
  0
DIMSTYLE
105
217
330
A
100
AcDbSymbolTableRecord
100
AcDbDimStyleTableRecord
  2
DIMSTYLE_2
 70
     0
  3

  4

  5

  6

  7

 40
1.0
 41
2.0
 42
0.0625
 43
0.38
 44
0.18
 45
0.0
 46
0.0
 47
0.3
 48
0.3
140
2.799999999999998
141
0.09
142
0.0
143
25.4
144
1.0
145
0.0
146
1.0
147
0.09
 71
     0
 72
     0
 73
     0
 74
     0
 75
     0
 76
     0
 77
     1
 78
     8
170
     0
171
     2
172
     0
173
     0
174
     0
175
     0
176
     0
177
     0
178
     0
270
     2
271
     3
272
     3
273
     2
274
     2
340
11
275
     0
280
     0
281
     0
282
     0
283
     1
284
     8
285
     0
286
     0
287
     3
288
     0
  0
DIMSTYLE
105
218
330
A
100
AcDbSymbolTableRecord
100
AcDbDimStyleTableRecord
  2
DIMSTYLE_3
 70
     0
  3

  4

  5

  6

  7

 40
1.0
 41
2.0
 42
0.0625
 43
0.38
 44
0.18
 45
0.0
 46
0.0
 47
0.3
 48
0.3
140
2.799999999999998
141
0.09
142
0.0
143
25.4
144
1.0
145
0.0
146
1.0
147
0.09
 71
     0
 72
     0
 73
     0
 74
     0
 75
     0
 76
     0
 77
     1
 78
     8
170
     0
171
     2
172
     0
173
     0
174
     0
175
     0
176
     0
177
     0
178
     0
270
     2
271
     3
272
     3
273
     2
274
     2
340
11
275
     0
280
     0
281
     0
282
     0
283
     1
284
     8
285
     0
286
     0
287
     3
288
     0
  0
DIMSTYLE
105
219
330
A
100
AcDbSymbolTableRecord
100
AcDbDimStyleTableRecord
  2
DIMSTYLE_4
 70
     0
  3

  4

  5

  6

  7

 40
1.0
 41
2.0
 42
0.0625
 43
0.38
 44
0.18
 45
0.0
 46
0.0
 47
0.5
 48
0.5
140
2.799999999999998
141
0.09
142
0.0
143
25.4
144
1.0
145
0.0
146
1.0
147
0.09
 71
     0
 72
     0
 73
     1
 74
     1
 75
     0
 76
     0
 77
     0
 78
     8
170
     0
171
     2
172
     0
173
     0
174
     0
175
     0
176
     0
177
     0
178
     0
270
     2
271
     1
272
     1
273
     2
274
     2
340
11
275
     0
280
     0
281
     0
282
     0
283
     1
284
     8
285
     0
286
     0
287
     3
288
     0
  0
DIMSTYLE
105
21A
330
A
100
AcDbSymbolTableRecord
100
AcDbDimStyleTableRecord
  2
DIMSTYLE_5
 70
     0
  3

  4

  5

  6

  7

 40
1.0
 41
2.0
 42
0.0625
 43
0.38
 44
0.18
 45
0.0
 46
0.0
 47
0.2
 48
0.2
140
2.799999999999998
141
0.09
142
0.0
143
25.4
144
1.0
145
0.0
146
1.0
147
0.09
 71
     0
 72
     0
 73
     0
 74
     0
 75
     0
 76
     0
 77
     1
 78
     8
170
     0
171
     2
172
     0
173
     0
174
     0
175
     0
176
     0
177
     0
178
     0
270
     2
271
     3
272
     3
273
     2
274
     2
340
11
275
     0
280
     0
281
     0
282
     0
283
     1
284
     8
285
     0
286
     0
287
     3
288
     0
  0
DIMSTYLE
105
21B
330
A
100
AcDbSymbolTableRecord
100
AcDbDimStyleTableRecord
  2
DIMSTYLE_6
 70
     0
  3

  4

  5

  6

  7

 40
1.0
 41
2.0
 42
0.0625
 43
0.38
 44
0.18
 45
0.0
 46
0.0
 47
0.1
 48
0.1
140
2.799999999999998
141
0.09
142
0.0
143
25.4
144
1.0
145
0.0
146
1.0
147
0.09
 71
     0
 72
     0
 73
     0
 74
     0
 75
     0
 76
     0
 77
     1
 78
     8
170
     0
171
     2
172
     0
173
     0
174
     0
175
     0
176
     0
177
     0
178
     0
270
     2
271
     3
272
     3
273
     2
274
     2
340
11
275
     0
280
     0
281
     0
282
     0
283
     1
284
     8
285
     0
286
     0
287
     3
288
     0
  0
DIMSTYLE
105
21C
330
A
100
AcDbSymbolTableRecord
100
AcDbDimStyleTableRecord
  2
DIMSTYLE_7
 70
     0
  3

  4

  5

  6

  7

 40
1.0
 41
2.0
 42
0.0625
 43
0.38
 44
0.18
 45
0.0
 46
0.0
 47
0.1
 48
0.1
140
2.799999999999998
141
0.09
142
0.0
143
25.4
144
1.0
145
0.0
146
1.0
147
0.09
 71
     0
 72
     0
 73
     0
 74
     0
 75
     0
 76
     0
 77
     1
 78
     8
170
     0
171
     2
172
     0
173
     0
174
     0
175
     0
176
     0
177
     0
178
     0
270
     2
271
     3
272
     3
273
     2
274
     2
340
11
275
     0
280
     0
281
     0
282
     0
283
     1
284
     8
285
     0
286
     0
287
     3
288
     0
  0
ENDTAB
  0
TABLE
  2
BLOCK_RECORD
  5
1
330
0
100
AcDbSymbolTable
 70
    47
  0
BLOCK_RECORD
  5
1B
102
{ACAD_XDICTIONARY
360
5C5
102
}
330
1
100
AcDbSymbolTableRecord
100
AcDbBlockTableRecord
  2
*MODEL_SPACE
  0
BLOCK_RECORD
  5
1C
102
{ACAD_XDICTIONARY
360
5C7
102
}
330
1
100
AcDbSymbolTableRecord
100
AcDbBlockTableRecord
  2
*PAPER_SPACE
  0
BLOCK_RECORD
  5
22C
330
1
100
AcDbSymbolTableRecord
100
AcDbBlockTableRecord
  2
K_GAIKEI_JISB0405V_BL0
  0
BLOCK_RECORD
  5
5F6
330
1
100
AcDbSymbolTableRecord
100
AcDbBlockTableRecord
  2
_OPEN30
  0
BLOCK_RECORD
  5
9AE
330
1
100
AcDbSymbolTableRecord
100
AcDbBlockTableRecord
  2
*D32
  0
BLOCK_RECORD
  5
9BB
330
1
100
AcDbSymbolTableRecord
100
AcDbBlockTableRecord
  2
*D33
  0
BLOCK_RECORD
  5
9C7
330
1
100
AcDbSymbolTableRecord
100
AcDbBlockTableRecord
  2
*D34
  0
BLOCK_RECORD
  5
9D3
330
1
100
AcDbSymbolTableRecord
100
AcDbBlockTableRecord
  2
*D35
  0
BLOCK_RECORD
  5
9DF
330
1
100
AcDbSymbolTableRecord
100
AcDbBlockTableRecord
  2
*D36
  0
BLOCK_RECORD
  5
9EC
330
1
100
AcDbSymbolTableRecord
100
AcDbBlockTableRecord
  2
*D37
  0
BLOCK_RECORD
  5
9F9
330
1
100
AcDbSymbolTableRecord
100
AcDbBlockTableRecord
  2
*D38
  0
BLOCK_RECORD
  5
A03
330
1
100
AcDbSymbolTableRecord
100
AcDbBlockTableRecord
  2
*D39
  0
BLOCK_RECORD
  5
A0D
330
1
100
AcDbSymbolTableRecord
100
AcDbBlockTableRecord
  2
*D40
  0
BLOCK_RECORD
  5
A19
330
1
100
AcDbSymbolTableRecord
100
AcDbBlockTableRecord
  2
*D41
  0
BLOCK_RECORD
  5
A23
330
1
100
AcDbSymbolTableRecord
100
AcDbBlockTableRecord
  2
*D42
  0
BLOCK_RECORD
  5
A2D
330
1
100
AcDbSymbolTableRecord
100
AcDbBlockTableRecord
  2
*D43
  0
BLOCK_RECORD
  5
A37
330
1
100
AcDbSymbolTableRecord
100
AcDbBlockTableRecord
  2
*D44
  0
BLOCK_RECORD
  5
A9A
330
1
100
AcDbSymbolTableRecord
100
AcDbBlockTableRecord
  2
*D45
  0
BLOCK_RECORD
  5
AA6
330
1
100
AcDbSymbolTableRecord
100
AcDbBlockTableRecord
  2
*D46
  0
ENDTAB
  0
ENDSEC
  0
SECTION
  2
BLOCKS
  0
BLOCK
  5
1E
330
1B
100
AcDbEntity
  8
0
100
AcDbBlockBegin
  2
*MODEL_SPACE
 70
     0
 10
0.0
 20
0.0
 30
0.0
  3
*MODEL_SPACE
  1

  0
ENDBLK
  5
1F
330
1B
100
AcDbEntity
  8
0
100
AcDbBlockEnd
  0
BLOCK
  5
20
330
1C
100
AcDbEntity
 67
     1
  8
0
100
AcDbBlockBegin
  2
*PAPER_SPACE
 70
     0
 10
0.0
 20
0.0
 30
0.0
  3
*PAPER_SPACE
  1

  0
ENDBLK
  5
21
330
1C
100
AcDbEntity
 67
     1
  8
0
100
AcDbBlockEnd
  0
BLOCK
  5
331
330
22C
100
AcDbEntity
  8
3_ALL_SYMBOLS
  6
CONTINUOUS
 62
     2
100
AcDbBlockBegin
  2
K_GAIKEI_JISB0405V_BL0
 70
     0
 10
0.0
 20
0.0
 30
0.0
  3
K_GAIKEI_JISB0405V_BL0
  1

  0
TEXT
  5
332
330
22C
100
AcDbEntity
  8
3_ALL_SYMBOLS
  6
CONTINUOUS
 62
     2
100
AcDbText
 10
376.0356404017998
 20
73.5510296371
 30
0.0
 40
1.999999763
  1
指定以外の寸法に対する寸法差
 41
0.5
100
AcDbText
  0
TEXT
  5
333
330
22C
100
AcDbEntity
  8
3_ALL_SYMBOLS
  6
CONTINUOUS
 62
     2
100
AcDbText
 10
373.0356407573
 20
70.5510299926
 30
0.0
 40
1.999999763
  1
（ＪＩＳ Ｂ ０４０５ Ｖ級準拠）
 41
0.5483870968
100
AcDbText
  0
TEXT
  5
334
330
22C
100
AcDbEntity
  8
3_ALL_SYMBOLS
  6
CONTINUOUS
 62
     2
100
AcDbText
 10
381.0356398092
 20
67.5510303482
 30
0.0
 40
1.999999763
  1
呼び寸法
 41
0.5
100
AcDbText
  0
TEXT
  5
335
330
22C
100
AcDbEntity
  8
3_ALL_SYMBOLS
  6
CONTINUOUS
 62
     2
100
AcDbText
 10
402.0356373202998
 20
67.5510303482
 30
0.0
 40
1.999999763
  1
公差
 41
0.5
100
AcDbText
  0
TEXT
  5
336
330
22C
100
AcDbEntity
  8
3_ALL_SYMBOLS
  6
CONTINUOUS
 62
     2
100
AcDbText
 10
391.035638624
 20
64.55103070369999
 30
0.0
 40
1.999999763
  1
６以下 
 41
0.5714285714000002
100
AcDbText
  0
TEXT
  5
337
330
22C
100
AcDbEntity
  8
3_ALL_SYMBOLS
  6
CONTINUOUS
 62
     2
100
AcDbText
 10
399.0356376758
 20
64.55103070369999
 30
0.0
 40
1.999999763
  1
±０．５
 41
0.5
100
AcDbText
  0
TEXT
  5
338
330
22C
100
AcDbEntity
  8
3_ALL_SYMBOLS
  6
CONTINUOUS
 62
     2
100
AcDbText
 10
377.0356402832
 20
61.5510310593
 30
0.0
 40
1.999999763
  1
６をこえ  ３０以下 
 41
0.5789473684000001
100
AcDbText
  0
TEXT
  5
339
330
22C
100
AcDbEntity
  8
3_ALL_SYMBOLS
  6
CONTINUOUS
 62
     2
100
AcDbText
 10
399.0356376758
 20
61.5510310593
 30
0.0
 40
1.999999763
  1
±１
 41
0.5
100
AcDbText
  0
TEXT
  5
33A
330
22C
100
AcDbEntity
  8
3_ALL_SYMBOLS
  6
CONTINUOUS
 62
     2
100
AcDbText
 10
375.0356405203
 20
58.55103141479999
 30
0.0
 40
1.999999763
  1
３０をこえ １２０以下 
 41
0.5454545455
100
AcDbText
  0
TEXT
  5
33B
330
22C
100
AcDbEntity
  8
3_ALL_SYMBOLS
  6
CONTINUOUS
 62
     2
100
AcDbText
 10
399.0356376758
 20
58.55103141479999
 30
0.0
 40
1.999999763
  1
±１．５
 41
0.5
100
AcDbText
  0
TEXT
  5
33C
330
22C
100
AcDbEntity
  8
3_ALL_SYMBOLS
  6
CONTINUOUS
 62
     2
100
AcDbText
 10
373.0356407573
 20
55.5510317704
 30
0.0
 40
1.999999763
  1
１２０をこえ ４００以下 
 41
0.5416666667
100
AcDbText
  0
TEXT
  5
33D
330
22C
100
AcDbEntity
  8
3_ALL_SYMBOLS
  6
CONTINUOUS
 62
     2
100
AcDbText
 10
399.0356376758
 20
55.5510317704
 30
0.0
 40
1.999999763
  1
±２．５
 41
0.5
100
AcDbText
  0
TEXT
  5
33E
330
22C
100
AcDbEntity
  8
3_ALL_SYMBOLS
  6
CONTINUOUS
 62
     2
100
AcDbText
 10
373.0356407573
 20
52.5510321259
 30
0.0
 40
1.999999763
  1
４００をこえ１０００以下 
 41
0.5200000000000001
100
AcDbText
  0
TEXT
  5
33F
330
22C
100
AcDbEntity
  8
3_ALL_SYMBOLS
  6
CONTINUOUS
 62
     2
100
AcDbText
 10
399.0356376758
 20
52.5510321259
 30
0.0
 40
1.999999763
  1
±４
 41
0.5
100
AcDbText
  0
TEXT
  5
340
330
22C
100
AcDbEntity
  8
3_ALL_SYMBOLS
  6
CONTINUOUS
 62
     2
100
AcDbText
 10
371.0356409943
 20
49.55103248149999
 30
0.0
 40
1.999999763
  1
１０００をこえるもの   
 41
0.5652173913000002
100
AcDbText
  0
TEXT
  5
341
330
22C
100
AcDbEntity
  8
3_ALL_SYMBOLS
  6
CONTINUOUS
 62
     2
100
AcDbText
 10
399.0356376758
 20
49.55103248149999
 30
0.0
 40
1.999999763
  1
±６
 41
0.5
100
AcDbText
  0
LINE
  5
342
330
22C
100
AcDbEntity
  8
3_ALL_SYMBOLS
  6
CONTINUOUS
 62
     7
100
AcDbLine
 10
370.7050031381998
 20
48.8180881497
 30
0.0
 11
370.7050031381998
 21
75.81808494970001
 31
0.0
  0
LINE
  5
343
330
22C
100
AcDbEntity
  8
3_ALL_SYMBOLS
  6
CONTINUOUS
 62
     7
100
AcDbLine
 10
408.7049986344998
 20
48.8180881497
 30
0.0
 11
370.7050031381998
 21
48.8180881497
 31
0.0
  0
LINE
  5
344
330
22C
100
AcDbEntity
  8
3_ALL_SYMBOLS
  6
CONTINUOUS
 62
     7
100
AcDbLine
 10
370.7050031381998
 20
51.8180877941
 30
0.0
 11
408.7049986344998
 21
51.8180877941
 31
0.0
  0
LINE
  5
345
330
22C
100
AcDbEntity
  8
3_ALL_SYMBOLS
  6
CONTINUOUS
 62
     7
100
AcDbLine
 10
370.7050031381998
 20
54.8180874386
 30
0.0
 11
408.7049986344998
 21
54.8180874386
 31
0.0
  0
LINE
  5
346
330
22C
100
AcDbEntity
  8
3_ALL_SYMBOLS
  6
CONTINUOUS
 62
     7
100
AcDbLine
 10
370.7050031381998
 20
57.818087083
 30
0.0
 11
408.7049986344998
 21
57.818087083
 31
0.0
  0
LINE
  5
347
330
22C
100
AcDbEntity
  8
3_ALL_SYMBOLS
  6
CONTINUOUS
 62
     7
100
AcDbLine
 10
370.7050031381998
 20
60.8180867275
 30
0.0
 11
408.7049986344998
 21
60.8180867275
 31
0.0
  0
LINE
  5
348
330
22C
100
AcDbEntity
  8
3_ALL_SYMBOLS
  6
CONTINUOUS
 62
     7
100
AcDbLine
 10
370.7050031381998
 20
63.81808637189999
 30
0.0
 11
408.7049986344998
 21
63.81808637189999
 31
0.0
  0
LINE
  5
349
330
22C
100
AcDbEntity
  8
3_ALL_SYMBOLS
  6
CONTINUOUS
 62
     7
100
AcDbLine
 10
370.7050031381998
 20
66.8180860163
 30
0.0
 11
408.7049986344998
 21
66.8180860163
 31
0.0
  0
LINE
  5
34A
330
22C
100
AcDbEntity
  8
3_ALL_SYMBOLS
  6
CONTINUOUS
 62
     7
100
AcDbLine
 10
398.7049998196998
 20
69.81808566079999
 30
0.0
 11
398.7049998196998
 21
48.8180881497
 31
0.0
  0
LINE
  5
34B
330
22C
100
AcDbEntity
  8
3_ALL_SYMBOLS
  6
CONTINUOUS
 62
     7
100
AcDbLine
 10
370.7050031381998
 20
69.81808566079999
 30
0.0
 11
408.7049986344998
 21
69.81808566079999
 31
0.0
  0
LINE
  5
34C
330
22C
100
AcDbEntity
  8
3_ALL_SYMBOLS
  6
CONTINUOUS
 62
     7
100
AcDbLine
 10
370.7050031381998
 20
75.81808494970001
 30
0.0
 11
408.7049986344998
 21
75.81808494970001
 31
0.0
  0
LINE
  5
34D
330
22C
100
AcDbEntity
  8
3_ALL_SYMBOLS
  6
CONTINUOUS
 62
     7
100
AcDbLine
 10
408.7049986344998
 20
75.81808494970001
 30
0.0
 11
408.7049986344998
 21
48.8180881497
 31
0.0
  0
ENDBLK
  5
34E
330
22C
100
AcDbEntity
  8
0
100
AcDbBlockEnd
  0
BLOCK
  5
5FA
330
5F6
100
AcDbEntity
  8
0
100
AcDbBlockBegin
  2
_OPEN30
 70
     0
 10
0.0
 20
0.0
 30
0.0
  3
_OPEN30
  1

  0
LINE
  5
5F7
330
5F6
100
AcDbEntity
  8
0
  6
BYBLOCK
 62
     0
100
AcDbLine
 10
-1.0
 20
0.26794919
 30
0.0
 11
0.0
 21
0.0
 31
0.0
  0
LINE
  5
5F8
330
5F6
100
AcDbEntity
  8
0
  6
BYBLOCK
 62
     0
100
AcDbLine
 10
0.0
 20
0.0
 30
0.0
 11
-1.0
 21
-0.26794919
 31
0.0
  0
LINE
  5
5F9
330
5F6
100
AcDbEntity
  8
0
  6
BYBLOCK
 62
     0
100
AcDbLine
 10
0.0
 20
0.0
 30
0.0
 11
-1.0
 21
0.0
 31
0.0
  0
ENDBLK
  5
5FB
330
5F6
100
AcDbEntity
  8
0
100
AcDbBlockEnd
  0
BLOCK
  5
9B9
330
9AE
100
AcDbEntity
  8
0
100
AcDbBlockBegin
  2
*D32
 70
     1
 10
0.0
 20
0.0
 30
0.0
  3
*D32
  1

  0
LINE
  5
E7A
330
9AE
100
AcDbEntity
  8
文字
 62
     0
100
AcDbLine
 10
502.1358702521513
 20
177.0473413989139
 30
0.0
 11
502.1358702521513
 21
223.5043681301141
 31
0.0
  0
LINE
  5
E7B
330
9AE
100
AcDbEntity
  8
文字
 62
     0
100
AcDbLine
 10
520.1358702521513
 20
176.715744659314
 30
0.0
 11
520.1358702521513
 21
223.5043681301141
 31
0.0
  0
LINE
  5
E7C
330
9AE
100
AcDbEntity
  8
文字
 62
     0
100
AcDbLine
 10
504.6358702521512
 20
221.5043681301141
 30
0.0
 11
517.6358702521513
 21
221.5043681301141
 31
0.0
  0
LINE
  5
E7D
330
9AE
100
AcDbEntity
  8
文字
 62
     0
100
AcDbLine
 10
520.1358702521513
 20
221.5043681301141
 30
0.0
 11
537.3981050200707
 21
221.5043681301141
 31
0.0
  0
INSERT
  5
E7E
330
9AE
100
AcDbEntity
  8
文字
 62
     0
100
AcDbBlockReference
  2
_OPEN30
 10
502.1358702521513
 20
221.5043681301141
 30
0.0
 41
2.5
 42
2.5
 43
2.5
 50
180.0
  0
INSERT
  5
E7F
330
9AE
100
AcDbEntity
  8
文字
 62
     0
100
AcDbBlockReference
  2
_OPEN30
 10
520.1358702521513
 20
221.5043681301141
 30
0.0
 41
2.5
 42
2.5
 43
2.5
  0
MTEXT
  5
E80
330
9AE
100
AcDbEntity
  8
文字
 62
     0
100
AcDbMText
 10
530.2381050200706
 20
224.2543681301141
 30
0.0
 40
3.5
 41
0.0
 71
     5
 72
     1
  1
\A1;(φ18）
1001
ACAD
1000
MTEXTBEGIN
1070
    73
1070
     1
1070
    44
1040
1.0
1070
    74
1070
     0
1000
MTEXTEND
  0
POINT
  5
E81
330
9AE
100
AcDbEntity
  8
DEFPOINTS
 62
     0
100
AcDbPoint
 10
502.1358702521513
 20
176.047341398914
 30
0.0
  0
POINT
  5
E82
330
9AE
100
AcDbEntity
  8
DEFPOINTS
 62
     0
100
AcDbPoint
 10
520.1358702521513
 20
175.715744659314
 30
0.0
  0
POINT
  5
E83
330
9AE
100
AcDbEntity
  8
DEFPOINTS
 62
     0
100
AcDbPoint
 10
520.1358702521513
 20
221.5043681301141
 30
0.0
  0
ENDBLK
  5
9BA
330
9AE
100
AcDbEntity
  8
0
100
AcDbBlockEnd
  0
BLOCK
  5
9C5
330
9BB
100
AcDbEntity
  8
0
100
AcDbBlockBegin
  2
*D33
 70
     1
 10
0.0
 20
0.0
 30
0.0
  3
*D33
  1

  0
LINE
  5
EA0
330
9BB
100
AcDbEntity
  8
文字
 62
     0
100
AcDbLine
 10
444.974142922951
 20
162.8003242851142
 30
0.0
 11
401.1406261772024
 21
162.8003242851142
 31
0.0
  0
LINE
  5
EA1
330
9BB
100
AcDbEntity
  8
文字
 62
     0
100
AcDbLine
 10
505.686293082951
 20
189.3003242851142
 30
0.0
 11
401.1406261772024
 21
189.3003242851142
 31
0.0
  0
LINE
  5
EA2
330
9BB
100
AcDbEntity
  8
文字
 62
     0
100
AcDbLine
 10
403.1406261772024
 20
165.3003242851142
 30
0.0
 11
403.1406261772024
 21
186.8003242851142
 31
0.0
  0
INSERT
  5
EA3
330
9BB
100
AcDbEntity
  8
文字
 62
     0
100
AcDbBlockReference
  2
_OPEN30
 10
403.1406261772024
 20
162.8003242851142
 30
0.0
 41
2.5
 42
2.5
 43
2.5
 50
270.0
  0
INSERT
  5
EA4
330
9BB
100
AcDbEntity
  8
文字
 62
     0
100
AcDbBlockReference
  2
_OPEN30
 10
403.1406261772024
 20
189.3003242851142
 30
0.0
 41
2.5
 42
2.5
 43
2.5
 50
90.0
  0
MTEXT
  5
EA5
330
9BB
100
AcDbEntity
  8
文字
 62
     0
100
AcDbMText
 10
400.3906261772023
 20
175.255148919714
 30
0.0
 40
3.5
 41
0.0
 71
     5
 72
     1
  1
\A1;(27)
 11
0.0000000000000001
 21
1.0
 31
0.0
1001
ACAD
1000
MTEXTBEGIN
1070
    73
1070
     1
1070
    44
1040
1.0
1070
    74
1070
     0
1000
MTEXTEND
  0
POINT
  5
EA6
330
9BB
100
AcDbEntity
  8
DEFPOINTS
 62
     0
100
AcDbPoint
 10
445.974142922951
 20
162.8003242851142
 30
0.0
  0
POINT
  5
EA7
330
9BB
100
AcDbEntity
  8
DEFPOINTS
 62
     0
100
AcDbPoint
 10
506.686293082951
 20
189.3003242851142
 30
0.0
  0
POINT
  5
EA8
330
9BB
100
AcDbEntity
  8
DEFPOINTS
 62
     0
100
AcDbPoint
 10
403.1406261772024
 20
189.3003242851142
 30
0.0
  0
ENDBLK
  5
9C6
330
9BB
100
AcDbEntity
  8
0
100
AcDbBlockEnd
  0
BLOCK
  5
9D1
330
9C7
100
AcDbEntity
  8
0
100
AcDbBlockBegin
  2
*D34
 70
     1
 10
0.0
 20
0.0
 30
0.0
  3
*D34
  1

  0
LINE
  5
EA9
330
9C7
100
AcDbEntity
  8
文字
 62
     0
100
AcDbLine
 10
453.5706858356022
 20
162.8003242851142
 30
0.0
 11
401.1406261772024
 21
162.8003242851142
 31
0.0
  0
LINE
  5
EAA
330
9C7
100
AcDbEntity
  8
文字
 62
     0
100
AcDbLine
 10
529.7050739206022
 20
43.30032428511423
 30
0.0
 11
401.1406261772023
 21
43.30032428511427
 31
0.0
  0
LINE
  5
EAB
330
9C7
100
AcDbEntity
  8
文字
 62
     0
100
AcDbLine
 10
403.1406261772024
 20
160.3003242851142
 30
0.0
 11
403.1406261772024
 21
45.80032428511427
 31
0.0
  0
INSERT
  5
EAC
330
9C7
100
AcDbEntity
  8
文字
 62
     0
100
AcDbBlockReference
  2
_OPEN30
 10
403.1406261772024
 20
162.8003242851142
 30
0.0
 41
2.5
 42
2.5
 43
2.5
 50
90.0
  0
INSERT
  5
EAD
330
9C7
100
AcDbEntity
  8
文字
 62
     0
100
AcDbBlockReference
  2
_OPEN30
 10
403.1406261772024
 20
43.30032428511427
 30
0.0
 41
2.5
 42
2.5
 43
2.5
 50
270.0
  0
MTEXT
  5
EAE
330
9C7
100
AcDbEntity
  8
文字
 62
     0
100
AcDbMText
 10
400.3906261772023
 20
100.2389213105139
 30
0.0
 40
3.5
 41
0.0
 71
     5
 72
     1
  1
\A1;119.5
 11
0.0000000000000001
 21
1.0
 31
0.0
1001
ACAD
1000
MTEXTBEGIN
1070
    73
1070
     1
1070
    44
1040
1.0
1070
    74
1070
     0
1000
MTEXTEND
  0
POINT
  5
EAF
330
9C7
100
AcDbEntity
  8
DEFPOINTS
 62
     0
100
AcDbPoint
 10
454.5706858356021
 20
162.8003242851142
 30
0.0
  0
POINT
  5
EB0
330
9C7
100
AcDbEntity
  8
DEFPOINTS
 62
     0
100
AcDbPoint
 10
530.7050739206021
 20
43.30032428511423
 30
0.0
  0
POINT
  5
EB1
330
9C7
100
AcDbEntity
  8
DEFPOINTS
 62
     0
100
AcDbPoint
 10
403.1406261772024
 20
43.30032428511427
 30
0.0
  0
ENDBLK
  5
9D2
330
9C7
100
AcDbEntity
  8
0
100
AcDbBlockEnd
  0
BLOCK
  5
9DD
330
9D3
100
AcDbEntity
  8
0
100
AcDbBlockBegin
  2
*D35
 70
     1
 10
0.0
 20
0.0
 30
0.0
  3
*D35
  1

  0
LINE
  5
EB2
330
9D3
100
AcDbEntity
  8
文字
 62
     0
100
AcDbLine
 10
453.5706858356022
 20
162.8003242851142
 30
0.0
 11
414.3829479516023
 21
162.8003242851142
 31
0.0
  0
LINE
  5
EB3
330
9D3
100
AcDbEntity
  8
文字
 62
     0
100
AcDbLine
 10
461.9130623806022
 20
109.3003242851142
 30
0.0
 11
414.3829479516022
 21
109.3003242851142
 31
0.0
  0
LINE
  5
EB4
330
9D3
100
AcDbEntity
  8
文字
 62
     0
100
AcDbLine
 10
416.3829479516023
 20
160.3003242851142
 30
0.0
 11
416.3829479516023
 21
111.8003242851142
 31
0.0
  0
INSERT
  5
EB5
330
9D3
100
AcDbEntity
  8
文字
 62
     0
100
AcDbBlockReference
  2
_OPEN30
 10
416.3829479516023
 20
162.8003242851142
 30
0.0
 41
2.5
 42
2.5
 43
2.5
 50
90.0
  0
INSERT
  5
EB6
330
9D3
100
AcDbEntity
  8
文字
 62
     0
100
AcDbBlockReference
  2
_OPEN30
 10
416.3829479516023
 20
109.3003242851142
 30
0.0
 41
2.5
 42
2.5
 43
2.5
 50
270.0
  0
MTEXT
  5
EB7
330
9D3
100
AcDbEntity
  8
文字
 62
     0
100
AcDbMText
 10
413.6329479516022
 20
136.750533324914
 30
0.0
 40
3.5
 41
0.0
 71
     5
 72
     1
  1
\A1;53.5
 11
0.0000000000000001
 21
1.0
 31
0.0
1001
ACAD
1000
MTEXTBEGIN
1070
    73
1070
     1
1070
    44
1040
1.0
1070
    74
1070
     0
1000
MTEXTEND
  0
POINT
  5
EB8
330
9D3
100
AcDbEntity
  8
DEFPOINTS
 62
     0
100
AcDbPoint
 10
454.5706858356021
 20
162.8003242851142
 30
0.0
  0
POINT
  5
EB9
330
9D3
100
AcDbEntity
  8
DEFPOINTS
 62
     0
100
AcDbPoint
 10
462.9130623806021
 20
109.3003242851142
 30
0.0
  0
POINT
  5
EBA
330
9D3
100
AcDbEntity
  8
DEFPOINTS
 62
     0
100
AcDbPoint
 10
416.3829479516023
 20
109.3003242851142
 30
0.0
  0
ENDBLK
  5
9DE
330
9D3
100
AcDbEntity
  8
0
100
AcDbBlockEnd
  0
BLOCK
  5
9EA
330
9DF
100
AcDbEntity
  8
0
100
AcDbBlockBegin
  2
*D36
 70
     1
 10
0.0
 20
0.0
 30
0.0
  3
*D36
  1

  0
LINE
  5
E8A
330
9DF
100
AcDbEntity
  8
文字
 62
     0
100
AcDbLine
 10
453.5706858356022
 20
162.8003242851142
 30
0.0
 11
423.9709166362022
 21
162.8003242851142
 31
0.0
  0
LINE
  5
E8B
330
9DF
100
AcDbEntity
  8
文字
 62
     0
100
AcDbLine
 10
453.8189818716023
 20
156.8003242851142
 30
0.0
 11
423.9709166362022
 21
156.8003242851142
 31
0.0
  0
LINE
  5
E8C
330
9DF
100
AcDbEntity
  8
文字
 62
     0
100
AcDbLine
 10
425.9709166362021
 20
154.3003242851142
 30
0.0
 11
425.9709166362021
 21
151.8003242851142
 31
0.0
  0
LINE
  5
E8D
330
9DF
100
AcDbEntity
  8
文字
 62
     0
100
AcDbLine
 10
425.9709166362021
 20
165.3003242851142
 30
0.0
 11
425.9709166362021
 21
177.0669909517812
 31
0.0
  0
LINE
  5
E8E
330
9DF
100
AcDbEntity
  8
文字
 62
     0
100
AcDbLine
 10
425.9709166362021
 20
156.8003242851142
 30
0.0
 11
425.9709166362021
 21
162.8003242851142
 31
0.0
  0
INSERT
  5
E8F
330
9DF
100
AcDbEntity
  8
文字
 62
     0
100
AcDbBlockReference
  2
_OPEN30
 10
425.9709166362021
 20
156.8003242851142
 30
0.0
 41
2.5
 42
2.5
 43
2.5
 50
90.0
  0
INSERT
  5
E90
330
9DF
100
AcDbEntity
  8
文字
 62
     0
100
AcDbBlockReference
  2
_OPEN30
 10
425.9709166362021
 20
162.8003242851142
 30
0.0
 41
2.5
 42
2.5
 43
2.5
 50
270.0
  0
MTEXT
  5
E91
330
9DF
100
AcDbEntity
  8
文字
 62
     0
100
AcDbMText
 10
423.2209166362022
 20
175.1336576184479
 30
0.0
 40
3.5
 41
0.0
 71
     5
 72
     1
  1
\A1;6
 11
0.0000000000000001
 21
1.0
 31
0.0
1001
ACAD
1000
MTEXTBEGIN
1070
    73
1070
     1
1070
    44
1040
1.0
1070
    74
1070
     0
1000
MTEXTEND
  0
POINT
  5
E92
330
9DF
100
AcDbEntity
  8
DEFPOINTS
 62
     0
100
AcDbPoint
 10
454.5706858356021
 20
162.8003242851142
 30
0.0
  0
POINT
  5
E93
330
9DF
100
AcDbEntity
  8
DEFPOINTS
 62
     0
100
AcDbPoint
 10
454.8189818716022
 20
156.8003242851142
 30
0.0
  0
POINT
  5
E94
330
9DF
100
AcDbEntity
  8
DEFPOINTS
 62
     0
100
AcDbPoint
 10
425.9709166362021
 20
156.8003242851142
 30
0.0
  0
ENDBLK
  5
9EB
330
9DF
100
AcDbEntity
  8
0
100
AcDbBlockEnd
  0
BLOCK
  5
9F7
330
9EC
100
AcDbEntity
  8
0
100
AcDbBlockBegin
  2
*D37
 70
     1
 10
0.0
 20
0.0
 30
0.0
  3
*D37
  1

  0
LINE
  5
E95
330
9EC
100
AcDbEntity
  8
文字
 62
     0
100
AcDbLine
 10
453.5706858356022
 20
162.8003242851142
 30
0.0
 11
437.8744235282024
 21
162.8003242851142
 31
0.0
  0
LINE
  5
E96
330
9EC
100
AcDbEntity
  8
文字
 62
     0
100
AcDbLine
 10
453.9985101112021
 20
161.8003242851142
 30
0.0
 11
437.8744235282024
 21
161.8003242851142
 31
0.0
  0
LINE
  5
E97
330
9EC
100
AcDbEntity
  8
文字
 62
     0
100
AcDbLine
 10
439.8744235282024
 20
159.3003242851142
 30
0.0
 11
439.8744235282024
 21
156.8003242851142
 31
0.0
  0
LINE
  5
E98
330
9EC
100
AcDbEntity
  8
文字
 62
     0
100
AcDbLine
 10
439.8744235282024
 20
165.3003242851142
 30
0.0
 11
439.8744235282024
 21
178.0003242851146
 31
0.0
  0
LINE
  5
E99
330
9EC
100
AcDbEntity
  8
文字
 62
     0
100
AcDbLine
 10
439.8744235282024
 20
161.8003242851142
 30
0.0
 11
439.8744235282024
 21
162.8003242851142
 31
0.0
  0
INSERT
  5
E9A
330
9EC
100
AcDbEntity
  8
文字
 62
     0
100
AcDbBlockReference
  2
_OPEN30
 10
439.8744235282024
 20
161.8003242851142
 30
0.0
 41
2.5
 42
2.5
 43
2.5
 50
90.0
  0
INSERT
  5
E9B
330
9EC
100
AcDbEntity
  8
文字
 62
     0
100
AcDbBlockReference
  2
_OPEN30
 10
439.8744235282024
 20
162.8003242851142
 30
0.0
 41
2.5
 42
2.5
 43
2.5
 50
270.0
  0
MTEXT
  5
E9C
330
9EC
100
AcDbEntity
  8
文字
 62
     0
100
AcDbMText
 10
437.1244235282023
 20
176.533657618448
 30
0.0
 40
3.5
 41
0.0
 71
     5
 72
     1
  1
\A1;1
 11
0.0000000000000001
 21
1.0
 31
0.0
1001
ACAD
1000
MTEXTBEGIN
1070
    73
1070
     1
1070
    44
1040
1.0
1070
    74
1070
     0
1000
MTEXTEND
  0
POINT
  5
E9D
330
9EC
100
AcDbEntity
  8
DEFPOINTS
 62
     0
100
AcDbPoint
 10
454.5706858356021
 20
162.8003242851142
 30
0.0
  0
POINT
  5
E9E
330
9EC
100
AcDbEntity
  8
DEFPOINTS
 62
     0
100
AcDbPoint
 10
454.9985101112021
 20
161.8003242851142
 30
0.0
  0
POINT
  5
E9F
330
9EC
100
AcDbEntity
  8
DEFPOINTS
 62
     0
100
AcDbPoint
 10
439.8744235282024
 20
161.8003242851142
 30
0.0
  0
ENDBLK
  5
9F8
330
9EC
100
AcDbEntity
  8
0
100
AcDbBlockEnd
  0
BLOCK
  5
A01
330
9F9
100
AcDbEntity
  8
0
100
AcDbBlockBegin
  2
*D38
 70
     1
 10
0.0
 20
0.0
 30
0.0
  3
*D38
  1

  0
LINE
  5
EC4
330
9F9
100
AcDbEntity
  8
文字
 62
     0
100
AcDbLine
 10
598.4816793160182
 20
62.42447632050846
 30
0.0
 11
585.0110487610679
 21
70.67023010345412
 31
0.0
  0
MTEXT
  5
EC5
330
9F9
100
AcDbEntity
  8
文字
 62
     0
100
AcDbMText
 10
594.8853194350695
 20
67.85022010424021
 30
0.0
 40
3.5
 41
0.0
 71
     5
 72
     1
  1
\A1;SR60
 11
0.8528955974478469
 21
-0.522081506906805
 31
0.0
1001
ACAD
1000
MTEXTBEGIN
1070
    73
1070
     1
1070
    44
1040
1.0
1070
    74
1070
     0
1000
MTEXTEND
  0
LINE
  5
EC6
330
9F9
100
AcDbEntity
  8
文字
 62
     0
100
AcDbLine
 10
531.7050739206022
 20
103.3003242851142
 30
0.0
 11
582.8788097674483
 21
71.97543387072113
 31
0.0
  0
INSERT
  5
EC7
330
9F9
100
AcDbEntity
  8
文字
 62
     0
100
AcDbBlockReference
  2
_OPEN30
 10
582.8788097674483
 20
71.97543387072113
 30
0.0
 41
2.5
 42
2.5
 43
2.5
 50
148.528021284966
  0
POINT
  5
EC8
330
9F9
100
AcDbEntity
  8
DEFPOINTS
 62
     0
100
AcDbPoint
 10
582.8788097674483
 20
71.97543387072113
 30
0.0
  0
POINT
  5
EC9
330
9F9
100
AcDbEntity
  8
DEFPOINTS
 62
     0
100
AcDbPoint
 10
531.7050739206022
 20
103.3003242851142
 30
0.0
  0
ENDBLK
  5
A02
330
9F9
100
AcDbEntity
  8
0
100
AcDbBlockEnd
  0
BLOCK
  5
A0B
330
A03
100
AcDbEntity
  8
0
100
AcDbBlockBegin
  2
*D39
 70
     1
 10
0.0
 20
0.0
 30
0.0
  3
*D39
  1

  0
LINE
  5
E72
330
A03
100
AcDbEntity
  8
文字
 62
     0
100
AcDbLine
 10
481.4459370506442
 20
236.732629990882
 30
0.0
 11
494.6500625467751
 21
261.0713584071186
 31
0.0
  0
LINE
  5
E73
330
A03
100
AcDbEntity
  8
文字
 62
     0
100
AcDbLine
 10
568.7600852942294
 20
397.6759156040295
 30
0.0
 11
569.9522342174504
 21
399.873364339464
 31
0.0
  0
MTEXT
  5
E74
330
A03
100
AcDbEntity
  8
文字
 62
     0
100
AcDbMText
 10
482.5098182974723
 20
244.4605441138939
 30
0.0
 40
3.5
 41
0.0
 71
     5
 72
     1
  1
\A1;\U+2205150.4
 11
0.476859569288495
 21
0.8789794941737783
 31
0.0
1001
ACAD
1000
MTEXTBEGIN
1070
    73
1070
     1
1070
    44
1040
1.0
1070
    74
1070
     0
1000
MTEXTEND
  0
LINE
  5
E75
330
A03
100
AcDbEntity
  8
文字
 62
     0
100
AcDbLine
 10
567.567936371008
 20
395.4784668685951
 30
0.0
 11
495.8422114699963
 21
263.2688071425531
 31
0.0
  0
INSERT
  5
E76
330
A03
100
AcDbEntity
  8
文字
 62
     0
100
AcDbBlockReference
  2
_OPEN30
 10
567.567936371008
 20
395.4784668685951
 30
0.0
 41
2.5
 42
2.5
 43
2.5
 50
241.519504395083
  0
INSERT
  5
E77
330
A03
100
AcDbEntity
  8
文字
 62
     0
100
AcDbBlockReference
  2
_OPEN30
 10
495.8422114699963
 20
263.2688071425531
 30
0.0
 41
2.5
 42
2.5
 43
2.5
 50
61.51950439508304
  0
POINT
  5
E78
330
A03
100
AcDbEntity
  8
DEFPOINTS
 62
     0
100
AcDbPoint
 10
495.8422114699963
 20
263.2688071425531
 30
0.0
  0
POINT
  5
E79
330
A03
100
AcDbEntity
  8
DEFPOINTS
 62
     0
100
AcDbPoint
 10
567.567936371008
 20
395.4784668685951
 30
0.0
  0
ENDBLK
  5
A0C
330
A03
100
AcDbEntity
  8
0
100
AcDbBlockEnd
  0
BLOCK
  5
A17
330
A0D
100
AcDbEntity
  8
0
100
AcDbBlockBegin
  2
*D40
 70
     1
 10
0.0
 20
0.0
 30
0.0
  3
*D40
  1

  0
ARC
  5
EF4
330
A0D
100
AcDbEntity
  8
文字
 62
     0
100
AcDbCircle
 10
531.705073920602
 20
329.3736370045809
 30
0.0
 40
105.1189196888965
100
AcDbArc
 50
91.36267405683474
 51
208.6373259426782
  0
INSERT
  5
EF5
330
A0D
100
AcDbEntity
  8
文字
 62
     0
100
AcDbBlockReference
  2
_OPEN30
 10
531.7050739206022
 20
434.4925566934774
 30
0.0
 41
2.5
 42
2.5
 43
2.5
 50
0.6813370284172918
  0
INSERT
  5
EF6
330
A0D
100
AcDbEntity
  8
文字
 62
     0
100
AcDbBlockReference
  2
_OPEN30
 10
440.6694190511947
 20
276.8141771609062
 30
0.0
 41
2.5
 42
2.5
 43
2.5
 50
299.3186629710957
  0
MTEXT
  5
EF7
330
A0D
100
AcDbEntity
  8
文字
 62
     0
100
AcDbMText
 10
441.8997766506124
 20
389.1290753938892
 30
0.0
 40
3.5
 41
0.0
 71
     5
 72
     1
  1
\A1;120°
 11
0.553963445278289
 21
0.8325409907598595
 31
0.0
  0
POINT
  5
EF8
330
A0D
100
AcDbEntity
  8
DEFPOINTS
 62
     0
100
AcDbPoint
 10
428.1831468228124
 20
347.6273458474608
 30
0.0
  0
POINT
  5
EF9
330
A0D
100
AcDbEntity
  8
DEFPOINTS
 62
     0
100
AcDbPoint
 10
438.9373682444022
 20
275.8141771613742
 30
0.0
  0
POINT
  5
EFA
330
A0D
100
AcDbEntity
  8
DEFPOINTS
 62
     0
100
AcDbPoint
 10
531.705073920602
 20
421.0910406251734
 30
0.0
  0
POINT
  5
EFB
330
A0D
100
AcDbEntity
  8
DEFPOINTS
 62
     0
100
AcDbPoint
 10
531.7050739206022
 20
436.4925566937738
 30
0.0
  0
POINT
  5
EFC
330
A0D
100
AcDbEntity
  8
DEFPOINTS
 62
     0
100
AcDbPoint
 10
452.2093297916023
 20
283.4767477331741
 30
0.0
  0
ENDBLK
  5
A18
330
A0D
100
AcDbEntity
  8
0
100
AcDbBlockEnd
  0
BLOCK
  5
A21
330
A19
100
AcDbEntity
  8
0
100
AcDbBlockBegin
  2
*D41
 70
     1
 10
0.0
 20
0.0
 30
0.0
  3
*D41
  1

  0
LINE
  5
E6A
330
A19
100
AcDbEntity
  8
文字
 62
     0
100
AcDbLine
 10
467.7953787988339
 20
255.9615899884056
 30
0.0
 11
476.8784347835901
 21
266.3951514651448
 31
0.0
  0
LINE
  5
E6B
330
A19
100
AcDbEntity
  8
文字
 62
     0
100
AcDbLine
 10
586.5317130574162
 20
392.3521225458041
 30
0.0
 11
588.1732291992396
 21
394.2377059452147
 31
0.0
  0
MTEXT
  5
E6C
330
A19
100
AcDbEntity
  8
文字
 62
     0
100
AcDbMText
 10
469.4420069809484
 20
262.0412467830756
 30
0.0
 40
3.5
 41
0.0
 71
     5
 72
     1
  1
\A1;\U+2205162
 11
0.6566064567293656
 21
0.754233359764276
 31
0.0
1001
ACAD
1000
MTEXTBEGIN
1070
    73
1070
     1
1070
    44
1040
1.0
1070
    74
1070
     0
1000
MTEXTEND
  0
LINE
  5
E6D
330
A19
100
AcDbEntity
  8
文字
 62
     0
100
AcDbLine
 10
584.8901969155929
 20
390.4665391463934
 30
0.0
 11
478.5199509254135
 21
268.2807348645555
 31
0.0
  0
INSERT
  5
E6E
330
A19
100
AcDbEntity
  8
文字
 62
     0
100
AcDbBlockReference
  2
_OPEN30
 10
584.8901969155929
 20
390.4665391463934
 30
0.0
 41
2.5
 42
2.5
 43
2.5
 50
228.958427456973
  0
INSERT
  5
E6F
330
A19
100
AcDbEntity
  8
文字
 62
     0
100
AcDbBlockReference
  2
_OPEN30
 10
478.5199509254135
 20
268.2807348645555
 30
0.0
 41
2.5
 42
2.5
 43
2.5
 50
48.95842745697304
  0
POINT
  5
E70
330
A19
100
AcDbEntity
  8
DEFPOINTS
 62
     0
100
AcDbPoint
 10
478.5199509254135
 20
268.2807348645555
 30
0.0
  0
POINT
  5
E71
330
A19
100
AcDbEntity
  8
DEFPOINTS
 62
     0
100
AcDbPoint
 10
584.8901969155929
 20
390.4665391463934
 30
0.0
  0
ENDBLK
  5
A22
330
A19
100
AcDbEntity
  8
0
100
AcDbBlockEnd
  0
BLOCK
  5
A2B
330
A23
100
AcDbEntity
  8
0
100
AcDbBlockBegin
  2
*D42
 70
     1
 10
0.0
 20
0.0
 30
0.0
  3
*D42
  1

  0
LINE
  5
EBB
330
A23
100
AcDbEntity
  8
文字
 62
     0
100
AcDbLine
 10
449.7641684220308
 20
252.3853431920824
 30
0.0
 11
460.0501067686578
 21
284.2111029385601
 31
0.0
  0
LINE
  5
EBC
330
A23
100
AcDbEntity
  8
文字
 62
     0
100
AcDbLine
 10
463.0639256583476
 20
293.5361710723893
 30
0.0
 11
463.8327570077566
 21
295.9150149840754
 31
0.0
  0
MTEXT
  5
EBD
330
A23
100
AcDbEntity
  8
文字
 62
     0
100
AcDbMText
 10
450.2678702893108
 20
262.8859921659956
 30
0.0
 40
3.5
 41
0.0
 71
     5
 72
     1
  1
\A1;3-\U+22054.8穴
 11
0.3075325397636115
 21
0.9515375646744287
 31
0.0
1001
ACAD
1000
MTEXTBEGIN
1070
    73
1070
     1
1070
    44
1040
1.0
1070
    74
1070
     0
1000
MTEXTEND
  0
LINE
  5
EBE
330
A23
100
AcDbEntity
  8
文字
 62
     0
100
AcDbLine
 10
462.2950943089385
 20
291.1573271607032
 30
0.0
 11
460.8189381180668
 21
286.5899468502462
 31
0.0
  0
INSERT
  5
EBF
330
A23
100
AcDbEntity
  8
文字
 62
     0
100
AcDbBlockReference
  2
_OPEN30
 10
462.2950943089385
 20
291.1573271607032
 30
0.0
 41
2.5
 42
2.5
 43
2.5
 50
252.0894073703899
  0
INSERT
  5
EC0
330
A23
100
AcDbEntity
  8
文字
 62
     0
100
AcDbBlockReference
  2
_OPEN30
 10
460.8189381180668
 20
286.5899468502462
 30
0.0
 41
2.5
 42
2.5
 43
2.5
 50
72.08940737038997
  0
POINT
  5
EC1
330
A23
100
AcDbEntity
  8
DEFPOINTS
 62
     0
100
AcDbPoint
 10
460.8189381180668
 20
286.5899468502462
 30
0.0
  0
POINT
  5
EC2
330
A23
100
AcDbEntity
  8
DEFPOINTS
 62
     0
100
AcDbPoint
 10
462.2950943089385
 20
291.1573271607032
 30
0.0
  0
ENDBLK
  5
A2C
330
A23
100
AcDbEntity
  8
0
100
AcDbBlockEnd
  0
BLOCK
  5
A35
330
A2D
100
AcDbEntity
  8
0
100
AcDbBlockBegin
  2
*D43
 70
     1
 10
0.0
 20
0.0
 30
0.0
  3
*D43
  1

  0
LINE
  5
E53
330
A2D
100
AcDbEntity
  8
文字
 62
     0
100
AcDbLine
 10
445.0139408616556
 20
295.034396906281
 30
0.0
 11
453.6042588122153
 21
291.8353008955198
 31
0.0
  0
MTEXT
  5
E54
330
A2D
100
AcDbEntity
  8
文字
 62
     0
100
AcDbMText
 10
449.0974216469057
 20
296.4481846511721
 30
0.0
 40
3.5
 41
0.0
 71
     5
 72
     1
  1
\A1;R6
 11
0.9371255946065216
 21
-0.348992292083039
 31
0.0
1001
ACAD
1000
MTEXTBEGIN
1070
    73
1070
     1
1070
    44
1040
1.0
1070
    74
1070
     0
1000
MTEXTEND
  0
LINE
  5
E55
330
A2D
100
AcDbEntity
  8
文字
 62
     0
100
AcDbLine
 10
461.5570162136018
 20
288.873637005574
 30
0.0
 11
455.9470727987316
 21
290.9628201653122
 31
0.0
  0
INSERT
  5
E56
330
A2D
100
AcDbEntity
  8
文字
 62
     0
100
AcDbBlockReference
  2
_OPEN30
 10
455.9470727987316
 20
290.9628201653122
 30
0.0
 41
2.5
 42
2.5
 43
2.5
 50
339.5743084151158
  0
POINT
  5
E57
330
A2D
100
AcDbEntity
  8
DEFPOINTS
 62
     0
100
AcDbPoint
 10
455.9470727987316
 20
290.9628201653122
 30
0.0
  0
POINT
  5
E58
330
A2D
100
AcDbEntity
  8
DEFPOINTS
 62
     0
100
AcDbPoint
 10
461.5570162136018
 20
288.873637005574
 30
0.0
  0
ENDBLK
  5
A36
330
A2D
100
AcDbEntity
  8
0
100
AcDbBlockEnd
  0
BLOCK
  5
A41
330
A37
100
AcDbEntity
  8
0
100
AcDbBlockBegin
  2
*D44
 70
     1
 10
0.0
 20
0.0
 30
0.0
  3
*D44
  1

  0
ARC
  5
EFD
330
A37
100
AcDbEntity
  8
文字
 62
     0
100
AcDbCircle
 10
531.705073920602
 20
329.3736370062982
 30
0.0
 40
105.3330515132243
100
AcDbArc
 50
331.359903742749
 51
88.64009625685538
  0
INSERT
  5
EFE
330
A37
100
AcDbEntity
  8
文字
 62
     0
100
AcDbBlockReference
  2
_OPEN30
 10
622.9261723888255
 20
276.7071112490565
 30
0.0
 41
2.5
 42
2.5
 43
2.5
 50
240.6799518711768
  0
INSERT
  5
EFF
330
A37
100
AcDbEntity
  8
文字
 62
     0
100
AcDbBlockReference
  2
_OPEN30
 10
531.7050739206023
 20
434.7066885195226
 30
0.0
 41
2.5
 42
2.5
 43
2.5
 50
179.3200481284276
  0
MTEXT
  5
F00
330
A37
100
AcDbEntity
  8
文字
 62
     0
100
AcDbMText
 10
620.6830003858609
 20
390.7322111940453
 30
0.0
 40
3.5
 41
0.0
 71
     5
 72
     1
  1
\A1;120°
 11
0.5676983886806714
 21
-0.8232366242395737
 31
0.0
  0
POINT
  5
F01
330
A37
100
AcDbEntity
  8
DEFPOINTS
 62
     0
100
AcDbPoint
 10
635.4378796993437
 20
347.6645294491892
 30
0.0
  0
POINT
  5
F02
330
A37
100
AcDbEntity
  8
DEFPOINTS
 62
     0
100
AcDbPoint
 10
531.7050739206022
 20
436.7066885193736
 30
0.0
  0
POINT
  5
F03
330
A37
100
AcDbEntity
  8
DEFPOINTS
 62
     0
100
AcDbPoint
 10
610.9869688570024
 20
283.6002136221742
 30
0.0
  0
POINT
  5
F04
330
A37
100
AcDbEntity
  8
DEFPOINTS
 62
     0
100
AcDbPoint
 10
624.6582231972022
 20
275.7071112485742
 30
0.0
  0
POINT
  5
F05
330
A37
100
AcDbEntity
  8
DEFPOINTS
 62
     0
100
AcDbPoint
 10
531.7050739206022
 20
419.9051582723738
 30
0.0
  0
ENDBLK
  5
A42
330
A37
100
AcDbEntity
  8
0
100
AcDbBlockEnd
  0
BLOCK
  5
AA4
330
A9A
100
AcDbEntity
  8
0
100
AcDbBlockBegin
  2
*D45
 70
     1
 10
0.0
 20
0.0
 30
0.0
  3
*D45
  1

  0
LINE
  5
E4A
330
A9A
100
AcDbEntity
  8
文字
 62
     0
100
AcDbLine
 10
497.0169818321012
 20
353.8870591853814
 30
0.0
 11
480.7518205300221
 21
353.8870591853814
 31
0.0
  0
LINE
  5
E4B
330
A9A
100
AcDbEntity
  8
文字
 62
     0
100
AcDbLine
 10
480.5419851347612
 20
329.3736370055737
 30
0.0
 11
484.7518205300221
 21
329.3736370055737
 31
0.0
  0
LINE
  5
E4C
330
A9A
100
AcDbEntity
  8
文字
 62
     0
100
AcDbLine
 10
482.751820530022
 20
351.3870591853814
 30
0.0
 11
482.751820530022
 21
331.8736370055737
 31
0.0
  0
INSERT
  5
E4D
330
A9A
100
AcDbEntity
  8
文字
 62
     0
100
AcDbBlockReference
  2
_OPEN30
 10
482.751820530022
 20
353.8870591853814
 30
0.0
 41
2.5
 42
2.5
 43
2.5
 50
90.0
  0
INSERT
  5
E4E
330
A9A
100
AcDbEntity
  8
文字
 62
     0
100
AcDbBlockReference
  2
_OPEN30
 10
482.751820530022
 20
329.3736370055737
 30
0.0
 41
2.5
 42
2.5
 43
2.5
 50
270.0
  0
MTEXT
  5
E4F
330
A9A
100
AcDbEntity
  8
文字
 62
     0
100
AcDbMText
 10
480.001820530022
 20
341.7492065089785
 30
0.0
 40
3.5
 41
0.0
 71
     5
 72
     1
  1
\A1;(24.5)
 11
0.0000000000000001
 21
1.0
 31
0.0
1001
ACAD
1000
MTEXTBEGIN
1070
    73
1070
     1
1070
    44
1040
1.0
1070
    74
1070
     0
1000
MTEXTEND
  0
POINT
  5
E50
330
A9A
100
AcDbEntity
  8
DEFPOINTS
 62
     0
100
AcDbPoint
 10
498.0169818321011
 20
353.8870591853814
 30
0.0
  0
POINT
  5
E51
330
A9A
100
AcDbEntity
  8
DEFPOINTS
 62
     0
100
AcDbPoint
 10
479.5419851347611
 20
329.3736370055737
 30
0.0
  0
POINT
  5
E52
330
A9A
100
AcDbEntity
  8
DEFPOINTS
 62
     0
100
AcDbPoint
 10
482.751820530022
 20
329.3736370055737
 30
0.0
  0
ENDBLK
  5
AA5
330
A9A
100
AcDbEntity
  8
0
100
AcDbBlockEnd
  0
BLOCK
  5
AB1
330
AA6
100
AcDbEntity
  8
0
100
AcDbBlockBegin
  2
*D46
 70
     1
 10
0.0
 20
0.0
 30
0.0
  3
*D46
  1

  0
LINE
  5
E40
330
AA6
100
AcDbEntity
  8
文字
 62
     0
100
AcDbLine
 10
531.7050739206022
 20
379.9788880395614
 30
0.0
 11
531.7050739206022
 21
374.5550281330354
 31
0.0
  0
LINE
  5
E41
330
AA6
100
AcDbEntity
  8
文字
 62
     0
100
AcDbLine
 10
511.1358704101512
 20
368.0059477634319
 30
0.0
 11
511.1358704101512
 21
378.5550281330354
 31
0.0
  0
LINE
  5
E42
330
AA6
100
AcDbEntity
  8
文字
 62
     0
100
AcDbLine
 10
529.2050739206022
 20
376.5550281330354
 30
0.0
 11
513.6358704101512
 21
376.5550281330354
 31
0.0
  0
LINE
  5
E43
330
AA6
100
AcDbEntity
  8
文字
 62
     0
100
AcDbLine
 10
511.1358704101512
 20
376.5550281330354
 30
0.0
 11
481.595870410151
 21
376.5550281330354
 31
0.0
  0
INSERT
  5
E44
330
AA6
100
AcDbEntity
  8
文字
 62
     0
100
AcDbBlockReference
  2
_OPEN30
 10
531.7050739206022
 20
376.5550281330354
 30
0.0
 41
2.5
 42
2.5
 43
2.5
  0
INSERT
  5
E45
330
AA6
100
AcDbEntity
  8
文字
 62
     0
100
AcDbBlockReference
  2
_OPEN30
 10
511.1358704101512
 20
376.5550281330354
 30
0.0
 41
2.5
 42
2.5
 43
2.5
 50
180.0
  0
MTEXT
  5
E46
330
AA6
100
AcDbEntity
  8
文字
 62
     0
100
AcDbMText
 10
489.2692037434843
 20
379.3050281330354
 30
0.0
 40
3.5
 41
0.0
 71
     5
 72
     1
  1
\A1;（20.5）
1001
ACAD
1000
MTEXTBEGIN
1070
    73
1070
     1
1070
    44
1040
1.0
1070
    74
1070
     0
1000
MTEXTEND
  0
POINT
  5
E47
330
AA6
100
AcDbEntity
  8
DEFPOINTS
 62
     0
100
AcDbPoint
 10
531.7050739206022
 20
380.9788880395614
 30
0.0
  0
POINT
  5
E48
330
AA6
100
AcDbEntity
  8
DEFPOINTS
 62
     0
100
AcDbPoint
 10
511.1358704101512
 20
367.0059477634318
 30
0.0
  0
POINT
  5
E49
330
AA6
100
AcDbEntity
  8
DEFPOINTS
 62
     0
100
AcDbPoint
 10
511.1358704101512
 20
376.5550281330354
 30
0.0
  0
ENDBLK
  5
AB2
330
AA6
100
AcDbEntity
  8
0
100
AcDbBlockEnd
  0
ENDSEC
  0
SECTION
  2
ENTITIES
  0
TEXT
  5
3AF
330
1B
100
AcDbEntity
  8
0
  6
CONTINUOUS
 62
     2
100
AcDbText
 10
270.5
 20
14.5
 30
0.0
 40
3.0
  1

 72
     1
 11
270.5
 21
14.5
 31
0.0
100
AcDbText
  0
TEXT
  5
3B0
330
1B
100
AcDbEntity
  8
0
  6
CONTINUOUS
 62
     2
100
AcDbText
 10
285.5
 20
14.5
 30
0.0
 40
3.0
  1

 72
     1
 11
285.5
 21
14.5
 31
0.0
100
AcDbText
  0
TEXT
  5
3B2
330
1B
100
AcDbEntity
  8
0
  6
CONTINUOUS
 62
     2
100
AcDbText
 10
315.5
 20
14.5
 30
0.0
 40
3.0
  1

 72
     1
 11
315.5
 21
14.5
 31
0.0
100
AcDbText
  0
TEXT
  5
3DB
330
1B
100
AcDbEntity
  8
0
  6
CONTINUOUS
 62
     2
100
AcDbText
 10
33.45
 20
13.9
 30
0.0
 40
3.0
  1

 50
90.0
100
AcDbText
  0
TEXT
  5
3DC
330
1B
100
AcDbEntity
  8
0
  6
CONTINUOUS
 62
     2
100
AcDbText
 10
37.95
 20
11.5
 30
0.0
 40
3.0
  1
 
 50
90.0
 41
0.8
100
AcDbText
  0
TEXT
  5
590
330
1B
100
AcDbEntity
  8
0
100
AcDbText
 10
836.3093968717109
 20
54.13753576299277
 30
0.0
 40
4.0
  1
B-9260
  7
STANDARD1
100
AcDbText
  0
TEXT
  5
591
330
1B
100
AcDbEntity
  8
0
100
AcDbText
 10
836.3093968717109
 20
62.13753576299277
 30
0.0
 40
4.0
  1
屋外ドーム型カメラケース
 41
0.9
  7
STANDARD1
100
AcDbText
  0
LINE
  5
592
330
1B
100
AcDbEntity
  8
0
100
AcDbLine
 10
894.3741068717111
 20
68.46584976299277
 30
0.0
 11
814.374106871711
 21
68.46584976299277
 31
0.0
  0
LINE
  5
593
330
1B
100
AcDbEntity
  8
0
100
AcDbLine
 10
894.3741068717111
 20
60.46584976299278
 30
0.0
 11
814.374106871711
 21
60.46584976299278
 31
0.0
  0
LINE
  5
594
330
1B
100
AcDbEntity
  8
0
100
AcDbLine
 10
894.3741068717111
 20
52.46584976299278
 30
0.0
 11
814.374106871711
 21
52.46584976299278
 31
0.0
  0
TEXT
  5
595
330
1B
100
AcDbEntity
  8
0
100
AcDbText
 10
820.3093968717109
 20
54.13753576299277
 30
0.0
 40
4.0
  1
型名
  7
STANDARD1
100
AcDbText
  0
TEXT
  5
596
330
1B
100
AcDbEntity
  8
0
100
AcDbText
 10
820.3093968717109
 20
62.13753576299277
 30
0.0
 40
4.0
  1
品名
  7
STANDARD1
100
AcDbText
  0
LINE
  5
597
330
1B
100
AcDbEntity
  8
0
100
AcDbLine
 10
814.374106871711
 20
68.46584976299277
 30
0.0
 11
814.374106871711
 21
52.46584976299278
 31
0.0
  0
LINE
  5
598
330
1B
100
AcDbEntity
  8
0
100
AcDbLine
 10
834.3741068717111
 20
68.46584976299277
 30
0.0
 11
834.3741068717111
 21
52.46584976299278
 31
0.0
  0
LINE
  5
599
330
1B
100
AcDbEntity
  8
0
100
AcDbLine
 10
894.3741068717111
 20
68.46584976299277
 30
0.0
 11
894.3741068717111
 21
52.46584976299278
 31
0.0
  0
ARC
  5
831
330
1B
100
AcDbEntity
  8
0
  6
CONTINUOUS
 62
     0
100
AcDbCircle
 10
725.9977090434749
 20
103.3003242851142
 30
0.0
 40
60.0
100
AcDbArc
 50
182.0000000007984
 51
357.9999999992011
  0
LINE
  5
832
330
1B
100
AcDbEntity
  8
0
  6
CONTINUOUS
 62
     0
100
AcDbLine
 10
793.789720583075
 20
109.3003242851142
 30
0.0
 11
658.2056975036748
 21
109.3003242851142
 31
0.0
  0
LINE
  5
833
330
1B
100
AcDbEntity
  8
0
  6
CONTINUOUS
 62
     0
100
AcDbLine
 10
659.431857586475
 20
161.8003242851142
 30
0.0
 11
792.5635608164748
 21
161.8003242851142
 31
0.0
  0
LINE
  5
834
330
1B
100
AcDbEntity
  8
0
  6
CONTINUOUS
 62
     0
100
AcDbLine
 10
800.9976553320749
 20
156.3003242851142
 30
0.0
 11
650.997761054075
 21
156.3003242851142
 31
0.0
  0
LINE
  5
835
330
1B
100
AcDbEntity
  8
0
  6
CONTINUOUS
 62
     0
100
AcDbLine
 10
725.4977090222746
 20
114.0386445041141
 30
0.0
 11
653.2125519238747
 21
114.0386445041141
 31
0.0
  0
LINE
  5
836
330
1B
100
AcDbEntity
  8
0
  6
CONTINUOUS
 62
     0
100
AcDbLine
 10
720.9977090434749
 20
156.8003242851142
 30
0.0
 11
650.1116169944748
 21
156.8003242851142
 31
0.0
  0
DIMENSION
  5
837
330
1B
100
AcDbEntity
  8
文字
100
AcDbDimension
  2
*D32
 10
520.1358702521513
 20
221.5043681301141
 30
0.0
 11
530.2381050200706
 21
221.5043681301141
 31
0.0
 70
   160
  1
(φ18）
  3
DIMSTYLE_1
100
AcDbAlignedDimension
 13
502.1358702521513
 23
176.047341398914
 33
0.0
 14
520.1358702521513
 24
175.715744659314
 34
0.0
100
AcDbRotatedDimension
  0
DIMENSION
  5
838
330
1B
100
AcDbEntity
  8
文字
100
AcDbDimension
  2
*D33
 10
403.1406261772024
 20
189.3003242851142
 30
0.0
 11
403.1406261772024
 21
175.255148919714
 31
0.0
 70
   160
  1
(27)
  3
DIMSTYLE_1
100
AcDbAlignedDimension
 13
445.974142922951
 23
162.8003242851142
 33
0.0
 14
506.686293082951
 24
189.3003242851142
 34
0.0
 50
90.0
100
AcDbRotatedDimension
  0
LINE
  5
839
330
1B
100
AcDbEntity
  8
0
  6
CONTINUOUS
 62
     0
100
AcDbLine
 10
599.4970854602022
 20
109.3003242851142
 30
0.0
 11
463.913062380802
 21
109.3003242851142
 31
0.0
  0
LINE
  5
83A
330
1B
100
AcDbEntity
  8
0
  6
CONTINUOUS
 62
     0
100
AcDbLine
 10
531.2050738994023
 20
114.0386445041141
 30
0.0
 11
458.9199168010022
 21
114.0386445041141
 31
0.0
  0
LINE
  5
83B
330
1B
100
AcDbEntity
  8
0
  6
CONTINUOUS
 62
     0
100
AcDbLine
 10
606.7050202092025
 20
156.3003242851142
 30
0.0
 11
456.7051259312021
 21
156.3003242851142
 31
0.0
  0
LINE
  5
83C
330
1B
100
AcDbEntity
  8
0
  6
CONTINUOUS
 62
     0
100
AcDbLine
 10
526.7050739206021
 20
156.8003242851142
 30
0.0
 11
455.8189818716022
 21
156.8003242851142
 31
0.0
  0
LINE
  5
83D
330
1B
100
AcDbEntity
  8
0
  6
CONTINUOUS
 62
     0
100
AcDbLine
 10
465.1392224636021
 20
161.8003242851142
 30
0.0
 11
598.270925693602
 21
161.8003242851142
 31
0.0
  0
DIMENSION
  5
83E
330
1B
100
AcDbEntity
  8
文字
100
AcDbDimension
  2
*D34
 10
403.1406261772024
 20
43.30032428511427
 30
0.0
 11
403.1406261772024
 21
100.2389213105139
 31
0.0
 70
   160
  3
DIMSTYLE_1
100
AcDbAlignedDimension
 13
454.5706858356021
 23
162.8003242851142
 33
0.0
 14
530.7050739206021
 24
43.30032428511423
 34
0.0
 50
270.0
100
AcDbRotatedDimension
  0
ARC
  5
83F
330
1B
100
AcDbEntity
  8
0
  6
CONTINUOUS
 62
     0
100
AcDbCircle
 10
531.7050739206022
 20
103.3003242851142
 30
0.0
 40
60.0
100
AcDbArc
 50
182.0000000007984
 51
357.9999999992011
  0
LINE
  5
840
330
1B
100
AcDbEntity
  8
0
  6
CONTINUOUS
 62
     0
100
AcDbLine
 10
471.4589766456021
 20
109.3003242851142
 30
0.0
 11
471.7416242994022
 21
101.206354482114
 31
0.0
  0
DIMENSION
  5
841
330
1B
100
AcDbEntity
  8
文字
100
AcDbDimension
  2
*D35
 10
416.3829479516023
 20
109.3003242851142
 30
0.0
 11
416.3829479516023
 21
136.750533324914
 31
0.0
 70
   160
  3
DIMSTYLE_1
100
AcDbAlignedDimension
 13
454.5706858356021
 23
162.8003242851142
 33
0.0
 14
462.9130623806021
 24
109.3003242851142
 34
0.0
 50
270.0
100
AcDbRotatedDimension
  0
LINE
  5
842
330
1B
100
AcDbEntity
  8
0
  6
CONTINUOUS
 62
     0
100
AcDbLine
 10
457.7050739206021
 20
156.3003242851142
 30
0.0
 11
457.7050739206021
 21
156.8003242851142
 31
0.0
  0
DIMENSION
  5
843
330
1B
100
AcDbEntity
  8
文字
100
AcDbDimension
  2
*D36
 10
425.9709166362021
 20
156.8003242851142
 30
0.0
 11
425.9709166362021
 21
175.1336576184479
 31
0.0
 70
   160
  3
DIMSTYLE_1
100
AcDbAlignedDimension
 13
454.5706858356021
 23
162.8003242851142
 33
0.0
 14
454.8189818716022
 24
156.8003242851142
 34
0.0
 50
270.0
100
AcDbRotatedDimension
  0
DIMENSION
  5
844
330
1B
100
AcDbEntity
  8
文字
100
AcDbDimension
  2
*D37
 10
439.8744235282024
 20
161.8003242851142
 30
0.0
 11
439.8744235282023
 21
176.533657618448
 31
0.0
 70
   160
  3
DIMSTYLE_1
100
AcDbAlignedDimension
 13
454.5706858356021
 23
162.8003242851142
 33
0.0
 14
454.9985101112021
 24
161.8003242851142
 34
0.0
 50
270.0
100
AcDbRotatedDimension
  0
ARC
  5
845
330
1B
100
AcDbEntity
  8
0
  6
CONTINUOUS
 62
     0
100
AcDbCircle
 10
463.913062380802
 20
114.3003242855139
 30
0.0
 40
5.0000000004
100
AcDbArc
 50
183.0000000026021
 51
269.9999999973944
  0
LINE
  5
846
330
1B
100
AcDbEntity
  8
0
  6
CONTINUOUS
 62
     0
100
AcDbLine
 10
458.9199147066024
 20
114.0386445041141
 30
0.0
 11
456.7050739206021
 21
156.3003242851142
 31
0.0
  0
LINE
  5
847
330
1B
100
AcDbEntity
  8
0
  6
CONTINUOUS
 62
     0
100
AcDbLine
 10
455.5706858356022
 20
162.8003242851142
 30
0.0
 11
467.543346591402
 21
162.8003242851142
 31
0.0
  0
LINE
  5
848
330
1B
100
AcDbEntity
  8
0
  6
CONTINUOUS
 62
     0
100
AcDbLine
 10
455.5706858356022
 20
161.8003242851142
 30
0.0
 11
465.053483263602
 21
161.8003242851142
 31
0.0
  0
LINE
  5
849
330
1B
100
AcDbEntity
  8
0
  6
CONTINUOUS
 62
     0
100
AcDbLine
 10
455.8189818716022
 20
156.8003242851142
 30
0.0
 11
455.6006771566023
 21
161.8003242851142
 31
0.0
  0
LINE
  5
84A
330
1B
100
AcDbEntity
  8
0
  6
CONTINUOUS
 62
     0
100
AcDbLine
 10
455.5706858356022
 20
161.8003242851142
 30
0.0
 11
455.5706858356022
 21
162.8003242851142
 31
0.0
  0
LINE
  5
84B
330
1B
100
AcDbEntity
  8
0
  6
CONTINUOUS
 62
     0
100
AcDbLine
 10
471.3079142760022
 20
161.8003242851142
 30
0.0
 11
471.3719419916023
 21
156.8003242851142
 31
0.0
  0
LINE
  5
84C
330
1B
100
AcDbEntity
  8
0
  6
CONTINUOUS
 62
     0
100
AcDbLine
 10
464.4260333854023
 20
156.8003242851142
 30
0.0
 11
464.5351857422021
 21
161.8003242851142
 31
0.0
  0
LINE
  5
84D
330
1B
100
AcDbEntity
  8
0
  6
CONTINUOUS
 62
     0
100
AcDbLine
 10
467.4619566114022
 20
156.8003242851142
 30
0.0
 11
467.4023769520023
 21
161.800324282514
 31
0.0
  0
LINE
  5
84E
330
1B
100
AcDbEntity
  8
0
  6
CONTINUOUS
 62
     0
100
AcDbLine
 10
467.543346591402
 20
161.8003242851142
 30
0.0
 11
467.543346591402
 21
162.8003242851142
 31
0.0
  0
TEXT
  5
84F
330
1B
100
AcDbEntity
  8
2_ALL_NOTES
  6
CONTINUOUS
 62
     0
100
AcDbText
 10
528.8017299461512
 20
201.7077543321141
 30
0.0
 40
5.599999999999998
  1
LANケ－ブル引き込み用防水ブッシュ
 41
0.8
100
AcDbText
  0
LINE
  5
850
330
1B
100
AcDbEntity
  8
0
  6
CONTINUOUS
 62
     0
100
AcDbLine
 10
591.9511711956022
 20
109.3003242851142
 30
0.0
 11
591.6685235416023
 21
101.206354482114
 31
0.0
  0
LINE
  5
851
330
1B
100
AcDbEntity
  8
DEFAULT_1
  6
CENTER
 62
     0
100
AcDbLine
 10
531.7050739206022
 20
39.30032428511423
 30
0.0
 11
531.7050739206022
 21
170.543495139411
 31
0.0
  0
DIMENSION
  5
852
330
1B
100
AcDbEntity
  8
文字
100
AcDbDimension
  2
*D38
 10
531.7050739206022
 20
103.3003242851142
 30
0.0
 11
593.4495952910758
 21
65.50475721125858
 31
0.0
 70
   164
  1
S<>
  3
DIMSTYLE_1
100
AcDbRadialDimension
 15
582.8788097674483
 25
71.97543387072113
 35
0.0
 40
0.0
  0
LINE
  5
853
330
1B
100
AcDbEntity
  8
0
  6
CONTINUOUS
 62
     0
100
AcDbLine
 10
607.5911475232024
 20
156.8003242851142
 30
0.0
 11
536.7050739206022
 21
156.8003242851142
 31
0.0
  0
LINE
  5
854
330
1B
100
AcDbEntity
  8
0
  6
CONTINUOUS
 62
     0
100
AcDbLine
 10
604.4902316224022
 20
114.0386445041141
 30
0.0
 11
532.2050739284022
 21
114.0386445041141
 31
0.0
  0
LINE
  5
855
330
1B
100
AcDbEntity
  8
0
  6
CONTINUOUS
 62
     0
100
AcDbLine
 10
536.7050739206022
 20
156.3003242851142
 30
0.0
 11
536.7050739206022
 21
161.8003242851142
 31
0.0
  0
LINE
  5
856
330
1B
100
AcDbEntity
  8
0
  6
CONTINUOUS
 62
     0
100
AcDbLine
 10
526.7050739206021
 20
161.8003242851142
 30
0.0
 11
526.7050739206021
 21
156.3003242851142
 31
0.0
  0
LINE
  5
857
330
1B
100
AcDbEntity
  8
0
  6
CONTINUOUS
 62
     0
100
AcDbLine
 10
531.2050739206021
 20
146.3003242851142
 30
0.0
 11
532.2050739206022
 21
146.3003242851142
 31
0.0
  0
LINE
  5
858
330
1B
100
AcDbEntity
  8
0
  6
CONTINUOUS
 62
     0
100
AcDbLine
 10
536.6229437250021
 20
151.5950885639141
 30
0.0
 11
536.7050739206022
 21
156.3003242851142
 31
0.0
  0
LINE
  5
859
330
1B
100
AcDbEntity
  8
0
  6
CONTINUOUS
 62
     0
100
AcDbLine
 10
536.6646080956022
 20
151.5279608709141
 30
0.0
 11
536.6229400068022
 21
151.5948754893141
 31
0.0
  0
LWPOLYLINE
  5
85A
330
1B
100
AcDbEntity
  8
7_ALL_FEATURES
  6
CONTINUOUS
 62
     0
100
AcDbPolyline
 90
        8
 70
     0
 43
0.0
 10
536.3233168350022
 20
151.300160739314
 10
536.3887517896021
 20
151.3074563787141
 10
536.4519652816023
 20
151.3292966865141
 10
536.5079449600023
 20
151.3639498919141
 10
536.5556781826024
 20
151.4107891371141
 10
536.5913800662021
 20
151.4661004245141
 10
536.6144047832023
 20
151.5288832031141
 10
536.6229400146021
 20
151.5948759673141
  0
LINE
  5
85B
330
1B
100
AcDbEntity
  8
7_ALL_FEATURES
  6
CONTINUOUS
 62
     0
100
AcDbLine
 10
536.3229894166022
 20
151.3003242851142
 30
0.0
 11
536.323316834602
 21
151.3001607401141
 31
0.0
  0
ARC
  5
85C
330
1B
100
AcDbEntity
  8
0
  6
CONTINUOUS
 62
     0
100
AcDbCircle
 10
536.3229894172023
 20
151.600324281714
 30
0.0
 40
0.2999999998
100
AcDbArc
 50
270.0000000106955
 51
359.0000006190054
  0
LINE
  5
85D
330
1B
100
AcDbEntity
  8
0
  6
CONTINUOUS
 62
     0
100
AcDbLine
 10
537.5227103698023
 20
150.3526602523141
 30
0.0
 11
534.5050739206022
 21
150.3526602523141
 31
0.0
  0
LINE
  5
85E
330
1B
100
AcDbEntity
  8
0
  6
CONTINUOUS
 62
     0
100
AcDbLine
 10
537.1310061872022
 20
150.661249496114
 30
0.0
 11
537.5227103918023
 21
150.352660241114
 31
0.0
  0
ARC
  5
85F
330
1B
100
AcDbEntity
  8
0
  6
CONTINUOUS
 62
     0
100
AcDbCircle
 10
534.2350739200023
 20
149.903825820514
 30
0.0
 40
0.2700000006
100
AcDbArc
 50
302.3360258490027
 51
359.9999994874049
  0
LINE
  5
860
330
1B
100
AcDbEntity
  8
0
  6
CONTINUOUS
 62
     0
100
AcDbLine
 10
534.5050739206022
 20
151.3003242851142
 30
0.0
 11
534.5050739206022
 21
149.9038258181141
 31
0.0
  0
LINE
  5
861
330
1B
100
AcDbEntity
  8
0
  6
CONTINUOUS
 62
     0
100
AcDbLine
 10
537.6254820880022
 20
156.300324280114
 30
0.0
 11
537.5227103836021
 21
150.3526606183139
 31
0.0
  0
LWPOLYLINE
  5
862
330
1B
100
AcDbEntity
  8
0
  6
CONTINUOUS
 62
     0
100
AcDbPolyline
 90
        5
 70
     0
 43
0.0
 10
537.5227103836021
 20
150.3526606183139
 10
537.2261466928023
 20
150.7522620961141
 10
536.9793425106022
 20
151.0885160423141
 10
536.7882159268021
 20
151.3525295465141
 10
536.6646080956022
 20
151.5279608709141
  0
LWPOLYLINE
  5
863
330
1B
100
AcDbEntity
  8
0
  6
CONTINUOUS
 62
     0
100
AcDbPolyline
 90
        4
 70
     0
 43
0.0
 10
536.3193799088024
 20
151.3003242839139
 10
536.3830868556021
 20
151.252089640314
 10
536.5499572212022
 20
151.119969886114
 10
537.1310061872022
 20
150.661249496114
  0
LINE
  5
864
330
1B
100
AcDbEntity
  8
0
  6
CONTINUOUS
 62
     0
100
AcDbLine
 10
526.8562281464021
 20
151.1167978949141
 30
0.0
 11
527.0259173814022
 21
151.251191643514
 31
0.0
  0
LINE
  5
865
330
1B
100
AcDbEntity
  8
0
  6
CONTINUOUS
 62
     0
100
AcDbLine
 10
527.0259173814022
 20
151.251191643514
 30
0.0
 11
527.0908053258022
 21
151.3003242839139
 31
0.0
  0
LINE
  5
866
330
1B
100
AcDbEntity
  8
7_ALL_FEATURES
  6
CONTINUOUS
 62
     0
100
AcDbLine
 10
527.0868310066023
 20
151.3001607401141
 30
0.0
 11
527.0871584246021
 21
151.3003242851142
 31
0.0
  0
LINE
  5
867
330
1B
100
AcDbEntity
  8
0
  6
CONTINUOUS
 62
     0
100
AcDbLine
 10
526.7050739206021
 20
156.3003242851142
 30
0.0
 11
526.7872041160024
 21
151.5950885639141
 31
0.0
  0
LWPOLYLINE
  5
868
330
1B
100
AcDbEntity
  8
7_ALL_FEATURES
  6
CONTINUOUS
 62
     0
100
AcDbPolyline
 90
        8
 70
     0
 43
0.0
 10
526.7872078270024
 20
151.5948759541141
 10
526.7955736492024
 20
151.5295797073141
 10
526.8184482414021
 20
151.466742093114
 10
526.8540178216023
 20
151.411345658514
 10
526.9016389556022
 20
151.364392495314
 10
526.9575356478023
 20
151.329605633514
 10
527.0206967574022
 20
151.307614348714
 10
527.0868310200023
 20
151.3001607397139
  0
ARC
  5
869
330
1B
100
AcDbEntity
  8
0
  6
CONTINUOUS
 62
     0
100
AcDbCircle
 10
527.0871584240021
 20
151.600324281714
 30
0.0
 40
0.2999999998
100
AcDbArc
 50
180.9999993886949
 51
270.0
  0
LINE
  5
86A
330
1B
100
AcDbEntity
  8
0
  6
CONTINUOUS
 62
     0
100
AcDbLine
 10
526.1848620360024
 20
150.753415545114
 30
0.0
 11
525.8874374666022
 21
150.352660085714
 31
0.0
  0
LINE
  5
86B
330
1B
100
AcDbEntity
  8
0
  6
CONTINUOUS
 62
     0
100
AcDbLine
 10
530.3925133282023
 20
149.075700610714
 30
0.0
 11
530.3987423102021
 21
149.0881940163141
 31
0.0
  0
LINE
  5
86C
330
1B
100
AcDbEntity
  8
0
  6
CONTINUOUS
 62
     0
100
AcDbLine
 10
531.3350739206023
 20
148.9461194059141
 30
0.0
 11
531.3350739206023
 21
149.0881940163141
 31
0.0
  0
LINE
  5
86D
330
1B
100
AcDbEntity
  8
0
  6
CONTINUOUS
 62
     0
100
AcDbLine
 10
532.0750739206023
 20
149.0881940163141
 30
0.0
 11
532.0750739206023
 21
148.9461194059141
 31
0.0
  0
LINE
  5
86E
330
1B
100
AcDbEntity
  8
0
  6
CONTINUOUS
 62
     0
100
AcDbLine
 10
533.0114055308022
 20
149.0881940163141
 30
0.0
 11
533.0176345128022
 21
149.075700610714
 31
0.0
  0
LINE
  5
86F
330
1B
100
AcDbEntity
  8
0
  6
CONTINUOUS
 62
     0
100
AcDbLine
 10
531.9511624362021
 20
149.081225777914
 30
0.0
 11
532.0750739206023
 21
149.0881940163141
 31
0.0
  0
LINE
  5
870
330
1B
100
AcDbEntity
  8
0
  6
CONTINUOUS
 62
     0
100
AcDbLine
 10
531.8287904812023
 20
149.0770935629142
 30
0.0
 11
531.9511624362021
 21
149.081225777914
 31
0.0
  0
LINE
  5
871
330
1B
100
AcDbEntity
  8
0
  6
CONTINUOUS
 62
     0
100
AcDbLine
 10
531.7050739206022
 20
149.075683173114
 30
0.0
 11
531.8287904812023
 21
149.0770935629142
 31
0.0
  0
LINE
  5
872
330
1B
100
AcDbEntity
  8
0
  6
CONTINUOUS
 62
     0
100
AcDbLine
 10
531.1403137876025
 20
148.9461194051142
 30
0.0
 11
531.3350739204024
 21
148.9461194051142
 31
0.0
  0
LINE
  5
873
330
1B
100
AcDbEntity
  8
0
  6
CONTINUOUS
 62
     0
100
AcDbLine
 10
532.0750739206023
 20
148.9461194051142
 30
0.0
 11
532.2698340534023
 21
148.9461194051142
 31
0.0
  0
LINE
  5
874
330
1B
100
AcDbEntity
  8
0
  6
CONTINUOUS
 62
     0
100
AcDbLine
 10
528.9050739206023
 20
150.3526602523141
 30
0.0
 11
525.8874374578022
 21
150.3526602523141
 31
0.0
  0
LINE
  5
875
330
1B
100
AcDbEntity
  8
0
  6
CONTINUOUS
 62
     0
100
AcDbLine
 10
531.5813573598025
 20
149.0770935629142
 30
0.0
 11
531.7050739206022
 21
149.075683173114
 31
0.0
  0
LINE
  5
876
330
1B
100
AcDbEntity
  8
0
  6
CONTINUOUS
 62
     0
100
AcDbLine
 10
531.4589854054024
 20
149.081225777914
 30
0.0
 11
531.5813573598025
 21
149.0770935629142
 31
0.0
  0
LINE
  5
877
330
1B
100
AcDbEntity
  8
0
  6
CONTINUOUS
 62
     0
100
AcDbLine
 10
531.3350739206023
 20
149.0881940163141
 30
0.0
 11
531.4589854054024
 21
149.081225777914
 31
0.0
  0
ARC
  5
878
330
1B
100
AcDbEntity
  8
0
  6
CONTINUOUS
 62
     0
100
AcDbCircle
 10
531.7050739206022
 20
153.9003242851141
 30
0.0
 40
5.0
100
AcDbArc
 50
237.6639734339983
 51
254.7206079149988
  0
ARC
  5
879
330
1B
100
AcDbEntity
  8
0
  6
CONTINUOUS
 62
     0
100
AcDbCircle
 10
531.7050739206022
 20
153.9003242851141
 30
0.0
 40
4.986291206799998
100
AcDbArc
 50
276.5034226030024
 51
285.1878551629024
  0
ARC
  5
87A
330
1B
100
AcDbEntity
  8
0
  6
CONTINUOUS
 62
     0
100
AcDbCircle
 10
529.1750739210024
 20
149.903825820514
 30
0.0
 40
0.2700000006
100
AcDbArc
 50
180.0
 51
237.6639741509973
  0
ARC
  5
87B
330
1B
100
AcDbEntity
  8
0
  6
CONTINUOUS
 62
     0
100
AcDbCircle
 10
531.7050739206022
 20
153.9003242851141
 30
0.0
 40
4.986291206799998
100
AcDbArc
 50
254.8121448370975
 51
263.4965773969975
  0
LWPOLYLINE
  5
87C
330
1B
100
AcDbEntity
  8
0
  6
CONTINUOUS
 62
     0
100
AcDbPolyline
 90
        3
 70
     0
 43
0.0
 10
525.8874374494023
 20
150.352660241114
 10
526.2768098910023
 20
150.6594059257141
 10
526.8562281464021
 20
151.1167978949141
  0
LWPOLYLINE
  5
87D
330
1B
100
AcDbEntity
  8
0
  6
CONTINUOUS
 62
     0
100
AcDbPolyline
 90
        5
 70
     0
 43
0.0
 10
526.7872078260023
 20
151.5948759665142
 10
526.7458239030022
 20
151.5283805165141
 10
526.6228471240022
 20
151.3538063227141
 10
526.4319861186022
 20
151.090145326914
 10
526.1848620360024
 20
150.753415545114
  0
LINE
  5
87E
330
1B
100
AcDbEntity
  8
0
  6
CONTINUOUS
 62
     0
100
AcDbLine
 10
525.8874374666022
 20
150.352660085714
 30
0.0
 11
525.7846657444022
 21
156.3003247805139
 31
0.0
  0
LINE
  5
87F
330
1B
100
AcDbEntity
  8
0
  6
CONTINUOUS
 62
     0
100
AcDbLine
 10
528.9050739206023
 20
151.3003242851142
 30
0.0
 11
528.9050739206023
 21
149.9038258181141
 31
0.0
  0
LINE
  5
880
330
1B
100
AcDbEntity
  8
0
  6
CONTINUOUS
 62
     0
100
AcDbLine
 10
529.0306553168022
 20
149.6756958859142
 30
0.0
 11
534.3794925244024
 21
149.6756958859142
 31
0.0
  0
LINE
  5
881
330
1B
100
AcDbEntity
  8
0
  6
CONTINUOUS
 62
     0
100
AcDbLine
 10
534.5050739206022
 20
149.9038258181141
 30
0.0
 11
528.9050739206023
 21
149.9038258181141
 31
0.0
  0
LINE
  5
882
330
1B
100
AcDbEntity
  8
0
  6
CONTINUOUS
 62
     0
100
AcDbLine
 10
536.3229894172023
 20
151.3003242819139
 30
0.0
 11
527.0871584240021
 21
151.3003242819139
 31
0.0
  0
LINE
  5
883
330
1B
100
AcDbEntity
  8
0
  6
CONTINUOUS
 62
     0
100
AcDbLine
 10
536.6229437256022
 20
151.595088563114
 30
0.0
 11
526.7872041156022
 21
151.595088563114
 31
0.0
  0
ARC
  5
884
330
1B
100
AcDbEntity
  8
0
  6
CONTINUOUS
 62
     0
100
AcDbCircle
 10
531.7050739206022
 20
153.9003242851141
 30
0.0
 40
5.0
100
AcDbArc
 50
285.2793920850011
 51
302.3360265660016
  0
LWPOLYLINE
  5
885
330
1B
100
AcDbEntity
  8
0
  6
CONTINUOUS
 62
     0
100
AcDbPolyline
 90
        4
 70
     0
 43
0.0
 10
532.2050739206022
 20
111.8918292065142
 10
532.0386460204024
 20
111.8898974067141
 10
531.8719878550023
 20
111.8887370905141
 10
531.7050739206022
 20
111.888349879514
  0
LWPOLYLINE
  5
886
330
1B
100
AcDbEntity
  8
0
  6
CONTINUOUS
 62
     0
100
AcDbPolyline
 90
        3
 70
     0
 43
0.0
 10
531.7050739206022
 20
111.888349879514
 10
531.5379196112021
 20
111.8893172731139
 10
531.3712500500023
 20
111.8893172731139
  0
LINE
  5
887
330
1B
100
AcDbEntity
  8
0
  6
CONTINUOUS
 62
     0
100
AcDbLine
 10
531.3712500500023
 20
111.8893172731139
 30
0.0
 11
531.2050739206021
 21
111.8918292065142
 31
0.0
  0
LINE
  5
888
330
1B
100
AcDbEntity
  8
0
  6
CONTINUOUS
 62
     0
100
AcDbLine
 10
531.2050739206021
 20
111.8918292155141
 30
0.0
 11
531.2050739206021
 21
146.3003242851142
 31
0.0
  0
LINE
  5
889
330
1B
100
AcDbEntity
  8
0
  6
CONTINUOUS
 62
     0
100
AcDbLine
 10
532.2050739206022
 20
111.8918292155141
 30
0.0
 11
532.2050739206022
 21
146.3003242851142
 31
0.0
  0
LINE
  5
88A
330
1B
100
AcDbEntity
  8
0
  6
CONTINUOUS
 62
     0
100
AcDbLine
 10
517.6358192659511
 20
181.8003242851142
 30
0.0
 11
504.6359212381509
 21
181.8003242851142
 31
0.0
  0
LWPOLYLINE
  5
88B
330
1B
100
AcDbEntity
  8
0
  6
CONTINUOUS
 62
     0
100
AcDbPolyline
 90
        7
 70
     0
 43
0.0
 10
512.8878895819512
 20
179.3003242827141
 10
513.7651904227514
 20
179.581599463714
 10
514.6247751855512
 20
179.7480094489141
 10
515.4671727375512
 20
179.8002606741141
 10
516.2980275533514
 20
179.7420900183141
 10
517.1324192951512
 20
179.576451032514
 10
517.9898830201511
 20
179.3003242827141
  0
LINE
  5
88C
330
1B
100
AcDbEntity
  8
0
  6
CONTINUOUS
 62
     0
100
AcDbLine
 10
512.8878895837511
 20
174.8003242851142
 30
0.0
 11
517.9898830183512
 21
174.8003242851142
 31
0.0
  0
LINE
  5
88D
330
1B
100
AcDbEntity
  8
0
  6
CONTINUOUS
 62
     0
100
AcDbLine
 10
515.1358702521513
 20
187.8003242851142
 30
0.0
 11
507.1358702521512
 21
187.8003242851142
 31
0.0
  0
LINE
  5
88E
330
1B
100
AcDbEntity
  8
0
  6
CONTINUOUS
 62
     0
100
AcDbLine
 10
515.1358493401512
 20
189.3003242851142
 30
0.0
 11
507.1358911639513
 21
189.3003242851142
 31
0.0
  0
LWPOLYLINE
  5
88F
330
1B
100
AcDbEntity
  8
2_ALL_NOTES
  6
CONTINUOUS
 62
     0
100
AcDbPolyline
 90
        3
 70
     0
 43
0.0
 10
514.857688148151
 20
193.2546658765142
 10
513.4699984935512
 20
189.3003242851142
 10
516.8623506817511
 20
191.760902800714
  0
LINE
  5
890
330
1B
100
AcDbEntity
  8
0
  6
CONTINUOUS
 62
     0
100
AcDbLine
 10
502.6359655835512
 20
171.8003242851142
 30
0.0
 11
519.6357749205512
 21
171.8003242851142
 31
0.0
  0
LINE
  5
891
330
1B
100
AcDbEntity
  8
0
  6
CONTINUOUS
 62
     0
100
AcDbLine
 10
520.1357633387511
 20
172.8003242851142
 30
0.0
 11
502.135977165351
 21
172.8003242851142
 31
0.0
  0
LINE
  5
892
330
1B
100
AcDbEntity
  8
0
  6
CONTINUOUS
 62
     0
100
AcDbLine
 10
502.1358702535512
 20
167.6003242851141
 30
0.0
 11
520.1358702505513
 21
167.6003242851141
 31
0.0
  0
LINE
  5
893
330
1B
100
AcDbEntity
  8
0
  6
CONTINUOUS
 62
     0
100
AcDbLine
 10
519.9357934567513
 20
167.8003242851142
 30
0.0
 11
502.3359470473512
 21
167.8003242851142
 31
0.0
  0
LINE
  5
894
330
1B
100
AcDbEntity
  8
2_ALL_NOTES
  6
CONTINUOUS
 62
     0
100
AcDbLine
 10
513.4699984935512
 20
189.3003242851142
 30
0.0
 11
524.8017299461512
 21
204.5077543321141
 31
0.0
  0
LINE
  5
895
330
1B
100
AcDbEntity
  8
0
  6
CONTINUOUS
 62
     0
100
AcDbLine
 10
507.1358702521512
 20
187.8003242851142
 30
0.0
 11
506.1358702521513
 21
181.8003242851142
 31
0.0
  0
LINE
  5
896
330
1B
100
AcDbEntity
  8
0
  6
CONTINUOUS
 62
     0
100
AcDbLine
 10
509.5114529037509
 20
179.3003242851142
 30
0.0
 11
512.8878895807511
 21
179.3003242851142
 31
0.0
  0
LINE
  5
897
330
1B
100
AcDbEntity
  8
0
  6
CONTINUOUS
 62
     0
100
AcDbLine
 10
509.5114529025511
 20
179.3003242855139
 30
0.0
 11
509.5114529025511
 21
174.8003242851142
 31
0.0
  0
LINE
  5
898
330
1B
100
AcDbEntity
  8
0
  6
CONTINUOUS
 62
     0
100
AcDbLine
 10
502.614743112951
 20
174.8003242851142
 30
0.0
 11
502.614743112951
 21
179.3003242855139
 31
0.0
  0
LINE
  5
899
330
1B
100
AcDbEntity
  8
0
  6
CONTINUOUS
 62
     0
100
AcDbLine
 10
502.6574401345512
 20
179.3003242855139
 30
0.0
 11
502.6574401345512
 21
174.8003242851142
 31
0.0
  0
LINE
  5
89A
330
1B
100
AcDbEntity
  8
0
  6
CONTINUOUS
 62
     0
100
AcDbLine
 10
504.3667624427511
 20
174.8003242851142
 30
0.0
 11
504.3667624427511
 21
179.3003242855139
 31
0.0
  0
LWPOLYLINE
  5
89B
330
1B
100
AcDbEntity
  8
0
  6
CONTINUOUS
 62
     0
100
AcDbPolyline
 90
        4
 70
     0
 43
0.0
 10
502.614743112951
 20
179.3003242855139
 10
502.6220845319512
 20
179.5815857183141
 10
502.6292789869511
 20
179.7480162931141
 10
502.6356505669511
 20
179.800047100714
  0
LWPOLYLINE
  5
89C
330
1B
100
AcDbEntity
  8
0
  6
CONTINUOUS
 62
     0
100
AcDbPolyline
 90
        4
 70
     0
 43
0.0
 10
502.6356505669511
 20
179.800047100714
 10
502.643281740351
 20
179.7420858977139
 10
502.6502640745511
 20
179.576458058514
 10
502.6574401345512
 20
179.3003242855139
  0
LINE
  5
89D
330
1B
100
AcDbEntity
  8
0
  6
CONTINUOUS
 62
     0
100
AcDbLine
 10
502.1359887869511
 20
174.8003242851142
 30
0.0
 11
502.6574401351513
 21
174.8003242851142
 31
0.0
  0
LINE
  5
89E
330
1B
100
AcDbEntity
  8
0
  6
CONTINUOUS
 62
     0
100
AcDbLine
 10
502.6574401351513
 20
179.3003242851142
 30
0.0
 11
504.3667624427511
 21
179.3003242851142
 31
0.0
  0
LWPOLYLINE
  5
89F
330
1B
100
AcDbEntity
  8
0
  6
CONTINUOUS
 62
     0
100
AcDbPolyline
 90
        7
 70
     0
 43
0.0
 10
504.3667624427511
 20
179.3003242855139
 10
505.251351746551
 20
179.5815857183141
 10
506.1182329167513
 20
179.7480162931141
 10
506.9675933649513
 20
179.800260931314
 10
507.8054661009509
 20
179.7420858977139
 10
508.646788220151
 20
179.576458058514
 10
509.5114529025511
 20
179.3003242855139
  0
LINE
  5
8A0
330
1B
100
AcDbEntity
  8
0
  6
CONTINUOUS
 62
     0
100
AcDbLine
 10
504.6358702521512
 20
181.8003242851142
 30
0.0
 11
502.6307533583512
 21
179.7952073913142
 31
0.0
  0
LINE
  5
8A1
330
1B
100
AcDbEntity
  8
0
  6
CONTINUOUS
 62
     0
100
AcDbLine
 10
504.3667624439512
 20
174.8003242851142
 30
0.0
 11
509.5114529013512
 21
174.8003242851142
 31
0.0
  0
LINE
  5
8A2
330
1B
100
AcDbEntity
  8
0
  6
CONTINUOUS
 62
     0
100
AcDbLine
 10
502.6358702521513
 20
172.8003242851142
 30
0.0
 11
502.6358702521513
 21
171.8003242851142
 31
0.0
  0
LINE
  5
8A3
330
1B
100
AcDbEntity
  8
0
  6
CONTINUOUS
 62
     0
100
AcDbLine
 10
502.1358702521513
 20
174.800324287114
 30
0.0
 11
502.1358702521513
 21
172.8003242851142
 31
0.0
  0
LINE
  5
8A4
330
1B
100
AcDbEntity
  8
0
  6
CONTINUOUS
 62
     0
100
AcDbLine
 10
512.8878895819512
 20
174.8003242851142
 30
0.0
 11
512.8878895819512
 21
179.3003242827141
 31
0.0
  0
LINE
  5
8A5
330
1B
100
AcDbEntity
  8
0
  6
CONTINUOUS
 62
     0
100
AcDbLine
 10
507.1358702521512
 20
189.3003242851142
 30
0.0
 11
507.1358702521512
 21
187.8003242851142
 31
0.0
  0
LINE
  5
8A6
330
1B
100
AcDbEntity
  8
0
  6
CONTINUOUS
 62
     0
100
AcDbLine
 10
514.1551785741512
 20
167.6003242851141
 30
0.0
 11
514.1551785741512
 21
163.8003242851142
 31
0.0
  0
LINE
  5
8A7
330
1B
100
AcDbEntity
  8
0
  6
CONTINUOUS
 62
     0
100
AcDbLine
 10
505.3029885477512
 20
167.6003242851141
 30
0.0
 11
505.3029885477512
 21
163.8003242851142
 31
0.0
  0
LINE
  5
8A8
330
1B
100
AcDbEntity
  8
0
  6
CONTINUOUS
 62
     0
100
AcDbLine
 10
508.2392528681511
 20
163.8003242851142
 30
0.0
 11
508.2392528681511
 21
167.6003242851141
 31
0.0
  0
LINE
  5
8A9
330
1B
100
AcDbEntity
  8
0
  6
CONTINUOUS
 62
     0
100
AcDbLine
 10
502.3080489879511
 20
163.8003242851142
 30
0.0
 11
502.3080489879511
 21
167.6003242851141
 31
0.0
  0
LINE
  5
8AA
330
1B
100
AcDbEntity
  8
0
  6
CONTINUOUS
 62
     0
100
AcDbLine
 10
502.1358702521513
 20
167.6003242851141
 30
0.0
 11
502.1358702521513
 21
161.8003242851142
 31
0.0
  0
LINE
  5
8AB
330
1B
100
AcDbEntity
  8
0
  6
CONTINUOUS
 62
     0
100
AcDbLine
 10
508.2392528693512
 20
163.8003242851142
 30
0.0
 11
514.1551785729511
 21
163.8003242851142
 31
0.0
  0
LINE
  5
8AC
330
1B
100
AcDbEntity
  8
0
  6
CONTINUOUS
 62
     0
100
AcDbLine
 10
502.308048989151
 20
163.8003242851142
 30
0.0
 11
505.3029885465509
 21
163.8003242851142
 31
0.0
  0
LWPOLYLINE
  5
8AD
330
1B
100
AcDbEntity
  8
0
  6
CONTINUOUS
 62
     0
100
AcDbPolyline
 90
        5
 70
     0
 43
0.0
 10
508.239252869551
 20
167.6003242851141
 10
508.241556096951
 20
167.6758771701141
 10
508.2486136195511
 20
167.7409143107141
 10
508.258909049751
 20
167.784081658514
 10
508.2718101471513
 20
167.8003242843141
  0
LWPOLYLINE
  5
8AE
330
1B
100
AcDbEntity
  8
0
  6
CONTINUOUS
 62
     0
100
AcDbPolyline
 90
        5
 70
     0
 43
0.0
 10
505.4582545379512
 20
167.8003242851142
 10
505.3999674427513
 20
167.785684491114
 10
505.3498747011512
 20
167.7435140517139
 10
505.3155614001511
 20
167.6789430727141
 10
505.3029885465509
 20
167.6003242851141
  0
LWPOLYLINE
  5
8AF
330
1B
100
AcDbEntity
  8
0
  6
CONTINUOUS
 62
     0
100
AcDbPolyline
 90
        5
 70
     0
 43
0.0
 10
502.4977407145512
 20
167.8003242851142
 10
502.4239393913512
 20
167.7845481435141
 10
502.3614748261513
 20
167.739481722314
 10
502.321913561951
 20
167.675347232914
 10
502.308048989151
 20
167.6003242851141
  0
ARC
  5
8B0
330
1B
100
AcDbEntity
  8
0
  6
CONTINUOUS
 62
     0
100
AcDbCircle
 10
502.335870251551
 20
167.6003242997141
 30
0.0
 40
0.1999999996
100
AcDbArc
 50
89.99999985900279
 51
179.9999937308032
  0
LWPOLYLINE
  5
8B1
330
1B
100
AcDbEntity
  8
0
  6
CONTINUOUS
 62
     0
100
AcDbPolyline
 90
        5
 70
     0
 43
0.0
 10
514.1551785733513
 20
167.6003242851141
 10
514.1523983519512
 20
167.6776376833139
 10
514.1445610611513
 20
167.7432905409142
 10
514.1330120103511
 20
167.7855739095142
 10
514.1197344501513
 20
167.8003242843141
  0
LINE
  5
8B2
330
1B
100
AcDbEntity
  8
0
  6
CONTINUOUS
 62
     0
100
AcDbLine
 10
504.1358702521512
 20
171.8003242851142
 30
0.0
 11
504.1358702521512
 21
167.8003242851142
 31
0.0
  0
LINE
  5
8B3
330
1B
100
AcDbEntity
  8
2_ALL_NOTES
  6
CONTINUOUS
 62
     0
100
AcDbLine
 10
524.8017299461512
 20
204.5077543321141
 30
0.0
 11
528.8017299461512
 21
204.5077543321141
 31
0.0
  0
LWPOLYLINE
  5
8B4
330
1B
100
AcDbEntity
  8
0
  6
CONTINUOUS
 62
     0
100
AcDbPolyline
 90
        4
 70
     0
 43
0.0
 10
519.6569973911512
 20
179.3003242855139
 10
519.6496559721513
 20
179.5815857177141
 10
519.6424615171513
 20
179.748016292914
 10
519.6360899371513
 20
179.800047100714
  0
LINE
  5
8B5
330
1B
100
AcDbEntity
  8
0
  6
CONTINUOUS
 62
     0
100
AcDbLine
 10
519.6569973911512
 20
174.8003242851142
 30
0.0
 11
519.6569973911512
 21
179.3003242855139
 31
0.0
  0
LINE
  5
8B6
330
1B
100
AcDbEntity
  8
0
  6
CONTINUOUS
 62
     0
100
AcDbLine
 10
519.6569973917512
 20
174.8003242851142
 30
0.0
 11
520.1357517171514
 21
174.8003242851142
 31
0.0
  0
LINE
  5
8B7
330
1B
100
AcDbEntity
  8
0
  6
CONTINUOUS
 62
     0
100
AcDbLine
 10
519.6358702521513
 20
172.8003242851142
 30
0.0
 11
519.6358702521513
 21
171.8003242851142
 31
0.0
  0
LINE
  5
8B8
330
1B
100
AcDbEntity
  8
0
  6
CONTINUOUS
 62
     0
100
AcDbLine
 10
520.1358702521513
 20
174.800324287114
 30
0.0
 11
520.1358702521513
 21
172.8003242851142
 31
0.0
  0
LINE
  5
8B9
330
1B
100
AcDbEntity
  8
0
  6
CONTINUOUS
 62
     0
100
AcDbLine
 10
515.1358702521513
 20
187.8003242851142
 30
0.0
 11
516.1358702521513
 21
181.8003242851142
 31
0.0
  0
LINE
  5
8BA
330
1B
100
AcDbEntity
  8
0
  6
CONTINUOUS
 62
     0
100
AcDbLine
 10
517.9898830201511
 20
179.3003242827141
 30
0.0
 11
517.9898830201511
 21
174.8003242851142
 31
0.0
  0
LINE
  5
8BB
330
1B
100
AcDbEntity
  8
0
  6
CONTINUOUS
 62
     0
100
AcDbLine
 10
515.1358702521513
 20
189.3003242851142
 30
0.0
 11
515.1358702521513
 21
187.8003242851142
 31
0.0
  0
LINE
  5
8BC
330
1B
100
AcDbEntity
  8
0
  6
CONTINUOUS
 62
     0
100
AcDbLine
 10
517.6358702521513
 20
181.8003242851142
 30
0.0
 11
519.6409871457513
 21
179.795207391514
 31
0.0
  0
LINE
  5
8BD
330
1B
100
AcDbEntity
  8
0
  6
CONTINUOUS
 62
     0
100
AcDbLine
 10
517.9898830195511
 20
179.3003242851142
 30
0.0
 11
519.6569973907513
 21
179.3003242851142
 31
0.0
  0
LINE
  5
8BE
330
1B
100
AcDbEntity
  8
0
  6
CONTINUOUS
 62
     0
100
AcDbLine
 10
519.988060278551
 20
167.6003242851141
 30
0.0
 11
519.988060278551
 21
163.8003242851142
 31
0.0
  0
LINE
  5
8BF
330
1B
100
AcDbEntity
  8
0
  6
CONTINUOUS
 62
     0
100
AcDbLine
 10
520.1358702521513
 20
167.6003242851141
 30
0.0
 11
520.1358702521513
 21
161.8003242851142
 31
0.0
  0
LWPOLYLINE
  5
8C0
330
1B
100
AcDbEntity
  8
0
  6
CONTINUOUS
 62
     0
100
AcDbPolyline
 90
        5
 70
     0
 43
0.0
 10
519.9880602773512
 20
167.6003242851141
 10
519.9732224609511
 20
167.6776376833139
 10
519.9307332341511
 20
167.7432905409142
 10
519.8691911305513
 20
167.7855739095142
 10
519.7973501635512
 20
167.8003242843141
  0
ARC
  5
8C1
330
1B
100
AcDbEntity
  8
0
  6
CONTINUOUS
 62
     0
100
AcDbCircle
 10
519.9358702525512
 20
167.6003242997141
 30
0.0
 40
0.1999999996
100
AcDbArc
 50
0.0000062691967269
 51
90.0000001409972
  0
LINE
  5
8C2
330
1B
100
AcDbEntity
  8
0
  6
CONTINUOUS
 62
     0
100
AcDbLine
 10
517.0670741323513
 20
163.8003242851142
 30
0.0
 11
517.0670741323513
 21
167.6003242851141
 31
0.0
  0
LWPOLYLINE
  5
8C3
330
1B
100
AcDbEntity
  8
0
  6
CONTINUOUS
 62
     0
100
AcDbPolyline
 90
        5
 70
     0
 43
0.0
 10
517.0670741315509
 20
167.6003242851141
 10
517.0553768197512
 20
167.675877170314
 10
517.0216798469511
 20
167.7409143107141
 10
516.9719449431511
 20
167.784081658514
 10
516.9099396843514
 20
167.8003242843141
  0
LINE
  5
8C4
330
1B
100
AcDbEntity
  8
0
  6
CONTINUOUS
 62
     0
100
AcDbLine
 10
517.0670741323513
 20
163.8003242851142
 30
0.0
 11
519.988060278551
 21
163.8003242851142
 31
0.0
  0
LINE
  5
8C5
330
1B
100
AcDbEntity
  8
0
  6
CONTINUOUS
 62
     0
100
AcDbLine
 10
518.1358702521513
 20
171.8003242851142
 30
0.0
 11
518.1358702521513
 21
167.8003242851142
 31
0.0
  0
LINE
  5
8C6
330
1B
100
AcDbEntity
  8
0
  6
CONTINUOUS
 62
     0
100
AcDbLine
 10
605.7050739206021
 20
156.3003242851142
 30
0.0
 11
605.7050739206021
 21
156.8003242851142
 31
0.0
  0
ARC
  5
8C7
330
1B
100
AcDbEntity
  8
0
  6
CONTINUOUS
 62
     0
100
AcDbCircle
 10
599.4970854602022
 20
114.3003242855139
 30
0.0
 40
5.0000000004
100
AcDbArc
 50
270.0000000025924
 51
356.9999999972941
  0
LINE
  5
8C8
330
1B
100
AcDbEntity
  8
0
  6
CONTINUOUS
 62
     0
100
AcDbLine
 10
604.4902331346023
 20
114.0386445041141
 30
0.0
 11
606.7050739206022
 21
156.3003242851142
 31
0.0
  0
LINE
  5
8C9
330
1B
100
AcDbEntity
  8
0
  6
CONTINUOUS
 62
     0
100
AcDbLine
 10
592.0382058676023
 20
156.8003242851142
 30
0.0
 11
592.0472175124023
 21
157.500324285114
 31
0.0
  0
LINE
  5
8CA
330
1B
100
AcDbEntity
  8
0
  6
CONTINUOUS
 62
     0
100
AcDbLine
 10
592.0472175124023
 20
157.500324285114
 30
0.0
 11
592.1022335834022
 21
161.8003242851142
 31
0.0
  0
LINE
  5
8CB
330
1B
100
AcDbEntity
  8
0
  6
CONTINUOUS
 62
     0
100
AcDbLine
 10
607.5911659706023
 20
156.8003242851142
 30
0.0
 11
607.8094706854024
 21
161.8003242851142
 31
0.0
  0
LINE
  5
8CC
330
1B
100
AcDbEntity
  8
0
  6
CONTINUOUS
 62
     0
100
AcDbLine
 10
598.8749620988023
 20
161.8003242851142
 30
0.0
 11
598.9841144556024
 21
156.8003242851142
 31
0.0
  0
LINE
  5
8CD
330
1B
100
AcDbEntity
  8
0
  6
CONTINUOUS
 62
     0
100
AcDbLine
 10
607.8394620054023
 20
161.8003242851142
 30
0.0
 11
607.8394620054023
 21
162.8003242851142
 31
0.0
  0
LINE
  5
8CE
330
1B
100
AcDbEntity
  8
0
  6
CONTINUOUS
 62
     0
100
AcDbLine
 10
596.0077708890021
 20
161.800324282514
 30
0.0
 11
595.9481912296021
 21
156.8003242851142
 31
0.0
  0
LINE
  5
8CF
330
1B
100
AcDbEntity
  8
0
  6
CONTINUOUS
 62
     0
100
AcDbLine
 10
595.8668012496023
 20
161.8003242851142
 30
0.0
 11
595.8668012496023
 21
162.8003242851142
 31
0.0
  0
LINE
  5
8D0
330
1B
100
AcDbEntity
  8
0
  6
CONTINUOUS
 62
     0
100
AcDbLine
 10
598.3566645774021
 20
161.8003242851142
 30
0.0
 11
607.8394620054023
 21
161.8003242851142
 31
0.0
  0
LINE
  5
8D1
330
1B
100
AcDbEntity
  8
0
  6
CONTINUOUS
 62
     0
100
AcDbLine
 10
595.8668012496023
 20
162.8003242851142
 30
0.0
 11
607.8394620054023
 21
162.8003242851142
 31
0.0
  0
LINE
  5
8D2
330
1B
100
AcDbEntity
  8
0
  6
CONTINUOUS
 62
     0
100
AcDbLine
 10
665.751611768475
 20
109.3003242851142
 30
0.0
 11
666.0342594222747
 21
101.206354482114
 31
0.0
  0
LINE
  5
8D3
330
1B
100
AcDbEntity
  8
0
  6
CONTINUOUS
 62
     0
100
AcDbLine
 10
651.997709043475
 20
156.3003242851142
 30
0.0
 11
651.997709043475
 21
156.8003242851142
 31
0.0
  0
LINE
  5
8D4
330
1B
100
AcDbEntity
  8
0
  6
CONTINUOUS
 62
     0
100
AcDbLine
 10
653.2125498294747
 20
114.0386445041141
 30
0.0
 11
650.9977090434749
 21
156.3003242851142
 31
0.0
  0
ARC
  5
8D5
330
1B
100
AcDbEntity
  8
0
  6
CONTINUOUS
 62
     0
100
AcDbCircle
 10
658.2056975036748
 20
114.3003242855139
 30
0.0
 40
5.0000000004
100
AcDbArc
 50
183.0000000026021
 51
269.9999999973944
  0
LINE
  5
8D6
330
1B
100
AcDbEntity
  8
0
  6
CONTINUOUS
 62
     0
100
AcDbLine
 10
665.6005493988748
 20
161.8003242851142
 30
0.0
 11
665.6645771144747
 21
156.8003242851142
 31
0.0
  0
LINE
  5
8D7
330
1B
100
AcDbEntity
  8
0
  6
CONTINUOUS
 62
     0
100
AcDbLine
 10
658.7186685082747
 20
156.8003242851142
 30
0.0
 11
658.8278208650747
 21
161.8003242851142
 31
0.0
  0
LINE
  5
8D8
330
1B
100
AcDbEntity
  8
0
  6
CONTINUOUS
 62
     0
100
AcDbLine
 10
661.7545917342747
 20
156.8003242851142
 30
0.0
 11
661.6950120748747
 21
161.800324282514
 31
0.0
  0
LINE
  5
8D9
330
1B
100
AcDbEntity
  8
0
  6
CONTINUOUS
 62
     0
100
AcDbLine
 10
661.8359817142748
 20
161.8003242851142
 30
0.0
 11
661.8359817142748
 21
162.8003242851142
 31
0.0
  0
LINE
  5
8DA
330
1B
100
AcDbEntity
  8
0
  6
CONTINUOUS
 62
     0
100
AcDbLine
 10
650.1116169944748
 20
156.8003242851142
 30
0.0
 11
649.8933122794746
 21
161.8003242851142
 31
0.0
  0
LINE
  5
8DB
330
1B
100
AcDbEntity
  8
0
  6
CONTINUOUS
 62
     0
100
AcDbLine
 10
649.863320958475
 20
161.8003242851142
 30
0.0
 11
649.863320958475
 21
162.8003242851142
 31
0.0
  0
LINE
  5
8DC
330
1B
100
AcDbEntity
  8
0
  6
CONTINUOUS
 62
     0
100
AcDbLine
 10
649.863320958475
 20
162.8003242851142
 30
0.0
 11
661.8359817142748
 21
162.8003242851142
 31
0.0
  0
LINE
  5
8DD
330
1B
100
AcDbEntity
  8
0
  6
CONTINUOUS
 62
     0
100
AcDbLine
 10
649.863320958475
 20
161.8003242851142
 30
0.0
 11
659.3461183864749
 21
161.8003242851142
 31
0.0
  0
LINE
  5
8DE
330
1B
100
AcDbEntity
  8
0
  6
CONTINUOUS
 62
     0
100
AcDbLine
 10
698.4285053750238
 20
171.8003242851142
 30
0.0
 11
698.4285053750238
 21
167.8003242851142
 31
0.0
  0
LINE
  5
8DF
330
1B
100
AcDbEntity
  8
0
  6
CONTINUOUS
 62
     0
100
AcDbLine
 10
712.4285053750238
 20
171.8003242851142
 30
0.0
 11
712.4285053750238
 21
167.8003242851142
 31
0.0
  0
LINE
  5
8E0
330
1B
100
AcDbEntity
  8
0
  6
CONTINUOUS
 62
     0
100
AcDbLine
 10
714.2806954014238
 20
167.6003242851141
 30
0.0
 11
714.2806954014238
 21
163.8003242851142
 31
0.0
  0
LINE
  5
8E1
330
1B
100
AcDbEntity
  8
0
  6
CONTINUOUS
 62
     0
100
AcDbLine
 10
714.4285053750238
 20
167.6003242851141
 30
0.0
 11
714.4285053750238
 21
161.8003242851142
 31
0.0
  0
LWPOLYLINE
  5
8E2
330
1B
100
AcDbEntity
  8
0
  6
CONTINUOUS
 62
     0
100
AcDbPolyline
 90
        5
 70
     0
 43
0.0
 10
714.280695400224
 20
167.6003242851141
 10
714.2658575838238
 20
167.6776376833139
 10
714.2233683570239
 20
167.7432905409142
 10
714.1618262534237
 20
167.7855739095142
 10
714.0899852864238
 20
167.8003242843141
  0
ARC
  5
8E3
330
1B
100
AcDbEntity
  8
0
  6
CONTINUOUS
 62
     0
100
AcDbCircle
 10
714.2285053754237
 20
167.6003242997141
 30
0.0
 40
0.1999999996
100
AcDbArc
 50
0.0000062691967269
 51
90.0000001409972
  0
LINE
  5
8E4
330
1B
100
AcDbEntity
  8
0
  6
CONTINUOUS
 62
     0
100
AcDbLine
 10
708.4478136970237
 20
167.6003242851141
 30
0.0
 11
708.4478136970237
 21
163.8003242851142
 31
0.0
  0
LINE
  5
8E5
330
1B
100
AcDbEntity
  8
0
  6
CONTINUOUS
 62
     0
100
AcDbLine
 10
711.359709255224
 20
163.8003242851142
 30
0.0
 11
711.359709255224
 21
167.6003242851141
 31
0.0
  0
LINE
  5
8E6
330
1B
100
AcDbEntity
  8
0
  6
CONTINUOUS
 62
     0
100
AcDbLine
 10
699.5956236706238
 20
167.6003242851141
 30
0.0
 11
699.5956236706238
 21
163.8003242851142
 31
0.0
  0
LINE
  5
8E7
330
1B
100
AcDbEntity
  8
0
  6
CONTINUOUS
 62
     0
100
AcDbLine
 10
702.5318879910237
 20
163.8003242851142
 30
0.0
 11
702.5318879910237
 21
167.6003242851141
 31
0.0
  0
LINE
  5
8E8
330
1B
100
AcDbEntity
  8
0
  6
CONTINUOUS
 62
     0
100
AcDbLine
 10
696.600684110824
 20
163.8003242851142
 30
0.0
 11
696.600684110824
 21
167.6003242851141
 31
0.0
  0
LINE
  5
8E9
330
1B
100
AcDbEntity
  8
0
  6
CONTINUOUS
 62
     0
100
AcDbLine
 10
696.4285053750238
 20
167.6003242851141
 30
0.0
 11
696.4285053750238
 21
161.8003242851142
 31
0.0
  0
LINE
  5
8EA
330
1B
100
AcDbEntity
  8
0
  6
CONTINUOUS
 62
     0
100
AcDbLine
 10
702.5318879922238
 20
163.8003242851142
 30
0.0
 11
708.4478136958239
 21
163.8003242851142
 31
0.0
  0
LINE
  5
8EB
330
1B
100
AcDbEntity
  8
0
  6
CONTINUOUS
 62
     0
100
AcDbLine
 10
696.6006841120238
 20
163.8003242851142
 30
0.0
 11
699.5956236694237
 21
163.8003242851142
 31
0.0
  0
LWPOLYLINE
  5
8EC
330
1B
100
AcDbEntity
  8
0
  6
CONTINUOUS
 62
     0
100
AcDbPolyline
 90
        5
 70
     0
 43
0.0
 10
702.5318879924238
 20
167.6003242851141
 10
702.5341912198239
 20
167.6758771701141
 10
702.5412487424239
 20
167.7409143107141
 10
702.5515441726238
 20
167.784081658514
 10
702.5644452700237
 20
167.8003242843141
  0
LWPOLYLINE
  5
8ED
330
1B
100
AcDbEntity
  8
0
  6
CONTINUOUS
 62
     0
100
AcDbPolyline
 90
        5
 70
     0
 43
0.0
 10
699.7508896608239
 20
167.8003242851142
 10
699.6926025656237
 20
167.785684491114
 10
699.6425098240235
 20
167.7435140517139
 10
699.6081965230239
 20
167.6789430727141
 10
699.5956236694237
 20
167.6003242851141
  0
LWPOLYLINE
  5
8EE
330
1B
100
AcDbEntity
  8
0
  6
CONTINUOUS
 62
     0
100
AcDbPolyline
 90
        5
 70
     0
 43
0.0
 10
696.7903758374238
 20
167.8003242851142
 10
696.7165745142238
 20
167.7845481435141
 10
696.6541099490236
 20
167.739481722314
 10
696.6145486848238
 20
167.675347232914
 10
696.6006841120238
 20
167.6003242851141
  0
ARC
  5
8EF
330
1B
100
AcDbEntity
  8
0
  6
CONTINUOUS
 62
     0
100
AcDbCircle
 10
696.6285053744238
 20
167.6003242997141
 30
0.0
 40
0.1999999996
100
AcDbArc
 50
89.99999985900279
 51
179.9999937308032
  0
LWPOLYLINE
  5
8F0
330
1B
100
AcDbEntity
  8
0
  6
CONTINUOUS
 62
     0
100
AcDbPolyline
 90
        5
 70
     0
 43
0.0
 10
708.4478136962236
 20
167.6003242851141
 10
708.445033474824
 20
167.6776376833139
 10
708.4371961840235
 20
167.7432905409142
 10
708.4256471332237
 20
167.7855739095142
 10
708.4123695730238
 20
167.8003242843141
  0
LWPOLYLINE
  5
8F1
330
1B
100
AcDbEntity
  8
0
  6
CONTINUOUS
 62
     0
100
AcDbPolyline
 90
        5
 70
     0
 43
0.0
 10
711.3597092544237
 20
167.6003242851141
 10
711.3480119426237
 20
167.675877170314
 10
711.3143149698239
 20
167.7409143107141
 10
711.2645800660247
 20
167.784081658514
 10
711.2025748072237
 20
167.8003242843141
  0
LINE
  5
8F2
330
1B
100
AcDbEntity
  8
0
  6
CONTINUOUS
 62
     0
100
AcDbLine
 10
711.359709255224
 20
163.8003242851142
 30
0.0
 11
714.2806954014238
 21
163.8003242851142
 31
0.0
  0
LINE
  5
8F3
330
1B
100
AcDbEntity
  8
0
  6
CONTINUOUS
 62
     0
100
AcDbLine
 10
696.4285053764237
 20
167.6003242851141
 30
0.0
 11
714.4285053734238
 21
167.6003242851141
 31
0.0
  0
LINE
  5
8F4
330
1B
100
AcDbEntity
  8
0
  6
CONTINUOUS
 62
     0
100
AcDbLine
 10
714.228428579624
 20
167.8003242851142
 30
0.0
 11
696.628582170224
 21
167.8003242851142
 31
0.0
  0
LWPOLYLINE
  5
8F5
330
1B
100
AcDbEntity
  8
0
  6
CONTINUOUS
 62
     0
100
AcDbPolyline
 90
        4
 70
     0
 43
0.0
 10
713.9496325140237
 20
179.3003242855139
 10
713.9422910950238
 20
179.5815857177141
 10
713.9350966400238
 20
179.748016292914
 10
713.9287250600236
 20
179.800047100714
  0
LINE
  5
8F6
330
1B
100
AcDbEntity
  8
0
  6
CONTINUOUS
 62
     0
100
AcDbLine
 10
713.9496325140237
 20
174.8003242851142
 30
0.0
 11
713.9496325140237
 21
179.3003242855139
 31
0.0
  0
LINE
  5
8F7
330
1B
100
AcDbEntity
  8
0
  6
CONTINUOUS
 62
     0
100
AcDbLine
 10
713.9496325146239
 20
174.8003242851142
 30
0.0
 11
714.4283868400236
 21
174.8003242851142
 31
0.0
  0
LINE
  5
8F8
330
1B
100
AcDbEntity
  8
0
  6
CONTINUOUS
 62
     0
100
AcDbLine
 10
713.9285053750239
 20
172.8003242851142
 30
0.0
 11
713.9285053750239
 21
171.8003242851142
 31
0.0
  0
LINE
  5
8F9
330
1B
100
AcDbEntity
  8
0
  6
CONTINUOUS
 62
     0
100
AcDbLine
 10
714.4285053750238
 20
174.800324287114
 30
0.0
 11
714.4285053750238
 21
172.8003242851142
 31
0.0
  0
LINE
  5
8FA
330
1B
100
AcDbEntity
  8
0
  6
CONTINUOUS
 62
     0
100
AcDbLine
 10
709.4285053750239
 20
187.8003242851142
 30
0.0
 11
710.4285053750238
 21
181.8003242851142
 31
0.0
  0
LINE
  5
8FB
330
1B
100
AcDbEntity
  8
0
  6
CONTINUOUS
 62
     0
100
AcDbLine
 10
701.4285053750239
 20
187.8003242851142
 30
0.0
 11
700.4285053750238
 21
181.8003242851142
 31
0.0
  0
LINE
  5
8FC
330
1B
100
AcDbEntity
  8
0
  6
CONTINUOUS
 62
     0
100
AcDbLine
 10
703.8040880266237
 20
179.3003242851142
 30
0.0
 11
707.1805247036238
 21
179.3003242851142
 31
0.0
  0
LINE
  5
8FD
330
1B
100
AcDbEntity
  8
0
  6
CONTINUOUS
 62
     0
100
AcDbLine
 10
711.9284543888238
 20
181.8003242851142
 30
0.0
 11
698.9285563610238
 21
181.8003242851142
 31
0.0
  0
LINE
  5
8FE
330
1B
100
AcDbEntity
  8
0
  6
CONTINUOUS
 62
     0
100
AcDbLine
 10
703.8040880254238
 20
179.3003242855139
 30
0.0
 11
703.8040880254238
 21
174.8003242851142
 31
0.0
  0
LINE
  5
8FF
330
1B
100
AcDbEntity
  8
0
  6
CONTINUOUS
 62
     0
100
AcDbLine
 10
696.9073782358239
 20
174.8003242851142
 30
0.0
 11
696.9073782358239
 21
179.3003242855139
 31
0.0
  0
LINE
  5
900
330
1B
100
AcDbEntity
  8
0
  6
CONTINUOUS
 62
     0
100
AcDbLine
 10
696.950075257424
 20
179.3003242855139
 30
0.0
 11
696.950075257424
 21
174.8003242851142
 31
0.0
  0
LINE
  5
901
330
1B
100
AcDbEntity
  8
0
  6
CONTINUOUS
 62
     0
100
AcDbLine
 10
698.6593975656237
 20
174.8003242851142
 30
0.0
 11
698.6593975656237
 21
179.3003242855139
 31
0.0
  0
LWPOLYLINE
  5
902
330
1B
100
AcDbEntity
  8
0
  6
CONTINUOUS
 62
     0
100
AcDbPolyline
 90
        4
 70
     0
 43
0.0
 10
696.9073782358239
 20
179.3003242855139
 10
696.9147196548237
 20
179.5815857183141
 10
696.9219141098237
 20
179.7480162931141
 10
696.9282856898239
 20
179.800047100714
  0
LWPOLYLINE
  5
903
330
1B
100
AcDbEntity
  8
0
  6
CONTINUOUS
 62
     0
100
AcDbPolyline
 90
        4
 70
     0
 43
0.0
 10
696.9282856898239
 20
179.800047100714
 10
696.9359168632238
 20
179.7420858977139
 10
696.9428991974239
 20
179.576458058514
 10
696.950075257424
 20
179.3003242855139
  0
LINE
  5
904
330
1B
100
AcDbEntity
  8
0
  6
CONTINUOUS
 62
     0
100
AcDbLine
 10
696.4286239098239
 20
174.8003242851142
 30
0.0
 11
696.9500752580238
 21
174.8003242851142
 31
0.0
  0
LINE
  5
905
330
1B
100
AcDbEntity
  8
0
  6
CONTINUOUS
 62
     0
100
AcDbLine
 10
696.9500752580238
 20
179.3003242851142
 30
0.0
 11
698.6593975656237
 21
179.3003242851142
 31
0.0
  0
LWPOLYLINE
  5
906
330
1B
100
AcDbEntity
  8
0
  6
CONTINUOUS
 62
     0
100
AcDbPolyline
 90
        7
 70
     0
 43
0.0
 10
698.6593975656237
 20
179.3003242855139
 10
699.5439868694238
 20
179.5815857183141
 10
700.4108680396239
 20
179.7480162931141
 10
701.2602284878237
 20
179.800260931314
 10
702.0981012238237
 20
179.7420858977139
 10
702.9394233430239
 20
179.576458058514
 10
703.8040880254238
 20
179.3003242855139
  0
LINE
  5
907
330
1B
100
AcDbEntity
  8
0
  6
CONTINUOUS
 62
     0
100
AcDbLine
 10
698.9285053750238
 20
181.8003242851142
 30
0.0
 11
696.9233884812238
 21
179.7952073913142
 31
0.0
  0
LINE
  5
908
330
1B
100
AcDbEntity
  8
0
  6
CONTINUOUS
 62
     0
100
AcDbLine
 10
698.659397566824
 20
174.8003242851142
 30
0.0
 11
703.8040880242237
 21
174.8003242851142
 31
0.0
  0
LINE
  5
909
330
1B
100
AcDbEntity
  8
0
  6
CONTINUOUS
 62
     0
100
AcDbLine
 10
696.9285053750239
 20
172.8003242851142
 30
0.0
 11
696.9285053750239
 21
171.8003242851142
 31
0.0
  0
LINE
  5
90A
330
1B
100
AcDbEntity
  8
0
  6
CONTINUOUS
 62
     0
100
AcDbLine
 10
696.4285053750238
 20
174.800324287114
 30
0.0
 11
696.4285053750238
 21
172.8003242851142
 31
0.0
  0
LWPOLYLINE
  5
90B
330
1B
100
AcDbEntity
  8
0
  6
CONTINUOUS
 62
     0
100
AcDbPolyline
 90
        7
 70
     0
 43
0.0
 10
707.1805247048239
 20
179.3003242827141
 10
708.0578255456237
 20
179.581599463714
 10
708.9174103084237
 20
179.7480094489141
 10
709.7598078604237
 20
179.8002606741141
 10
710.5906626762236
 20
179.7420900183141
 10
711.425054418024
 20
179.576451032514
 10
712.2825181430239
 20
179.3003242827141
  0
LINE
  5
90C
330
1B
100
AcDbEntity
  8
0
  6
CONTINUOUS
 62
     0
100
AcDbLine
 10
707.1805247048239
 20
174.8003242851142
 30
0.0
 11
707.1805247048239
 21
179.3003242827141
 31
0.0
  0
LINE
  5
90D
330
1B
100
AcDbEntity
  8
0
  6
CONTINUOUS
 62
     0
100
AcDbLine
 10
712.2825181430239
 20
179.3003242827141
 30
0.0
 11
712.2825181430239
 21
174.8003242851142
 31
0.0
  0
LINE
  5
90E
330
1B
100
AcDbEntity
  8
0
  6
CONTINUOUS
 62
     0
100
AcDbLine
 10
707.1805247066238
 20
174.8003242851142
 30
0.0
 11
712.2825181412238
 21
174.8003242851142
 31
0.0
  0
LINE
  5
90F
330
1B
100
AcDbEntity
  8
0
  6
CONTINUOUS
 62
     0
100
AcDbLine
 10
709.4285053750239
 20
187.8003242851142
 30
0.0
 11
701.4285053750239
 21
187.8003242851142
 31
0.0
  0
LINE
  5
910
330
1B
100
AcDbEntity
  8
0
  6
CONTINUOUS
 62
     0
100
AcDbLine
 10
709.428484463024
 20
189.3003242851142
 30
0.0
 11
701.4285262868241
 21
189.3003242851142
 31
0.0
  0
LINE
  5
911
330
1B
100
AcDbEntity
  8
0
  6
CONTINUOUS
 62
     0
100
AcDbLine
 10
701.4285053750239
 20
189.3003242851142
 30
0.0
 11
701.4285053750239
 21
187.8003242851142
 31
0.0
  0
LINE
  5
912
330
1B
100
AcDbEntity
  8
0
  6
CONTINUOUS
 62
     0
100
AcDbLine
 10
709.4285053750239
 20
189.3003242851142
 30
0.0
 11
709.4285053750239
 21
187.8003242851142
 31
0.0
  0
LINE
  5
913
330
1B
100
AcDbEntity
  8
0
  6
CONTINUOUS
 62
     0
100
AcDbLine
 10
696.9286007064238
 20
171.8003242851142
 30
0.0
 11
713.9284100434238
 21
171.8003242851142
 31
0.0
  0
LINE
  5
914
330
1B
100
AcDbEntity
  8
0
  6
CONTINUOUS
 62
     0
100
AcDbLine
 10
714.4283984616238
 20
172.8003242851142
 30
0.0
 11
696.4286122882238
 21
172.8003242851142
 31
0.0
  0
LINE
  5
915
330
1B
100
AcDbEntity
  8
0
  6
CONTINUOUS
 62
     0
100
AcDbLine
 10
711.9285053750238
 20
181.8003242851142
 30
0.0
 11
713.9336222686238
 21
179.795207391514
 31
0.0
  0
LINE
  5
916
330
1B
100
AcDbEntity
  8
0
  6
CONTINUOUS
 62
     0
100
AcDbLine
 10
712.2825181424238
 20
179.3003242851142
 30
0.0
 11
713.9496325136239
 21
179.3003242851142
 31
0.0
  0
CIRCLE
  5
917
330
1B
100
AcDbEntity
  8
5_ALL_CURVES
  6
CENTER
 62
     0
100
AcDbCircle
 10
531.7050739206022
 20
329.3736370055737
 30
0.0
 40
81.0
  0
DIMENSION
  5
918
330
1B
100
AcDbEntity
  8
文字
100
AcDbDimension
  2
*D39
 10
567.567936371008
 20
395.4784668685951
 30
0.0
 11
484.9270119064502
 21
243.1491802983505
 31
0.0
 70
   163
  3
DIMSTYLE_1
100
AcDbDiametricDimension
 15
495.8422114699963
 25
263.2688071425531
 35
0.0
 40
0.0
  0
DIMENSION
  5
919
330
1B
100
AcDbEntity
  8
文字
100
AcDbDimension
  2
*D40
 10
452.2093297916023
 20
283.4767477331741
 30
0.0
 11
444.189264375202
 21
387.605675919374
 31
0.0
 70
   162
  3
DIMSTYLE_1
100
AcDb2LineAngularDimension
 13
531.7050739206022
 23
421.0910406251736
 33
0.0
 14
531.7050739206022
 24
436.4925566937738
 34
0.0
 15
438.9373682444022
 25
275.8141771613742
 35
0.0
 16
428.1831468228124
 26
347.6273458474608
 36
0.0
1001
ACAD
1000
DSTYLE
1002
{
1070
   271
1070
     0
1002
}
  0
DIMENSION
  5
91A
330
1B
100
AcDbEntity
  8
文字
100
AcDbDimension
  2
*D41
 10
584.8901969155929
 20
390.4665391463934
 30
0.0
 11
469.4420069809484
 21
262.0412467830756
 31
0.0
 70
    35
  3
DIMSTYLE_1
100
AcDbDiametricDimension
 15
478.5199509254135
 25
268.2807348645555
 35
0.0
 40
0.0
  0
LINE
  5
91B
330
1B
100
AcDbEntity
  8
5_ALL_CURVES
  6
CENTER
 62
     0
100
AcDbLine
 10
531.7050739196083
 20
329.3736370055737
 30
0.0
 11
440.6694190511952
 21
276.8141771609072
 31
0.0
  0
ARC
  5
91C
330
1B
100
AcDbEntity
  8
0
  6
CONTINUOUS
 62
     0
100
AcDbCircle
 10
531.7050739206022
 20
329.3736370055737
 30
0.0
 40
75.20633905699999
100
AcDbArc
 50
216.5741855433994
 51
266.187949531803
  0
ARC
  5
91D
330
1B
100
AcDbEntity
  8
0
  6
CONTINUOUS
 62
     0
100
AcDbCircle
 10
531.7050739206022
 20
329.3736370055737
 30
0.0
 40
75.20633905699999
100
AcDbArc
 50
96.5741854476041
 51
141.1879495098973
  0
LINE
  5
91E
330
1B
100
AcDbEntity
  8
DEFAULT_1
  6
CENTER
 62
     0
100
AcDbLine
 10
531.7050739206022
 20
329.3736370055737
 30
0.0
 11
449.0341713322022
 21
329.3736370055737
 31
0.0
  0
DIMENSION
  5
91F
102
{ACAD_XDICTIONARY
360
920
102
}
102
{ACAD_REACTORS
330
921
102
}
330
1B
100
AcDbEntity
  8
文字
100
AcDbDimension
  2
*D45
 10
482.751820530022
 20
329.3736370055737
 30
0.0
 11
482.751820530022
 21
341.7492065089785
 31
0.0
 70
   160
  1
(24.5)
  3
DIMSTYLE_1
100
AcDbAlignedDimension
 13
498.0169818321011
 23
353.8870591853814
 33
0.0
 14
479.5419851347611
 24
329.3736370055737
 34
0.0
 50
90.0
100
AcDbRotatedDimension
  0
DIMENSION
  5
922
102
{ACAD_XDICTIONARY
360
923
102
}
102
{ACAD_REACTORS
330
924
102
}
330
1B
100
AcDbEntity
  8
文字
100
AcDbDimension
  2
*D46
 10
511.1358704101512
 20
376.5550281330354
 30
0.0
 11
489.2692037434843
 21
376.5550281330354
 31
0.0
 70
   160
  1
（20.5）
  3
DIMSTYLE_1
100
AcDbAlignedDimension
 13
531.7050739206022
 23
380.9788880395614
 33
0.0
 14
511.1358704101512
 24
367.0059477634318
 34
0.0
100
AcDbRotatedDimension
  0
ARC
  5
925
330
1B
100
AcDbEntity
  8
0
  6
CONTINUOUS
 62
     0
100
AcDbCircle
 10
531.7050739206022
 20
329.3736370055737
 30
0.0
 40
75.20633905699999
100
AcDbArc
 50
148.8120504548978
 51
203.425814446903
  0
DIMENSION
  5
926
330
1B
100
AcDbEntity
  8
文字
100
AcDbDimension
  2
*D42
 10
462.2950943089385
 20
291.1573271607032
 30
0.0
 11
452.8845985921655
 21
262.0402776816456
 31
0.0
 70
   163
  1
3-<>穴
  3
DIMSTYLE_1
100
AcDbDiametricDimension
 15
460.8189381180668
 25
286.5899468502462
 35
0.0
 40
0.0
  0
DIMENSION
  5
927
330
1B
100
AcDbEntity
  8
文字
100
AcDbDimension
  2
*D43
 10
461.5570162136018
 20
288.873637005574
 30
0.0
 11
449.0974216469057
 21
296.4481846511721
 31
0.0
 70
    36
  3
DIMSTYLE_1
100
AcDbRadialDimension
 15
455.9470727987316
 25
290.9628201653122
 35
0.0
 40
0.0
  0
LWPOLYLINE
  5
928
330
1B
100
AcDbEntity
  8
0
  6
CONTINUOUS
 62
     0
100
AcDbPolyline
 90
        6
 70
     0
 43
0.0
 10
462.6975723060022
 20
299.474503911974
 10
462.9240879982023
 20
298.6340083129742
 10
462.899751978602
 20
297.7646307055741
 10
462.6268126750023
 20
296.9391728491742
 10
462.1280985154022
 20
296.2266596409741
 10
461.4460378846021
 20
295.6873515419741
  0
LWPOLYLINE
  5
929
330
1B
100
AcDbEntity
  8
0
  6
CONTINUOUS
 62
     0
100
AcDbPolyline
 90
        6
 70
     0
 43
0.0
 10
467.4023769266022
 20
285.370669659774
 10
468.2114117180021
 20
285.691923697774
 10
469.0778591126024
 20
285.7672825357741
 10
469.9291380080021
 20
285.5906442605741
 10
470.6940634146021
 20
285.1767848989742
 10
471.3079143222023
 20
284.5609541323741
  0
CIRCLE
  5
92A
330
1B
100
AcDbEntity
  8
0
  6
CONTINUOUS
 62
     0
100
AcDbCircle
 10
461.557016213602
 20
288.873637005574
 30
0.0
 40
2.399999999999999
  0
LINE
  5
92B
330
1B
100
AcDbEntity
  8
0
  6
CONTINUOUS
 62
     0
100
AcDbLine
 10
465.1392224636021
 20
284.0688889597742
 30
0.0
 11
467.4023769266022
 21
285.370669659774
 31
0.0
  0
LINE
  5
92C
330
1B
100
AcDbEntity
  8
5_ALL_CURVES
  6
CONTINUOUS
 62
     0
100
AcDbLine
 10
464.8232085870024
 20
284.197071159774
 30
0.0
 11
464.7384067778022
 21
284.1440752663742
 31
0.0
  0
LINE
  5
92D
330
1B
100
AcDbEntity
  8
5_ALL_CURVES
  6
CONTINUOUS
 62
     0
100
AcDbLine
 10
464.8164893022023
 20
284.0191300995742
 30
0.0
 11
464.8404756376023
 21
283.9805199321741
 31
0.0
  0
LINE
  5
92E
330
1B
100
AcDbEntity
  8
5_ALL_CURVES
  6
CONTINUOUS
 62
     0
100
AcDbLine
 10
464.738406437402
 20
284.1440750503742
 30
0.0
 11
464.8025966882022
 21
284.0413992429743
 31
0.0
  0
LINE
  5
92F
330
1B
100
AcDbEntity
  8
0
  6
CONTINUOUS
 62
     0
100
AcDbLine
 10
461.4460378846021
 20
295.6873515419741
 30
0.0
 11
459.1870528570025
 21
294.3783688355742
 31
0.0
  0
CIRCLE
  5
930
330
1B
100
AcDbEntity
  8
0
  6
CONTINUOUS
 62
     0
100
AcDbCircle
 10
461.557016213602
 20
288.873637005574
 30
0.0
 40
5.986330377799998
  0
LWPOLYLINE
  5
931
330
1B
100
AcDbEntity
  8
0
  6
CONTINUOUS
 62
     0
100
AcDbPolyline
 90
        3
 70
     0
 43
0.0
 10
472.5113277420022
 20
376.9254172379737
 10
472.8493791588022
 20
376.7725549381738
 10
473.2212906008021
 20
376.7534966789738
  0
LINE
  5
932
330
1B
100
AcDbEntity
  8
0
  6
CONTINUOUS
 62
     0
100
AcDbLine
 10
473.1038312000023
 20
376.5105418455736
 30
0.0
 11
469.8599445710023
 21
378.7819357569738
 31
0.0
  0
LINE
  5
933
330
1B
100
AcDbEntity
  8
0
  6
CONTINUOUS
 62
     0
100
AcDbLine
 10
464.1241802916024
 20
370.5904153267738
 30
0.0
 11
467.3680669206023
 21
368.3190214153738
 31
0.0
  0
LWPOLYLINE
  5
934
330
1B
100
AcDbEntity
  8
0
  6
CONTINUOUS
 62
     0
100
AcDbPolyline
 90
        3
 70
     0
 43
0.0
 10
467.1840801762022
 20
367.9623546901737
 10
467.1793854998024
 20
368.1280868353737
 10
467.0338386796021
 20
368.4699982711738
  0
CIRCLE
  5
935
330
1B
100
AcDbEntity
  8
0
  6
CONTINUOUS
 62
     0
100
AcDbCircle
 10
466.9920624216024
 20
374.6861754775739
 30
0.0
 40
1.5
  0
ARC
  5
936
330
1B
100
AcDbEntity
  8
0
  6
CONTINUOUS
 62
     0
100
AcDbCircle
 10
466.9920624216024
 20
374.6861754775739
 30
0.0
 40
5.0
100
AcDbArc
 50
55.00000068319793
 51
235.0000000219018
  0
LINE
  5
937
330
1B
100
AcDbEntity
  8
DEFAULT_1
  6
CENTER
 62
     0
100
AcDbLine
 10
531.7050739206022
 20
410.3736370055737
 30
0.0
 11
531.7050739206022
 21
434.7066885195223
 31
0.0
  0
DIMENSION
  5
938
330
1B
100
AcDbEntity
  8
文字
100
AcDbDimension
  2
*D44
 10
531.7050739206022
 20
419.9051582723738
 30
0.0
 11
618.419099669202
 21
389.1710406251734
 31
0.0
 70
   162
  3
DIMSTYLE_1
100
AcDb2LineAngularDimension
 13
610.9869688570024
 23
283.6002136221742
 33
0.0
 14
624.6582231972022
 24
275.7071112485742
 34
0.0
 15
531.7050739206022
 25
436.7066885193736
 35
0.0
 16
635.4378796993437
 26
347.6645294491892
 36
0.0
1001
ACAD
1000
DSTYLE
1002
{
1070
   271
1070
     0
1002
}
  0
LINE
  5
939
330
1B
100
AcDbEntity
  8
5_ALL_CURVES
  6
CENTER
 62
     0
100
AcDbLine
 10
531.7050739206022
 20
329.3736370049998
 30
0.0
 11
622.9261723888271
 21
276.7071112490551
 31
0.0
  0
ARC
  5
93A
330
1B
100
AcDbEntity
  8
0
  6
CONTINUOUS
 62
     0
100
AcDbCircle
 10
531.7050739206022
 20
329.3736370055737
 30
0.0
 40
75.20633905699999
100
AcDbArc
 50
336.5741855530969
 51
31.18794954510175
  0
LINE
  5
93B
330
1B
100
AcDbEntity
  8
DEFAULT_1
  6
CENTER
 62
     0
100
AcDbLine
 10
531.7050739206022
 20
329.3736370055737
 30
0.0
 11
531.7050739206022
 21
241.9866340323741
 31
0.0
  0
ARC
  5
93C
330
1B
100
AcDbEntity
  8
0
  6
CONTINUOUS
 62
     0
100
AcDbCircle
 10
531.7050739206022
 20
329.3736370055737
 30
0.0
 40
75.20633905699999
100
AcDbArc
 50
273.8120504681968
 51
323.4258144566005
  0
CIRCLE
  5
93D
330
1B
100
AcDbEntity
  8
0
  6
CONTINUOUS
 62
     0
100
AcDbCircle
 10
531.7050739206022
 20
250.3736370055741
 30
0.0
 40
1.5
  0
LINE
  5
93E
330
1B
100
AcDbEntity
  8
0
  6
CONTINUOUS
 62
     0
100
AcDbLine
 10
536.7050739206022
 20
254.3336914139741
 30
0.0
 11
536.7050739206022
 21
250.3736370055741
 31
0.0
  0
LINE
  5
93F
330
1B
100
AcDbEntity
  8
0
  6
CONTINUOUS
 62
     0
100
AcDbLine
 10
526.7050739206021
 20
250.3736370055741
 30
0.0
 11
526.7050739206021
 21
254.3336914139741
 31
0.0
  0
LINE
  5
940
330
1B
100
AcDbEntity
  8
0
  6
CONTINUOUS
 62
     0
100
AcDbLine
 10
526.7050739838023
 20
253.6103780577742
 30
0.0
 11
526.6363930224022
 21
253.974971759174
 31
0.0
  0
LWPOLYLINE
  5
941
330
1B
100
AcDbEntity
  8
0
  6
CONTINUOUS
 62
     0
100
AcDbPolyline
 90
        3
 70
     0
 43
0.0
 10
526.6363930224022
 20
253.974971759174
 10
526.438684871402
 20
254.2905553611741
 10
526.3117603970024
 20
254.3844567063741
  0
LINE
  5
942
330
1B
100
AcDbEntity
  8
0
  6
CONTINUOUS
 62
     0
100
AcDbLine
 10
537.0986631522023
 20
254.384502366974
 30
0.0
 11
536.969701890802
 21
254.2886484531742
 31
0.0
  0
LINE
  5
943
330
1B
100
AcDbEntity
  8
0
  6
CONTINUOUS
 62
     0
100
AcDbLine
 10
536.969701890802
 20
254.2886484531742
 30
0.0
 11
536.7731064126023
 21
253.9733110099742
 31
0.0
  0
ARC
  5
944
330
1B
100
AcDbEntity
  8
0
  6
CONTINUOUS
 62
     0
100
AcDbCircle
 10
531.7050739206022
 20
250.3736370055741
 30
0.0
 40
5.0
100
AcDbArc
 50
179.9999995494942
 51
0.0000004505057749
  0
LWPOLYLINE
  5
945
330
1B
100
AcDbEntity
  8
0
  6
CONTINUOUS
 62
     0
100
AcDbPolyline
 90
        6
 70
     0
 43
0.0
 10
601.9641099564021
 20
295.6873515419741
 10
601.2813790220024
 20
296.2273685199742
 10
600.7828922434023
 20
296.9400548755742
 10
600.5102259740022
 20
297.7656031257741
 10
600.4861758828024
 20
298.6349781831742
 10
600.7125755350023
 20
299.474503911974
  0
CIRCLE
  5
946
330
1B
100
AcDbEntity
  8
0
  6
CONTINUOUS
 62
     0
100
AcDbCircle
 10
601.8531316276023
 20
288.873637005574
 30
0.0
 40
5.986330377799998
  0
LINE
  5
947
330
1B
100
AcDbEntity
  8
0
  6
CONTINUOUS
 62
     0
100
AcDbLine
 10
596.0077709144022
 20
285.370669659774
 30
0.0
 11
598.270925693602
 21
284.068889318374
 31
0.0
  0
CIRCLE
  5
948
330
1B
100
AcDbEntity
  8
0
  6
CONTINUOUS
 62
     0
100
AcDbCircle
 10
601.8531316276023
 20
288.873637005574
 30
0.0
 40
2.399999999999999
  0
LINE
  5
949
330
1B
100
AcDbEntity
  8
0
  6
CONTINUOUS
 62
     0
100
AcDbLine
 10
604.2230950596022
 20
294.378369080574
 30
0.0
 11
601.9641099564021
 21
295.6873515419741
 31
0.0
  0
LWPOLYLINE
  5
94A
330
1B
100
AcDbEntity
  8
0
  6
CONTINUOUS
 62
     0
100
AcDbPolyline
 90
        6
 70
     0
 43
0.0
 10
592.1022335188024
 20
284.5609541323741
 10
592.716866213602
 20
285.177370318374
 10
593.4819377882024
 20
285.5909834789741
 10
594.333274655202
 20
285.7673400087741
 10
595.1996858178022
 20
285.691697539774
 10
596.0077709144022
 20
285.370669659774
  0
LINE
  5
94B
330
1B
100
AcDbEntity
  8
DEFAULT_1
  6
CENTER
 62
     0
100
AcDbLine
 10
531.7050739206022
 20
329.3736370055737
 30
0.0
 11
614.6624066264021
 21
329.3736370055737
 31
0.0
  0
ARC
  5
94C
330
1B
100
AcDbEntity
  8
0
  6
CONTINUOUS
 62
     0
100
AcDbCircle
 10
531.7050739206022
 20
329.3736370055737
 30
0.0
 40
75.20633905699999
100
AcDbArc
 50
38.8120504901027
 51
83.42581455239592
  0
LINE
  5
94D
330
1B
100
AcDbEntity
  8
DEFAULT_1
  6
CENTER
 62
     0
100
AcDbLine
 10
531.7050739206022
 20
329.3736370055737
 30
0.0
 11
531.7050739206022
 21
405.3735370055736
 31
0.0
  0
LINE
  5
94E
102
{ACAD_REACTORS
330
921
102
}
330
1B
100
AcDbEntity
  8
DEFAULT_1
  6
CENTER
 62
     0
100
AcDbLine
 10
498.0169818321011
 20
353.8870591853814
 30
0.0
 11
524.2547589882024
 21
353.8870591853814
 31
0.0
  0
LINE
  5
94F
330
1B
100
AcDbEntity
  8
0
  6
CONTINUOUS
 62
     0
100
AcDbLine
 10
517.9049782193512
 20
359.8182630661552
 30
0.0
 11
512.7602877595511
 21
362.7392492123549
 31
0.0
  0
LINE
  5
950
330
1B
100
AcDbEntity
  8
0
  6
CONTINUOUS
 62
     0
100
AcDbLine
 10
512.8878897399513
 20
345.0592379217553
 30
0.0
 11
517.989883178151
 21
348.0541774815549
 31
0.0
  0
CIRCLE
  5
951
330
1B
100
AcDbEntity
  8
0
  6
CONTINUOUS
 62
     0
100
AcDbCircle
 10
511.1358704101512
 20
353.8870591859552
 30
0.0
 40
6.5
  0
CIRCLE
  5
952
330
1B
100
AcDbEntity
  8
0
  6
CONTINUOUS
 62
     0
100
AcDbCircle
 10
511.1358704101512
 20
353.8870591859552
 30
0.0
 40
9.0
  0
CIRCLE
  5
953
330
1B
100
AcDbEntity
  8
0
  6
CONTINUOUS
 62
     0
100
AcDbCircle
 10
511.1358704101512
 20
353.8870591859552
 30
0.0
 40
5.0
  0
CIRCLE
  5
954
330
1B
100
AcDbEntity
  8
0
  6
CONTINUOUS
 62
     0
100
AcDbCircle
 10
511.1358704101512
 20
353.8870591859552
 30
0.0
 40
4.0
  0
LINE
  5
955
330
1B
100
AcDbEntity
  8
0
  6
CONTINUOUS
 62
     0
100
AcDbLine
 10
509.3838510801512
 20
362.7148804499551
 30
0.0
 11
504.281857641951
 21
359.7199408903552
 31
0.0
  0
LINE
  5
956
330
1B
100
AcDbEntity
  8
0
  6
CONTINUOUS
 62
     0
100
AcDbLine
 10
504.366762600751
 20
347.9558553055551
 30
0.0
 11
509.5114530605512
 21
345.0348691595552
 31
0.0
  0
LINE
  5
957
102
{ACAD_REACTORS
330
924
102
}
330
1B
100
AcDbEntity
  8
DEFAULT_1
  6
CENTER
 62
     0
100
AcDbLine
 10
511.1358704101512
 20
367.0059477634318
 30
0.0
 11
511.1358704101512
 21
340.7681706073304
 31
0.0
  0
LINE
  5
958
330
1B
100
AcDbEntity
  8
0
  6
CONTINUOUS
 62
     0
100
AcDbLine
 10
502.6147432709509
 20
356.7836765697552
 30
0.0
 11
502.6574402925511
 21
350.8677508639552
 31
0.0
  0
LINE
  5
959
330
1B
100
AcDbEntity
  8
0
  6
CONTINUOUS
 62
     0
100
AcDbLine
 10
519.6569975491511
 20
350.990441802155
 30
0.0
 11
519.6143005277512
 21
356.9063675079549
 31
0.0
  0
LINE
  5
95A
330
1B
100
AcDbEntity
  8
DEFAULT_1
  6
CENTER
 62
     0
100
AcDbLine
 10
531.7050739206022
 20
410.3736370055737
 30
0.0
 11
536.7051739206021
 21
410.3736370055737
 31
0.0
  0
LINE
  5
95B
330
1B
100
AcDbEntity
  8
DEFAULT_1
  6
CENTER
 62
     0
100
AcDbLine
 10
531.7050739206022
 20
410.3736370055737
 30
0.0
 11
526.7049739206022
 21
410.3736370055737
 31
0.0
  0
LINE
  5
95C
330
1B
100
AcDbEntity
  8
0
  6
CONTINUOUS
 62
     0
100
AcDbLine
 10
525.7528820924021
 20
409.6737228785737
 30
0.0
 11
525.7487348784023
 21
407.0628897323738
 31
0.0
  0
LINE
  5
95D
330
1B
100
AcDbEntity
  8
0
  6
CONTINUOUS
 62
     0
100
AcDbLine
 10
537.6614129626022
 20
407.0628897323738
 30
0.0
 11
537.6572657486021
 21
409.6737228793739
 31
0.0
  0
CIRCLE
  5
95E
330
1B
100
AcDbEntity
  8
0
  6
CONTINUOUS
 62
     0
100
AcDbCircle
 10
531.7050739206022
 20
410.3736370055737
 30
0.0
 40
2.399999999999999
  0
CIRCLE
  5
95F
330
1B
100
AcDbEntity
  8
0
  6
CONTINUOUS
 62
     0
100
AcDbCircle
 10
531.7050739206022
 20
410.3736370055737
 30
0.0
 40
5.986330377799998
  0
LWPOLYLINE
  5
960
330
1B
100
AcDbEntity
  8
0
  6
CONTINUOUS
 62
     0
100
AcDbPolyline
 90
        6
 70
     0
 43
0.0
 10
525.7487348784023
 20
407.0628897323738
 10
525.6224316120023
 20
406.2016179177737
 10
525.2544703764022
 20
405.4135730907737
 10
524.6758578992023
 20
404.7646632441736
 10
523.9349822404023
 20
404.3091479403738
 10
523.0947320566023
 20
404.0854530559738
  0
LINE
  5
961
330
1B
100
AcDbEntity
  8
DEFAULT_1
  6
CENTER
 62
     0
100
AcDbLine
 10
531.7050739206022
 20
410.3736370055737
 30
0.0
 11
531.7050739206022
 21
405.3735370055736
 31
0.0
  0
LWPOLYLINE
  5
962
330
1B
100
AcDbEntity
  8
0
  6
CONTINUOUS
 62
     0
100
AcDbPolyline
 90
        6
 70
     0
 43
0.0
 10
540.3154157844023
 20
404.0854530559738
 10
539.4742683520023
 20
404.3095320777736
 10
538.7335327678022
 20
404.7652967425737
 10
538.1551350262022
 20
405.4143977067737
 10
537.7874372466023
 20
406.2025537121737
 10
537.6614129626022
 20
407.0628897323738
  0
LINE
  5
963
330
1B
100
AcDbEntity
  8
0
  6
CONTINUOUS
 62
     0
100
AcDbLine
 10
596.0420809204024
 20
368.3190214153738
 30
0.0
 11
599.2859675496021
 21
370.5904153267738
 31
0.0
  0
LWPOLYLINE
  5
964
330
1B
100
AcDbEntity
  8
0
  6
CONTINUOUS
 62
     0
100
AcDbPolyline
 90
        3
 70
     0
 43
0.0
 10
596.6345844654024
 20
368.7338968439738
 10
596.3753206048024
 20
368.4685142917737
 10
596.2302103480022
 20
368.1255502111738
  0
CIRCLE
  5
965
330
1B
100
AcDbEntity
  8
0
  6
CONTINUOUS
 62
     0
100
AcDbCircle
 10
596.4180854196022
 20
374.6861754775739
 30
0.0
 40
1.5
  0
LINE
  5
966
330
1B
100
AcDbEntity
  8
0
  6
CONTINUOUS
 62
     0
100
AcDbLine
 10
593.5502032700023
 20
378.7819357569738
 30
0.0
 11
590.3063166410024
 21
376.5105418455736
 31
0.0
  0
LINE
  5
967
330
1B
100
AcDbEntity
  8
0
  6
CONTINUOUS
 62
     0
100
AcDbLine
 10
590.0365862690023
 20
376.8045895103738
 30
0.0
 11
590.1914290974023
 21
376.7531478135737
 31
0.0
  0
LINE
  5
968
330
1B
100
AcDbEntity
  8
0
  6
CONTINUOUS
 62
     0
100
AcDbLine
 10
590.1914290974023
 20
376.7531478135737
 30
0.0
 11
590.5625007326023
 21
376.7729763899737
 31
0.0
  0
ARC
  5
969
330
1B
100
AcDbEntity
  8
0
  6
CONTINUOUS
 62
     0
100
AcDbCircle
 10
596.4180854196022
 20
374.6861754775739
 30
0.0
 40
5.0
100
AcDbArc
 50
304.9999999780981
 51
124.999999316802
  0
LINE
  5
96A
330
1B
100
AcDbEntity
  8
0
  6
CONTINUOUS
 62
     0
100
AcDbLine
 10
786.2438063184749
 20
109.3003242851142
 30
0.0
 11
785.9611586644748
 21
101.206354482114
 31
0.0
  0
LINE
  5
96B
330
1B
100
AcDbEntity
  8
0
  6
CONTINUOUS
 62
     0
100
AcDbLine
 10
801.8837826460746
 20
156.8003242851142
 30
0.0
 11
730.9977090434749
 21
156.8003242851142
 31
0.0
  0
LINE
  5
96C
330
1B
100
AcDbEntity
  8
0
  6
CONTINUOUS
 62
     0
100
AcDbLine
 10
798.782866745275
 20
114.0386445041141
 30
0.0
 11
726.497709051275
 21
114.0386445041141
 31
0.0
  0
LINE
  5
96D
330
1B
100
AcDbEntity
  8
0
  6
CONTINUOUS
 62
     0
100
AcDbLine
 10
730.9977090434749
 20
156.3003242851142
 30
0.0
 11
730.9977090434749
 21
161.8003242851142
 31
0.0
  0
LINE
  5
96E
330
1B
100
AcDbEntity
  8
0
  6
CONTINUOUS
 62
     0
100
AcDbLine
 10
720.9977090434749
 20
161.8003242851142
 30
0.0
 11
720.9977090434749
 21
156.3003242851142
 31
0.0
  0
LINE
  5
96F
330
1B
100
AcDbEntity
  8
0
  6
CONTINUOUS
 62
     0
100
AcDbLine
 10
725.4977090434749
 20
111.8918292155141
 30
0.0
 11
725.4977090434749
 21
146.3003242851142
 31
0.0
  0
LINE
  5
970
330
1B
100
AcDbEntity
  8
0
  6
CONTINUOUS
 62
     0
100
AcDbLine
 10
726.4977090434749
 20
111.8918292155141
 30
0.0
 11
726.4977090434749
 21
146.3003242851142
 31
0.0
  0
LWPOLYLINE
  5
971
330
1B
100
AcDbEntity
  8
0
  6
CONTINUOUS
 62
     0
100
AcDbPolyline
 90
        4
 70
     0
 43
0.0
 10
726.4977090434749
 20
111.8918292065142
 10
726.3312811432747
 20
111.8898974067141
 10
726.1646229778746
 20
111.8887370905141
 10
725.9977090434749
 20
111.888349879514
  0
LWPOLYLINE
  5
972
330
1B
100
AcDbEntity
  8
0
  6
CONTINUOUS
 62
     0
100
AcDbPolyline
 90
        3
 70
     0
 43
0.0
 10
725.9977090434749
 20
111.888349879514
 10
725.8305547340748
 20
111.8893172731139
 10
725.663885172876
 20
111.8893172731139
  0
LINE
  5
973
330
1B
100
AcDbEntity
  8
0
  6
CONTINUOUS
 62
     0
100
AcDbLine
 10
725.663885172876
 20
111.8893172731139
 30
0.0
 11
725.4977090434749
 21
111.8918292065142
 31
0.0
  0
LINE
  5
974
330
1B
100
AcDbEntity
  8
0
  6
CONTINUOUS
 62
     0
100
AcDbLine
 10
731.8153454926748
 20
150.3526602523141
 30
0.0
 11
728.7977090434749
 21
150.3526602523141
 31
0.0
  0
LINE
  5
975
330
1B
100
AcDbEntity
  8
0
  6
CONTINUOUS
 62
     0
100
AcDbLine
 10
725.4977090434749
 20
146.3003242851142
 30
0.0
 11
726.4977090434749
 21
146.3003242851142
 31
0.0
  0
ARC
  5
976
330
1B
100
AcDbEntity
  8
0
  6
CONTINUOUS
 62
     0
100
AcDbCircle
 10
728.5277090428746
 20
149.903825820514
 30
0.0
 40
0.2700000006
100
AcDbArc
 50
302.3360258490027
 51
359.9999994874049
  0
LINE
  5
977
330
1B
100
AcDbEntity
  8
0
  6
CONTINUOUS
 62
     0
100
AcDbLine
 10
728.7977090434749
 20
151.3003242851142
 30
0.0
 11
728.7977090434749
 21
149.9038258181141
 31
0.0
  0
LINE
  5
978
330
1B
100
AcDbEntity
  8
0
  6
CONTINUOUS
 62
     0
100
AcDbLine
 10
724.6851484510748
 20
149.075700610714
 30
0.0
 11
724.6913774330749
 21
149.0881940163141
 31
0.0
  0
LINE
  5
979
330
1B
100
AcDbEntity
  8
0
  6
CONTINUOUS
 62
     0
100
AcDbLine
 10
725.6277090434751
 20
148.9461194059141
 30
0.0
 11
725.6277090434751
 21
149.0881940163141
 31
0.0
  0
LINE
  5
97A
330
1B
100
AcDbEntity
  8
0
  6
CONTINUOUS
 62
     0
100
AcDbLine
 10
726.367709043475
 20
149.0881940163141
 30
0.0
 11
726.367709043475
 21
148.9461194059141
 31
0.0
  0
LINE
  5
97B
330
1B
100
AcDbEntity
  8
0
  6
CONTINUOUS
 62
     0
100
AcDbLine
 10
727.3040406536749
 20
149.0881940163141
 30
0.0
 11
727.3102696356747
 21
149.075700610714
 31
0.0
  0
LINE
  5
97C
330
1B
100
AcDbEntity
  8
0
  6
CONTINUOUS
 62
     0
100
AcDbLine
 10
726.2437975590748
 20
149.081225777914
 30
0.0
 11
726.367709043475
 21
149.0881940163141
 31
0.0
  0
LINE
  5
97D
330
1B
100
AcDbEntity
  8
0
  6
CONTINUOUS
 62
     0
100
AcDbLine
 10
726.1214256040751
 20
149.0770935629142
 30
0.0
 11
726.2437975590748
 21
149.081225777914
 31
0.0
  0
LINE
  5
97E
330
1B
100
AcDbEntity
  8
0
  6
CONTINUOUS
 62
     0
100
AcDbLine
 10
725.9977090434749
 20
149.075683173114
 30
0.0
 11
726.1214256040751
 21
149.0770935629142
 31
0.0
  0
LINE
  5
97F
330
1B
100
AcDbEntity
  8
0
  6
CONTINUOUS
 62
     0
100
AcDbLine
 10
725.4329489104748
 20
148.9461194051142
 30
0.0
 11
725.6277090432747
 21
148.9461194051142
 31
0.0
  0
LINE
  5
980
330
1B
100
AcDbEntity
  8
0
  6
CONTINUOUS
 62
     0
100
AcDbLine
 10
726.367709043475
 20
148.9461194051142
 30
0.0
 11
726.562469176275
 21
148.9461194051142
 31
0.0
  0
LINE
  5
981
330
1B
100
AcDbEntity
  8
0
  6
CONTINUOUS
 62
     0
100
AcDbLine
 10
725.8739924826747
 20
149.0770935629142
 30
0.0
 11
725.9977090434749
 21
149.075683173114
 31
0.0
  0
LINE
  5
982
330
1B
100
AcDbEntity
  8
0
  6
CONTINUOUS
 62
     0
100
AcDbLine
 10
725.7516205282747
 20
149.081225777914
 30
0.0
 11
725.8739924826747
 21
149.0770935629142
 31
0.0
  0
LINE
  5
983
330
1B
100
AcDbEntity
  8
0
  6
CONTINUOUS
 62
     0
100
AcDbLine
 10
725.6277090434751
 20
149.0881940163141
 30
0.0
 11
725.7516205282747
 21
149.081225777914
 31
0.0
  0
ARC
  5
984
330
1B
100
AcDbEntity
  8
0
  6
CONTINUOUS
 62
     0
100
AcDbCircle
 10
725.9977090434749
 20
153.9003242851141
 30
0.0
 40
5.0
100
AcDbArc
 50
237.6639734339983
 51
254.7206079149988
  0
ARC
  5
985
330
1B
100
AcDbEntity
  8
0
  6
CONTINUOUS
 62
     0
100
AcDbCircle
 10
725.9977090434749
 20
153.9003242851141
 30
0.0
 40
4.986291206799998
100
AcDbArc
 50
276.5034226030024
 51
285.1878551629024
  0
ARC
  5
986
330
1B
100
AcDbEntity
  8
0
  6
CONTINUOUS
 62
     0
100
AcDbCircle
 10
723.4677090438747
 20
149.903825820514
 30
0.0
 40
0.2700000006
100
AcDbArc
 50
180.0
 51
237.6639741509973
  0
ARC
  5
987
330
1B
100
AcDbEntity
  8
0
  6
CONTINUOUS
 62
     0
100
AcDbCircle
 10
725.9977090434749
 20
153.9003242851141
 30
0.0
 40
4.986291206799998
100
AcDbArc
 50
254.8121448370975
 51
263.4965773969975
  0
LINE
  5
988
330
1B
100
AcDbEntity
  8
0
  6
CONTINUOUS
 62
     0
100
AcDbLine
 10
723.197709043475
 20
151.3003242851142
 30
0.0
 11
723.197709043475
 21
149.9038258181141
 31
0.0
  0
LINE
  5
989
330
1B
100
AcDbEntity
  8
0
  6
CONTINUOUS
 62
     0
100
AcDbLine
 10
723.323290439675
 20
149.6756958859142
 30
0.0
 11
728.6721276472746
 21
149.6756958859142
 31
0.0
  0
LINE
  5
98A
330
1B
100
AcDbEntity
  8
0
  6
CONTINUOUS
 62
     0
100
AcDbLine
 10
728.7977090434749
 20
149.9038258181141
 30
0.0
 11
723.197709043475
 21
149.9038258181141
 31
0.0
  0
ARC
  5
98B
330
1B
100
AcDbEntity
  8
0
  6
CONTINUOUS
 62
     0
100
AcDbCircle
 10
725.9977090434749
 20
153.9003242851141
 30
0.0
 40
5.0
100
AcDbArc
 50
285.2793920850011
 51
302.3360265660016
  0
LINE
  5
98C
330
1B
100
AcDbEntity
  8
0
  6
CONTINUOUS
 62
     0
100
AcDbLine
 10
730.9155788478747
 20
151.5950885639141
 30
0.0
 11
730.9977090434749
 21
156.3003242851142
 31
0.0
  0
LINE
  5
98D
330
1B
100
AcDbEntity
  8
0
  6
CONTINUOUS
 62
     0
100
AcDbLine
 10
730.957243218475
 20
151.5279608709141
 30
0.0
 11
730.9155751296748
 21
151.5948754893141
 31
0.0
  0
LWPOLYLINE
  5
98E
330
1B
100
AcDbEntity
  8
7_ALL_FEATURES
  6
CONTINUOUS
 62
     0
100
AcDbPolyline
 90
        8
 70
     0
 43
0.0
 10
730.6159519578748
 20
151.300160739314
 10
730.6813869124749
 20
151.3074563787141
 10
730.7446004044748
 20
151.3292966865141
 10
730.8005800828746
 20
151.3639498919141
 10
730.8483133054749
 20
151.4107891371141
 10
730.8840151890758
 20
151.4661004245141
 10
730.9070399060747
 20
151.5288832031141
 10
730.9155751374748
 20
151.5948759673141
  0
LINE
  5
98F
330
1B
100
AcDbEntity
  8
7_ALL_FEATURES
  6
CONTINUOUS
 62
     0
100
AcDbLine
 10
730.6156245394747
 20
151.3003242851142
 30
0.0
 11
730.6159519574748
 21
151.3001607401141
 31
0.0
  0
ARC
  5
990
330
1B
100
AcDbEntity
  8
0
  6
CONTINUOUS
 62
     0
100
AcDbCircle
 10
730.6156245400748
 20
151.600324281714
 30
0.0
 40
0.2999999998
100
AcDbArc
 50
270.0000000106955
 51
359.0000006190054
  0
LINE
  5
991
330
1B
100
AcDbEntity
  8
0
  6
CONTINUOUS
 62
     0
100
AcDbLine
 10
731.4236413100748
 20
150.661249496114
 30
0.0
 11
731.8153455146748
 21
150.352660241114
 31
0.0
  0
LINE
  5
992
330
1B
100
AcDbEntity
  8
0
  6
CONTINUOUS
 62
     0
100
AcDbLine
 10
731.9181172108748
 20
156.300324280114
 30
0.0
 11
731.8153455064748
 21
150.3526606183139
 31
0.0
  0
LWPOLYLINE
  5
993
330
1B
100
AcDbEntity
  8
0
  6
CONTINUOUS
 62
     0
100
AcDbPolyline
 90
        5
 70
     0
 43
0.0
 10
731.8153455064748
 20
150.3526606183139
 10
731.5187818156746
 20
150.7522620961141
 10
731.2719776334749
 20
151.0885160423141
 10
731.0808510496749
 20
151.3525295465141
 10
730.957243218475
 20
151.5279608709141
  0
LWPOLYLINE
  5
994
330
1B
100
AcDbEntity
  8
0
  6
CONTINUOUS
 62
     0
100
AcDbPolyline
 90
        4
 70
     0
 43
0.0
 10
730.6120150316746
 20
151.3003242839139
 10
730.6757219784749
 20
151.252089640314
 10
730.842592344075
 20
151.119969886114
 10
731.4236413100748
 20
150.661249496114
  0
LINE
  5
995
330
1B
100
AcDbEntity
  8
0
  6
CONTINUOUS
 62
     0
100
AcDbLine
 10
721.1488632692748
 20
151.1167978949141
 30
0.0
 11
721.3185525042747
 21
151.251191643514
 31
0.0
  0
LINE
  5
996
330
1B
100
AcDbEntity
  8
0
  6
CONTINUOUS
 62
     0
100
AcDbLine
 10
721.3185525042747
 20
151.251191643514
 30
0.0
 11
721.3834404486749
 21
151.3003242839139
 31
0.0
  0
LINE
  5
997
330
1B
100
AcDbEntity
  8
7_ALL_FEATURES
  6
CONTINUOUS
 62
     0
100
AcDbLine
 10
721.3794661294748
 20
151.3001607401141
 30
0.0
 11
721.3797935474749
 21
151.3003242851142
 31
0.0
  0
LINE
  5
998
330
1B
100
AcDbEntity
  8
0
  6
CONTINUOUS
 62
     0
100
AcDbLine
 10
720.9977090434749
 20
156.3003242851142
 30
0.0
 11
721.0798392388746
 21
151.5950885639141
 31
0.0
  0
LWPOLYLINE
  5
999
330
1B
100
AcDbEntity
  8
7_ALL_FEATURES
  6
CONTINUOUS
 62
     0
100
AcDbPolyline
 90
        8
 70
     0
 43
0.0
 10
721.0798429498748
 20
151.5948759541141
 10
721.0882087720749
 20
151.5295797073141
 10
721.1110833642749
 20
151.466742093114
 10
721.1466529444747
 20
151.411345658514
 10
721.194274078475
 20
151.364392495314
 10
721.2501707706747
 20
151.329605633514
 10
721.3133318802749
 20
151.307614348714
 10
721.3794661428746
 20
151.3001607397139
  0
ARC
  5
99A
330
1B
100
AcDbEntity
  8
0
  6
CONTINUOUS
 62
     0
100
AcDbCircle
 10
721.3797935468749
 20
151.600324281714
 30
0.0
 40
0.2999999998
100
AcDbArc
 50
180.9999993886949
 51
270.0
  0
LINE
  5
99B
330
1B
100
AcDbEntity
  8
0
  6
CONTINUOUS
 62
     0
100
AcDbLine
 10
720.4774971588747
 20
150.753415545114
 30
0.0
 11
720.1800725894748
 21
150.352660085714
 31
0.0
  0
LWPOLYLINE
  5
99C
330
1B
100
AcDbEntity
  8
0
  6
CONTINUOUS
 62
     0
100
AcDbPolyline
 90
        3
 70
     0
 43
0.0
 10
720.1800725722746
 20
150.352660241114
 10
720.5694450138748
 20
150.6594059257141
 10
721.1488632692748
 20
151.1167978949141
  0
LWPOLYLINE
  5
99D
330
1B
100
AcDbEntity
  8
0
  6
CONTINUOUS
 62
     0
100
AcDbPolyline
 90
        5
 70
     0
 43
0.0
 10
721.0798429488748
 20
151.5948759665142
 10
721.0384590258749
 20
151.5283805165141
 10
720.9154822468749
 20
151.3538063227141
 10
720.7246212414747
 20
151.090145326914
 10
720.4774971588747
 20
150.753415545114
  0
LINE
  5
99E
330
1B
100
AcDbEntity
  8
0
  6
CONTINUOUS
 62
     0
100
AcDbLine
 10
720.1800725894748
 20
150.352660085714
 30
0.0
 11
720.0773008672747
 21
156.3003247805139
 31
0.0
  0
LINE
  5
99F
330
1B
100
AcDbEntity
  8
0
  6
CONTINUOUS
 62
     0
100
AcDbLine
 10
730.6156245400748
 20
151.3003242819139
 30
0.0
 11
721.3797935468749
 21
151.3003242819139
 31
0.0
  0
LINE
  5
9A0
330
1B
100
AcDbEntity
  8
0
  6
CONTINUOUS
 62
     0
100
AcDbLine
 10
730.915578848475
 20
151.595088563114
 30
0.0
 11
721.079839238475
 21
151.595088563114
 31
0.0
  0
LINE
  5
9A1
330
1B
100
AcDbEntity
  8
0
  6
CONTINUOUS
 62
     0
100
AcDbLine
 10
723.197709043475
 20
150.3526602523141
 30
0.0
 11
720.1800725806747
 21
150.3526602523141
 31
0.0
  0
LINE
  5
9A2
330
1B
100
AcDbEntity
  8
0
  6
CONTINUOUS
 62
     0
100
AcDbLine
 10
786.3308409904748
 20
156.8003242851142
 30
0.0
 11
786.3398526352748
 21
157.500324285114
 31
0.0
  0
LINE
  5
9A3
330
1B
100
AcDbEntity
  8
0
  6
CONTINUOUS
 62
     0
100
AcDbLine
 10
786.3398526352748
 20
157.500324285114
 30
0.0
 11
786.394868706275
 21
161.8003242851142
 31
0.0
  0
LINE
  5
9A4
330
1B
100
AcDbEntity
  8
0
  6
CONTINUOUS
 62
     0
100
AcDbLine
 10
799.9977090434749
 20
156.3003242851142
 30
0.0
 11
799.9977090434749
 21
156.8003242851142
 31
0.0
  0
LINE
  5
9A5
330
1B
100
AcDbEntity
  8
0
  6
CONTINUOUS
 62
     0
100
AcDbLine
 10
798.7828682574749
 20
114.0386445041141
 30
0.0
 11
800.997709043475
 21
156.3003242851142
 31
0.0
  0
ARC
  5
9A6
330
1B
100
AcDbEntity
  8
0
  6
CONTINUOUS
 62
     0
100
AcDbCircle
 10
793.789720583075
 20
114.3003242855139
 30
0.0
 40
5.0000000004
100
AcDbArc
 50
270.0000000025924
 51
356.9999999972941
  0
LINE
  5
9A7
330
1B
100
AcDbEntity
  8
0
  6
CONTINUOUS
 62
     0
100
AcDbLine
 10
792.6492997002749
 20
161.8003242851142
 30
0.0
 11
802.1320971282747
 21
161.8003242851142
 31
0.0
  0
LINE
  5
9A8
330
1B
100
AcDbEntity
  8
0
  6
CONTINUOUS
 62
     0
100
AcDbLine
 10
793.167597221676
 20
161.8003242851142
 30
0.0
 11
793.2767495784749
 21
156.8003242851142
 31
0.0
  0
LINE
  5
9A9
330
1B
100
AcDbEntity
  8
0
  6
CONTINUOUS
 62
     0
100
AcDbLine
 10
801.883801093475
 20
156.8003242851142
 30
0.0
 11
802.1021058082746
 21
161.8003242851142
 31
0.0
  0
LINE
  5
9AA
330
1B
100
AcDbEntity
  8
0
  6
CONTINUOUS
 62
     0
100
AcDbLine
 10
802.1320971282747
 20
161.8003242851142
 30
0.0
 11
802.1320971282747
 21
162.8003242851142
 31
0.0
  0
LINE
  5
9AB
330
1B
100
AcDbEntity
  8
0
  6
CONTINUOUS
 62
     0
100
AcDbLine
 10
790.3004060118749
 20
161.800324282514
 30
0.0
 11
790.2408263524757
 21
156.8003242851142
 31
0.0
  0
LINE
  5
9AC
330
1B
100
AcDbEntity
  8
0
  6
CONTINUOUS
 62
     0
100
AcDbLine
 10
790.1594363724748
 20
161.8003242851142
 30
0.0
 11
790.1594363724748
 21
162.8003242851142
 31
0.0
  0
LINE
  5
9AD
330
1B
100
AcDbEntity
  8
0
  6
CONTINUOUS
 62
     0
100
AcDbLine
 10
790.1594363724748
 20
162.8003242851142
 30
0.0
 11
802.1320971282747
 21
162.8003242851142
 31
0.0
  0
ENDSEC
  0
SECTION
  2
OBJECTS
  0
DICTIONARY
  5
570
330
0
100
AcDbDictionary
  3
ACAD_GROUP
350
571
  3
ACAD_LAYOUT
350
579
  3
ACAD_MLINESTYLE
350
572
  3
ACAD_PLOTSETTINGS
350
57A
  3
ACAD_PLOTSTYLENAME
350
577
  3
ACDBHEADERROUNDTRIPXREC
350
ED2
  3
ACDBVARIABLEDICTIONARY
350
59B
  0
DICTIONARY
  5
5F0
330
2
100
AcDbDictionary
280
     1
  3
ACAD_LAYERFILTERS
360
5F1
  0
DICTIONARY
  5
5C5
330
1B
100
AcDbDictionary
280
     1
  3
ACAD_LAYOUTSELFREF
360
EF2
  0
DICTIONARY
  5
5C7
330
1C
100
AcDbDictionary
280
     1
  3
ACAD_LAYOUTSELFREF
360
EF3
  0
DICTIONARY
  5
920
330
91F
100
AcDbDictionary
280
     1
  3
ACAD_DIMASSOC
360
921
  0
DICTIONARY
  5
923
330
922
100
AcDbDictionary
280
     1
  3
ACAD_DIMASSOC
360
924
  0
DICTIONARY
  5
571
102
{ACAD_REACTORS
330
570
102
}
330
570
100
AcDbDictionary
  0
DICTIONARY
  5
579
102
{ACAD_REACTORS
330
570
102
}
330
570
100
AcDbDictionary
  0
DICTIONARY
  5
572
102
{ACAD_REACTORS
330
570
102
}
330
570
100
AcDbDictionary
  3
STANDARD
350
573
  0
DICTIONARY
  5
57A
102
{ACAD_REACTORS
330
570
102
}
330
570
100
AcDbDictionary
  0
ACDBDICTIONARYWDFLT
  5
577
102
{ACAD_REACTORS
330
570
102
}
330
570
100
AcDbDictionary
281
     1
  3
Normal
350
578
100
AcDbDictionaryWithDefault
340
578
  0
DICTIONARY
  5
ED2
102
{ACAD_REACTORS
330
570
102
}
330
570
100
AcDbDictionary
  3
CEPSNTYPE
350
EDC
  3
FINGERPRINTGUID
350
EDD
  3
HYPERLINKBASE
350
ED5
  3
INSUNITS
350
EDB
  3
LAYOUTDICT
350
ED7
  3
LWETCUNION
350
EDA
  3
PLOTSETDICT
350
ED8
  3
PLOTSTYLNAMDICT
350
ED9
  3
PSVPSCALE
350
EDF
  3
PUCSBASE
350
EE2
  3
PUCSORGBACK
350
EE8
  3
PUCSORGBOTTOM
350
EE4
  3
PUCSORGFRONT
350
EE7
  3
PUCSORGLEFT
350
EE5
  3
PUCSORGRIGHT
350
EE6
  3
PUCSORGTOP
350
EE3
  3
PUCSORTHOREF
350
EE0
  3
PUCSORTHOVIEW
350
EE1
  3
STYLESHEET
350
ED6
  3
TSTACKALIGN
350
ED3
  3
TSTACKSIZE
350
ED4
  3
UCSBASE
350
EEB
  3
UCSORGBACK
350
EF1
  3
UCSORGBOTTOM
350
EED
  3
UCSORGFRONT
350
EF0
  3
UCSORGLEFT
350
EEE
  3
UCSORGRIGHT
350
EEF
  3
UCSORGTOP
350
EEC
  3
UCSORTHOREF
350
EE9
  3
UCSORTHOVIEW
350
EEA
  3
VERSIONGUID
350
EDE
  0
DICTIONARY
  5
59B
102
{ACAD_REACTORS
330
570
102
}
330
570
100
AcDbDictionary
  3
DIMASSOC
350
59C
  0
DICTIONARY
  5
5F1
102
{ACAD_REACTORS
330
5F0
102
}
330
5F0
100
AcDbDictionary
280
     1
  3
ロック
360
5F2
  3
ロック解除
360
5F3
  3
案1
360
5F4
  3
案2
360
5F5
  0
XRECORD
  5
EF2
102
{ACAD_REACTORS
330
5C5
102
}
330
5C5
100
AcDbXrecord
340
1B
  0
XRECORD
  5
EF3
102
{ACAD_REACTORS
330
5C7
102
}
330
5C7
100
AcDbXrecord
340
1C
  0
DIMASSOC
  5
921
102
{ACAD_REACTORS
330
920
102
}
330
920
100
AcDbDimAssoc
330
91F
 90
        1
 70
     0
 71
     0
  1
AcDbOsnapPointRef
 72
    13
331
94E
 73
     2
 91
        0
 40
0.0
 10
498.0169818321011
 20
353.8870591853814
 30
0.0
 75
     0
  0
DIMASSOC
  5
924
102
{ACAD_REACTORS
330
923
102
}
330
923
100
AcDbDimAssoc
330
922
 90
        2
 70
     0
 71
     0
  1
AcDbOsnapPointRef
 72
    13
331
957
 73
     2
 91
        0
 40
0.0
 10
511.1358704101512
 20
367.0059477634318
 30
0.0
 75
     0
  0
MLINESTYLE
  5
573
102
{ACAD_REACTORS
330
572
102
}
330
572
100
AcDbMlineStyle
  2
STANDARD
 70
     0
  3

 62
   256
 51
90.0
 52
90.0
 71
     2
 49
0.5
 62
   256
  6
BYLAYER
 49
-0.5
 62
   256
  6
BYLAYER
  0
ACDBPLACEHOLDER
  5
578
102
{ACAD_REACTORS
330
577
102
}
330
577
100
AcDbPlaceHolder
280
     0
  0
XRECORD
  5
EDC
102
{ACAD_REACTORS
330
ED2
102
}
330
ED2
100
AcDbXrecord
 90
        0
  0
XRECORD
  5
EDD
102
{ACAD_REACTORS
330
ED2
102
}
330
ED2
100
AcDbXrecord
  1
{3FF9E7A8-F89A-41F2-BCF7-E77F7296E7C1}
  0
XRECORD
  5
ED5
102
{ACAD_REACTORS
330
ED2
102
}
330
ED2
100
AcDbXrecord
  1

  0
XRECORD
  5
EDB
102
{ACAD_REACTORS
330
ED2
102
}
330
ED2
100
AcDbXrecord
 90
        0
  0
XRECORD
  5
ED7
102
{ACAD_REACTORS
330
ED2
102
}
330
ED2
100
AcDbXrecord
340
579
  0
XRECORD
  5
EDA
102
{ACAD_REACTORS
330
ED2
102
}
330
ED2
100
AcDbXrecord
 90
    10781
  0
XRECORD
  5
ED8
102
{ACAD_REACTORS
330
ED2
102
}
330
ED2
100
AcDbXrecord
340
57A
  0
XRECORD
  5
ED9
102
{ACAD_REACTORS
330
ED2
102
}
330
ED2
100
AcDbXrecord
340
577
  0
XRECORD
  5
EDF
102
{ACAD_REACTORS
330
ED2
102
}
330
ED2
100
AcDbXrecord
 40
0.0
  0
XRECORD
  5
EE2
102
{ACAD_REACTORS
330
ED2
102
}
330
ED2
100
AcDbXrecord
340
0
  0
XRECORD
  5
EE8
102
{ACAD_REACTORS
330
ED2
102
}
330
ED2
100
AcDbXrecord
 10
0.0
 20
0.0
 30
0.0
  0
XRECORD
  5
EE4
102
{ACAD_REACTORS
330
ED2
102
}
330
ED2
100
AcDbXrecord
 10
0.0
 20
0.0
 30
0.0
  0
XRECORD
  5
EE7
102
{ACAD_REACTORS
330
ED2
102
}
330
ED2
100
AcDbXrecord
 10
0.0
 20
0.0
 30
0.0
  0
XRECORD
  5
EE5
102
{ACAD_REACTORS
330
ED2
102
}
330
ED2
100
AcDbXrecord
 10
0.0
 20
0.0
 30
0.0
  0
XRECORD
  5
EE6
102
{ACAD_REACTORS
330
ED2
102
}
330
ED2
100
AcDbXrecord
 10
0.0
 20
0.0
 30
0.0
  0
XRECORD
  5
EE3
102
{ACAD_REACTORS
330
ED2
102
}
330
ED2
100
AcDbXrecord
 10
0.0
 20
0.0
 30
0.0
  0
XRECORD
  5
EE0
102
{ACAD_REACTORS
330
ED2
102
}
330
ED2
100
AcDbXrecord
340
0
  0
XRECORD
  5
EE1
102
{ACAD_REACTORS
330
ED2
102
}
330
ED2
100
AcDbXrecord
 70
     0
  0
XRECORD
  5
ED6
102
{ACAD_REACTORS
330
ED2
102
}
330
ED2
100
AcDbXrecord
  1
A3.ctb
  0
XRECORD
  5
ED3
102
{ACAD_REACTORS
330
ED2
102
}
330
ED2
100
AcDbXrecord
 90
        1
  0
XRECORD
  5
ED4
102
{ACAD_REACTORS
330
ED2
102
}
330
ED2
100
AcDbXrecord
 90
       70
  0
XRECORD
  5
EEB
102
{ACAD_REACTORS
330
ED2
102
}
330
ED2
100
AcDbXrecord
340
0
  0
XRECORD
  5
EF1
102
{ACAD_REACTORS
330
ED2
102
}
330
ED2
100
AcDbXrecord
 10
0.0
 20
0.0
 30
0.0
  0
XRECORD
  5
EED
102
{ACAD_REACTORS
330
ED2
102
}
330
ED2
100
AcDbXrecord
 10
0.0
 20
0.0
 30
0.0
  0
XRECORD
  5
EF0
102
{ACAD_REACTORS
330
ED2
102
}
330
ED2
100
AcDbXrecord
 10
0.0
 20
0.0
 30
0.0
  0
XRECORD
  5
EEE
102
{ACAD_REACTORS
330
ED2
102
}
330
ED2
100
AcDbXrecord
 10
0.0
 20
0.0
 30
0.0
  0
XRECORD
  5
EEF
102
{ACAD_REACTORS
330
ED2
102
}
330
ED2
100
AcDbXrecord
 10
0.0
 20
0.0
 30
0.0
  0
XRECORD
  5
EEC
102
{ACAD_REACTORS
330
ED2
102
}
330
ED2
100
AcDbXrecord
 10
0.0
 20
0.0
 30
0.0
  0
XRECORD
  5
EE9
102
{ACAD_REACTORS
330
ED2
102
}
330
ED2
100
AcDbXrecord
340
0
  0
XRECORD
  5
EEA
102
{ACAD_REACTORS
330
ED2
102
}
330
ED2
100
AcDbXrecord
 70
     0
  0
XRECORD
  5
EDE
102
{ACAD_REACTORS
330
ED2
102
}
330
ED2
100
AcDbXrecord
  1
{F22C1BC1-0304-43BC-9E27-EAA4428C04E9}
  0
DICTIONARYVAR
  5
59C
102
{ACAD_REACTORS
330
59B
102
}
330
59B
100
DictionaryVariables
280
     0
  1
1
  0
XRECORD
  5
5F2
102
{ACAD_REACTORS
330
5F1
102
}
330
5F1
100
AcDbXrecord
  1
ロック
  1
*
  1
*
  1
*
 70
   256
  1
*
  1
*
  0
XRECORD
  5
5F3
102
{ACAD_REACTORS
330
5F1
102
}
330
5F1
100
AcDbXrecord
  1
ロック解除
  1
*
  1
*
  1
*
 70
   768
  1
*
  1
*
  0
XRECORD
  5
5F4
102
{ACAD_REACTORS
330
5F1
102
}
330
5F1
100
AcDbXrecord
  1
案1
  1
*案1
  1
*
  1
*
 70
     0
  1
*
  1
*
  0
XRECORD
  5
5F5
102
{ACAD_REACTORS
330
5F1
102
}
330
5F1
100
AcDbXrecord
  1
案2
  1
*案2
  1
*
  1
*
 70
     0
  1
*
  1
*
  0
ENDSEC
  0
EOF
