  0
SECTION
  2
HEADER
  9
$ACADVER
  1
AC1015
  9
$ACADMAINTVER
 70
    13
  9
$DWGCODEPAGE
  3
ANSI_932
  9
$INSBASE
 10
0.0
 20
0.0
 30
0.0
  9
$EXTMIN
 10
354.6177393951184
 20
-7.953575548104254
 30
-0.0000000000000058
  9
$EXTMAX
 10
651.6469016846209
 20
202.0544218900448
 30
0.0000000000000104
  9
$LIMMIN
 10
354.6280422700411
 20
-7.951264792770415
  9
$LIMMAX
 10
651.6280422700409
 20
202.0487352072295
  9
$ORTHOMODE
 70
     0
  9
$REGENMODE
 70
     1
  9
$FILLMODE
 70
     1
  9
$QTEXTMODE
 70
     0
  9
$MIRRTEXT
 70
     0
  9
$LTSCALE
 40
16.335
  9
$ATTMODE
 70
     1
  9
$TEXTSIZE
 40
3.622133986672451
  9
$TRACEWID
 40
0.05
  9
$TEXTSTYLE
  7
STANDARD
  9
$CLAYER
  8
0
  9
$CELTYPE
  6
ByLayer
  9
$CECOLOR
 62
   256
  9
$CELTSCALE
 40
1.0
  9
$DISPSILH
 70
     0
  9
$DIMSCALE
 40
1.0
  9
$DIMASZ
 40
2.0
  9
$DIMEXO
 40
1.85625
  9
$DIMDLI
 40
11.286
  9
$DIMRND
 40
0.0
  9
$DIMDLE
 40
0.0
  9
$DIMEXE
 40
5.346
  9
$DIMTP
 40
0.0
  9
$DIMTM
 40
0.0
  9
$DIMTXT
 40
2.799999999999998
  9
$DIMCEN
 40
2.673
  9
$DIMTSZ
 40
0.0
  9
$DIMTOL
 70
     0
  9
$DIMLIM
 70
     0
  9
$DIMTIH
 70
     1
  9
$DIMTOH
 70
     1
  9
$DIMSE1
 70
     0
  9
$DIMSE2
 70
     0
  9
$DIMTAD
 70
     0
  9
$DIMZIN
 70
     0
  9
$DIMBLK
  1
OPEN
  9
$DIMASO
 70
     1
  9
$DIMSHO
 70
     1
  9
$DIMPOST
  1

  9
$DIMAPOST
  1

  9
$DIMALT
 70
     0
  9
$DIMALTD
 70
     2
  9
$DIMALTF
 40
25.4
  9
$DIMLFAC
 40
1.0
  9
$DIMTOFL
 70
     0
  9
$DIMTVP
 40
0.0
  9
$DIMTIX
 70
     0
  9
$DIMSOXD
 70
     0
  9
$DIMSAH
 70
     0
  9
$DIMBLK1
  1

  9
$DIMBLK2
  1

  9
$DIMSTYLE
  2
Standard
  9
$DIMCLRD
 70
     0
  9
$DIMCLRE
 70
     0
  9
$DIMCLRT
 70
     0
  9
$DIMTFAC
 40
1.0
  9
$DIMGAP
 40
0.09
  9
$DIMJUST
 70
     0
  9
$DIMSD1
 70
     0
  9
$DIMSD2
 70
     0
  9
$DIMTOLJ
 70
     1
  9
$DIMTZIN
 70
     0
  9
$DIMALTZ
 70
     0
  9
$DIMALTTZ
 70
     0
  9
$DIMUPT
 70
     0
  9
$DIMDEC
 70
     4
  9
$DIMTDEC
 70
     4
  9
$DIMALTU
 70
     2
  9
$DIMALTTD
 70
     2
  9
$DIMTXSTY
  7
STANDARD
  9
$DIMAUNIT
 70
     0
  9
$DIMADEC
 70
     0
  9
$DIMALTRND
 40
0.0
  9
$DIMAZIN
 70
     0
  9
$DIMDSEP
 70
    46
  9
$DIMATFIT
 70
     3
  9
$DIMFRAC
 70
     0
  9
$DIMLDRBLK
  1
OPEN
  9
$DIMLUNIT
 70
     2
  9
$DIMLWD
 70
    -2
  9
$DIMLWE
 70
    -2
  9
$DIMTMOVE
 70
     0
  9
$LUNITS
 70
     2
  9
$LUPREC
 70
     4
  9
$SKETCHINC
 40
0.1
  9
$FILLETRAD
 40
0.0
  9
$AUNITS
 70
     0
  9
$AUPREC
 70
     0
  9
$MENU
  1
.
  9
$ELEVATION
 40
0.0
  9
$PELEVATION
 40
0.0
  9
$THICKNESS
 40
0.0
  9
$LIMCHECK
 70
     0
  9
$CHAMFERA
 40
0.0
  9
$CHAMFERB
 40
0.0
  9
$CHAMFERC
 40
0.0
  9
$CHAMFERD
 40
0.0
  9
$SKPOLY
 70
     0
  9
$TDCREATE
 40
2455912.366256203
  9
$TDUCREATE
 40
2455911.991256203
  9
$TDUPDATE
 40
2455966.464405590
  9
$TDUUPDATE
 40
2455966.089405590
  9
$TDINDWG
 40
0.1120239468
  9
$TDUSRTIMER
 40
0.1120237731
  9
$USRTIMER
 70
     1
  9
$ANGBASE
 50
0.0
  9
$ANGDIR
 70
     0
  9
$PDMODE
 70
     3
  9
$PDSIZE
 40
8.0
  9
$PLINEWID
 40
0.0
  9
$SPLFRAME
 70
     0
  9
$SPLINETYPE
 70
     6
  9
$SPLINESEGS
 70
  1000
  9
$HANDSEED
  5
C5C
  9
$SURFTAB1
 70
     6
  9
$SURFTAB2
 70
     6
  9
$SURFTYPE
 70
     6
  9
$SURFU
 70
     6
  9
$SURFV
 70
     6
  9
$UCSBASE
  2

  9
$UCSNAME
  2

  9
$UCSORG
 10
0.0
 20
0.0
 30
0.0
  9
$UCSXDIR
 10
1.0
 20
0.0
 30
0.0
  9
$UCSYDIR
 10
0.0
 20
1.0
 30
0.0
  9
$UCSORTHOREF
  2

  9
$UCSORTHOVIEW
 70
     0
  9
$UCSORGTOP
 10
0.0
 20
0.0
 30
0.0
  9
$UCSORGBOTTOM
 10
0.0
 20
0.0
 30
0.0
  9
$UCSORGLEFT
 10
0.0
 20
0.0
 30
0.0
  9
$UCSORGRIGHT
 10
0.0
 20
0.0
 30
0.0
  9
$UCSORGFRONT
 10
0.0
 20
0.0
 30
0.0
  9
$UCSORGBACK
 10
0.0
 20
0.0
 30
0.0
  9
$PUCSBASE
  2

  9
$PUCSNAME
  2

  9
$PUCSORG
 10
0.0
 20
0.0
 30
0.0
  9
$PUCSXDIR
 10
1.0
 20
0.0
 30
0.0
  9
$PUCSYDIR
 10
0.0
 20
1.0
 30
0.0
  9
$PUCSORTHOREF
  2

  9
$PUCSORTHOVIEW
 70
     0
  9
$PUCSORGTOP
 10
0.0
 20
0.0
 30
0.0
  9
$PUCSORGBOTTOM
 10
0.0
 20
0.0
 30
0.0
  9
$PUCSORGLEFT
 10
0.0
 20
0.0
 30
0.0
  9
$PUCSORGRIGHT
 10
0.0
 20
0.0
 30
0.0
  9
$PUCSORGFRONT
 10
0.0
 20
0.0
 30
0.0
  9
$PUCSORGBACK
 10
0.0
 20
0.0
 30
0.0
  9
$USERI1
 70
     0
  9
$USERI2
 70
     0
  9
$USERI3
 70
     0
  9
$USERI4
 70
     0
  9
$USERI5
 70
     0
  9
$USERR1
 40
0.0
  9
$USERR2
 40
0.0
  9
$USERR3
 40
0.0
  9
$USERR4
 40
0.0
  9
$USERR5
 40
0.0
  9
$WORLDVIEW
 70
     1
  9
$SHADEDGE
 70
     3
  9
$SHADEDIF
 70
    70
  9
$TILEMODE
 70
     1
  9
$MAXACTVP
 70
    64
  9
$PINSBASE
 10
0.0
 20
0.0
 30
0.0
  9
$PLIMCHECK
 70
     0
  9
$PEXTMIN
 10
1.000000000000000E+20
 20
1.000000000000000E+20
 30
1.000000000000000E+20
  9
$PEXTMAX
 10
-1.000000000000000E+20
 20
-1.000000000000000E+20
 30
-1.000000000000000E+20
  9
$PLIMMIN
 10
0.0
 20
0.0
  9
$PLIMMAX
 10
12.0
 20
9.0
  9
$UNITMODE
 70
     0
  9
$VISRETAIN
 70
     1
  9
$PLINEGEN
 70
     0
  9
$PSLTSCALE
 70
     1
  9
$TREEDEPTH
 70
  3020
  9
$CMLSTYLE
  2
Standard
  9
$CMLJUST
 70
     0
  9
$CMLSCALE
 40
1.0
  9
$PROXYGRAPHICS
 70
     1
  9
$MEASUREMENT
 70
     0
  9
$CELWEIGHT
370
    -1
  9
$ENDCAPS
280
     0
  9
$JOINSTYLE
280
     0
  9
$LWDISPLAY
290
     0
  9
$INSUNITS
 70
     0
  9
$HYPERLINKBASE
  1

  9
$STYLESHEET
  1
A3.ctb
  9
$XEDIT
290
     1
  9
$CEPSNTYPE
380
     0
  9
$PSTYLEMODE
290
     1
  9
$FINGERPRINTGUID
  2
{01FC3528-9B0C-462D-A1BF-75FF60ABA1F6}
  9
$VERSIONGUID
  2
{06312EDC-9AEF-4E15-8ACE-0E50E220C9C5}
  9
$EXTNAMES
290
     1
  9
$PSVPSCALE
 40
0.0
  9
$OLESTARTUP
290
     0
  0
ENDSEC
  0
SECTION
  2
CLASSES
  0
CLASS
  1
ACDBDICTIONARYWDFLT
  2
AcDbDictionaryWithDefault
  3
AutoCAD 2000
 90
        0
280
     0
281
     0
  0
CLASS
  1
MATERIAL
  2
AcDbMaterial
  3
ObjectDBX Classes
 90
     1153
280
     0
281
     0
  0
CLASS
  1
VISUALSTYLE
  2
AcDbVisualStyle
  3
ObjectDBX Classes
 90
     4095
280
     0
281
     0
  0
CLASS
  1
SCALE
  2
AcDbScale
  3
ObjectDBX Classes
 90
     1153
280
     0
281
     0
  0
CLASS
  1
TABLESTYLE
  2
AcDbTableStyle
  3
ObjectDBX Classes
 90
     4095
280
     0
281
     0
  0
CLASS
  1
MLEADERSTYLE
  2
AcDbMLeaderStyle
  3
ACDB_MLEADERSTYLE_CLASS
 90
     4095
280
     0
281
     0
  0
CLASS
  1
SORTENTSTABLE
  2
AcDbSortentsTable
  3
AutoCAD 2000
 90
        0
280
     0
281
     0
  0
CLASS
  1
CELLSTYLEMAP
  2
AcDbCellStyleMap
  3
ObjectDBX Classes
 90
     1152
280
     0
281
     0
  0
CLASS
  1
DICTIONARYVAR
  2
AcDbDictionaryVar
  3
AutoCAD 2000
 90
        0
280
     0
281
     0
  0
CLASS
  1
ACDB_MTEXTOBJECTCONTEXTDATA_CLASS
  2
AcDbMTextObjectContextData
  3
ObjectDBX Classes
 90
    33921
280
     0
281
     0
  0
CLASS
  1
MULTILEADER
  2
AcDbMLeader
  3
ACDB_MLEADER_CLASS
 90
     1025
280
     0
281
     1
  0
CLASS
  1
ACDBPLACEHOLDER
  2
AcDbPlaceHolder
  3
AutoCAD 2000
 90
        0
280
     0
281
     0
  0
CLASS
  1
LAYOUT
  2
AcDbLayout
  3
AutoCAD 2000
 90
        0
280
     0
281
     0
  0
ENDSEC
  0
SECTION
  2
TABLES
  0
TABLE
  2
VPORT
  5
8
330
0
100
AcDbSymbolTable
 70
     4
  0
VPORT
  5
C5B
330
8
100
AcDbSymbolTableRecord
100
AcDbViewportTableRecord
  2
*Active
 70
     0
 10
0.0
 20
0.0
 11
1.0
 21
1.0
 12
503.1323205398696
 22
97.05042317097026
 13
0.0
 23
0.0
 14
1.0
 24
1.0
 15
0.0
 25
0.0
 16
0.0
 26
0.0
 36
1.0
 17
0.0
 27
0.0
 37
0.0
 40
234.8572298226998
 41
1.272159800249687
 42
50.0
 43
0.0
 44
0.0
 50
0.0
 51
0.0
 71
     0
 72
  1000
 73
     1
 74
     1
 75
     0
 76
     0
 77
     0
 78
     0
281
     0
 65
     1
110
0.0
120
0.0
130
0.0
111
1.0
121
0.0
131
0.0
112
0.0
122
1.0
132
0.0
 79
     0
146
0.0
  0
ENDTAB
  0
TABLE
  2
LTYPE
  5
5
330
0
100
AcDbSymbolTable
 70
     7
  0
LTYPE
  5
62
330
5
100
AcDbSymbolTableRecord
100
AcDbLinetypeTableRecord
  2
ByBlock
 70
     0
  3

 72
    65
 73
     0
 40
0.0
  0
LTYPE
  5
63
330
5
100
AcDbSymbolTableRecord
100
AcDbLinetypeTableRecord
  2
ByLayer
 70
     0
  3

 72
    65
 73
     0
 40
0.0
  0
LTYPE
  5
64
330
5
100
AcDbSymbolTableRecord
100
AcDbLinetypeTableRecord
  2
CONTINUOUS
 70
     0
  3
Solid line
 72
    65
 73
     0
 40
0.0
  0
LTYPE
  5
7A
330
5
100
AcDbSymbolTableRecord
100
AcDbLinetypeTableRecord
  2
CENTER
 70
     0
  3
____ _ ____ _ ____ _ ____ _ ____ _ ____ _ ____
 72
    65
 73
     4
 40
0.6
 49
0.375
 74
     0
 49
-0.075
 74
     0
 49
0.075
 74
     0
 49
-0.075
 74
     0
  0
LTYPE
  5
7B
330
5
100
AcDbSymbolTableRecord
100
AcDbLinetypeTableRecord
  2
HIDDEN
 70
     0
  3
- - - - - - - - - - - - - - - - - - - -
 72
    65
 73
     2
 40
0.2
 49
0.1
 74
     0
 49
-0.1
 74
     0
  0
LTYPE
  5
7C
330
5
100
AcDbSymbolTableRecord
100
AcDbLinetypeTableRecord
  2
PHANTOM
 70
     0
  3
_____ _ _ _____ _ _ _____ _ _ _____
 72
    65
 73
     6
 40
0.8
 49
0.45
 74
     0
 49
-0.05
 74
     0
 49
0.1
 74
     0
 49
-0.05
 74
     0
 49
0.1
 74
     0
 49
-0.05
 74
     0
  0
LTYPE
  5
7D
330
5
100
AcDbSymbolTableRecord
100
AcDbLinetypeTableRecord
  2
DOT
 70
     0
  3
. . . . . . . . . . . . . . . . . . . .
 72
    65
 73
     2
 40
0.2
 49
0.1
 74
     0
 49
-0.1
 74
     0
  0
LTYPE
  5
7E
330
5
100
AcDbSymbolTableRecord
100
AcDbLinetypeTableRecord
  2
DASHED
 70
     0
  3
- - - - - - - - - - - - - - - - - - - -
 72
    65
 73
     2
 40
0.2
 49
0.1
 74
     0
 49
-0.1
 74
     0
  0
LTYPE
  5
540
330
5
100
AcDbSymbolTableRecord
100
AcDbLinetypeTableRecord
  2
CONTINOUS
 70
     0
  3
Solid line
 72
    65
 73
     0
 40
0.0
  0
ENDTAB
  0
TABLE
  2
LAYER
  5
2
102
{ACAD_XDICTIONARY
360
5EA
102
}
330
0
100
AcDbSymbolTable
 70
   134
  0
LAYER
  5
5C
102
{ACAD_XDICTIONARY
360
496
102
}
330
2
100
AcDbSymbolTableRecord
100
AcDbLayerTableRecord
  2
0
 70
     0
 62
     7
  6
CONTINUOUS
370
    -3
390
F
  0
LAYER
  5
7F
102
{ACAD_XDICTIONARY
360
498
102
}
330
2
100
AcDbSymbolTableRecord
100
AcDbLayerTableRecord
  2
DEFAULT_1
 70
     0
 62
     7
  6
CENTER
370
    -3
390
F
  0
LAYER
  5
80
102
{ACAD_XDICTIONARY
360
49A
102
}
330
2
100
AcDbSymbolTableRecord
100
AcDbLayerTableRecord
  2
DEFAULT_2
 70
     0
 62
     8
  6
HIDDEN
370
    -3
390
F
  0
LAYER
  5
81
102
{ACAD_XDICTIONARY
360
49C
102
}
330
2
100
AcDbSymbolTableRecord
100
AcDbLayerTableRecord
  2
DEFAULT_3
 70
     0
 62
     7
  6
PHANTOM
370
    -3
390
F
  0
LAYER
  5
82
102
{ACAD_XDICTIONARY
360
49E
102
}
330
2
100
AcDbSymbolTableRecord
100
AcDbLayerTableRecord
  2
_2D_DELETED_OBJS
 70
     0
 62
     7
  6
CONTINUOUS
370
    -3
390
F
  0
LAYER
  5
83
102
{ACAD_XDICTIONARY
360
4A0
102
}
330
2
100
AcDbSymbolTableRecord
100
AcDbLayerTableRecord
  2
_BLACK_HOLE
 70
     0
 62
     7
  6
CONTINUOUS
370
    -3
390
F
  0
LAYER
  5
84
102
{ACAD_XDICTIONARY
360
4A2
102
}
330
2
100
AcDbSymbolTableRecord
100
AcDbLayerTableRecord
  2
0_COMPONENTS
 70
     0
 62
     7
  6
CONTINUOUS
370
    -3
390
F
  0
LAYER
  5
85
102
{ACAD_XDICTIONARY
360
4A4
102
}
330
2
100
AcDbSymbolTableRecord
100
AcDbLayerTableRecord
  2
1_ALL_DIMS
 70
     0
 62
     7
  6
CONTINUOUS
370
    -3
390
F
  0
LAYER
  5
86
102
{ACAD_XDICTIONARY
360
4A6
102
}
330
2
100
AcDbSymbolTableRecord
100
AcDbLayerTableRecord
  2
1_ALL_DRAFT_DIMS
 70
     0
 62
     7
  6
CONTINUOUS
370
    -3
390
F
  0
LAYER
  5
87
102
{ACAD_XDICTIONARY
360
4A8
102
}
330
2
100
AcDbSymbolTableRecord
100
AcDbLayerTableRecord
  2
1_ALL_PLANES
 70
     0
 62
     7
  6
CONTINUOUS
370
    -3
390
F
  0
LAYER
  5
88
102
{ACAD_XDICTIONARY
360
4AA
102
}
330
2
100
AcDbSymbolTableRecord
100
AcDbLayerTableRecord
  2
1__ALL_DRIVEN_DIMS
 70
     0
 62
     7
  6
CONTINUOUS
370
    -3
390
F
  0
LAYER
  5
89
102
{ACAD_XDICTIONARY
360
4AC
102
}
330
2
100
AcDbSymbolTableRecord
100
AcDbLayerTableRecord
  2
1__ALL_REF_DIMS
 70
     0
 62
     7
  6
CONTINUOUS
370
    -3
390
F
  0
LAYER
  5
8A
102
{ACAD_XDICTIONARY
360
4AE
102
}
330
2
100
AcDbSymbolTableRecord
100
AcDbLayerTableRecord
  2
1__DEF_ASM_PLN
 70
     0
 62
     7
  6
CONTINUOUS
370
    -3
390
F
  0
LAYER
  5
8B
102
{ACAD_XDICTIONARY
360
4B0
102
}
330
2
100
AcDbSymbolTableRecord
100
AcDbLayerTableRecord
  2
1__DEF_PLANES
 70
     0
 62
     7
  6
CONTINUOUS
370
    -3
390
F
  0
LAYER
  5
8C
102
{ACAD_XDICTIONARY
360
4B2
102
}
330
2
100
AcDbSymbolTableRecord
100
AcDbLayerTableRecord
  2
2_ALL_CSYS
 70
     0
 62
     7
  6
CONTINUOUS
370
    -3
390
F
  0
LAYER
  5
8D
102
{ACAD_XDICTIONARY
360
4B4
102
}
330
2
100
AcDbSymbolTableRecord
100
AcDbLayerTableRecord
  2
2_ALL_NOTES
 70
     0
 62
     7
  6
CONTINUOUS
370
    -3
390
F
  0
LAYER
  5
8E
102
{ACAD_XDICTIONARY
360
4B6
102
}
330
2
100
AcDbSymbolTableRecord
100
AcDbLayerTableRecord
  2
2__DEF_ASM_CSYS
 70
     0
 62
     7
  6
CONTINUOUS
370
    -3
390
F
  0
LAYER
  5
8F
102
{ACAD_XDICTIONARY
360
4B8
102
}
330
2
100
AcDbSymbolTableRecord
100
AcDbLayerTableRecord
  2
2__DEF_CSYS
 70
     0
 62
     7
  6
CONTINUOUS
370
    -3
390
F
  0
LAYER
  5
90
102
{ACAD_XDICTIONARY
360
4BA
102
}
330
2
100
AcDbSymbolTableRecord
100
AcDbLayerTableRecord
  2
3_ALL_AXES
 70
     0
 62
     7
  6
CONTINUOUS
370
    -3
390
F
  0
LAYER
  5
91
102
{ACAD_XDICTIONARY
360
4BC
102
}
330
2
100
AcDbSymbolTableRecord
100
AcDbLayerTableRecord
  2
3_ALL_SYMBOLS
 70
     0
 62
     7
  6
CONTINUOUS
370
    -3
390
F
  0
LAYER
  5
92
102
{ACAD_XDICTIONARY
360
4BE
102
}
330
2
100
AcDbSymbolTableRecord
100
AcDbLayerTableRecord
  2
3__ALL_HOES
 70
     0
 62
     7
  6
CONTINUOUS
370
    -3
390
F
  0
LAYER
  5
93
102
{ACAD_XDICTIONARY
360
4C0
102
}
330
2
100
AcDbSymbolTableRecord
100
AcDbLayerTableRecord
  2
3__ALL_HOLES
 70
     0
 62
     7
  6
CONTINUOUS
370
    -3
390
F
  0
LAYER
  5
94
102
{ACAD_XDICTIONARY
360
4C2
102
}
330
2
100
AcDbSymbolTableRecord
100
AcDbLayerTableRecord
  2
4_ALL_POINTS
 70
     0
 62
     7
  6
CONTINUOUS
370
    -3
390
F
  0
LAYER
  5
95
102
{ACAD_XDICTIONARY
360
4C4
102
}
330
2
100
AcDbSymbolTableRecord
100
AcDbLayerTableRecord
  2
4_ALL_TABLES
 70
     0
 62
     7
  6
CONTINUOUS
370
    -3
390
F
  0
LAYER
  5
96
102
{ACAD_XDICTIONARY
360
4C6
102
}
330
2
100
AcDbSymbolTableRecord
100
AcDbLayerTableRecord
  2
5_ALL_CURVES
 70
     0
 62
     7
  6
CONTINUOUS
370
    -3
390
F
  0
LAYER
  5
97
102
{ACAD_XDICTIONARY
360
4C8
102
}
330
2
100
AcDbSymbolTableRecord
100
AcDbLayerTableRecord
  2
6_ALL_SFINS
 70
     0
 62
     7
  6
CONTINUOUS
370
    -3
390
F
  0
LAYER
  5
98
102
{ACAD_XDICTIONARY
360
4CA
102
}
330
2
100
AcDbSymbolTableRecord
100
AcDbLayerTableRecord
  2
6_ALL_SURFS
 70
     0
 62
     7
  6
CONTINUOUS
370
    -3
390
F
  0
LAYER
  5
99
102
{ACAD_XDICTIONARY
360
4CC
102
}
330
2
100
AcDbSymbolTableRecord
100
AcDbLayerTableRecord
  2
7_ALL_COSMETICS
 70
     0
 62
     7
  6
CONTINUOUS
370
    -3
390
F
  0
LAYER
  5
9A
102
{ACAD_XDICTIONARY
360
4CE
102
}
330
2
100
AcDbSymbolTableRecord
100
AcDbLayerTableRecord
  2
7_ALL_DRAFT_GEOMS
 70
     0
 62
     7
  6
CONTINUOUS
370
    -3
390
F
  0
LAYER
  5
9B
102
{ACAD_XDICTIONARY
360
4D0
102
}
330
2
100
AcDbSymbolTableRecord
100
AcDbLayerTableRecord
  2
7_ALL_FEATURES
 70
     0
 62
     7
  6
CONTINUOUS
370
    -3
390
F
  0
LAYER
  5
9C
102
{ACAD_XDICTIONARY
360
4D2
102
}
330
2
100
AcDbSymbolTableRecord
100
AcDbLayerTableRecord
  2
8_ALL_DTL_ITEMS
 70
     0
 62
     7
  6
CONTINUOUS
370
    -3
390
F
  0
LAYER
  5
9D
102
{ACAD_XDICTIONARY
360
4D4
102
}
330
2
100
AcDbSymbolTableRecord
100
AcDbLayerTableRecord
  2
8_ALL_ROUNDS
 70
     0
 62
     7
  6
CONTINUOUS
370
    -3
390
F
  0
LAYER
  5
9E
102
{ACAD_XDICTIONARY
360
4D6
102
}
330
2
100
AcDbSymbolTableRecord
100
AcDbLayerTableRecord
  2
8_ALL_ROUNS
 70
     0
 62
     7
  6
CONTINUOUS
370
    -3
390
F
  0
LAYER
  5
9F
102
{ACAD_XDICTIONARY
360
4D8
102
}
330
2
100
AcDbSymbolTableRecord
100
AcDbLayerTableRecord
  2
AXIS
 70
     0
 62
     7
  6
CONTINUOUS
370
    -3
390
F
  0
LAYER
  5
A0
102
{ACAD_XDICTIONARY
360
4DA
102
}
330
2
100
AcDbSymbolTableRecord
100
AcDbLayerTableRecord
  2
CSYS
 70
     0
 62
     7
  6
CONTINUOUS
370
    -3
390
F
  0
LAYER
  5
A1
102
{ACAD_XDICTIONARY
360
4DC
102
}
330
2
100
AcDbSymbolTableRecord
100
AcDbLayerTableRecord
  2
PLN
 70
     0
 62
     7
  6
CONTINUOUS
370
    -3
390
F
  0
LAYER
  5
A2
102
{ACAD_XDICTIONARY
360
4DE
102
}
330
2
100
AcDbSymbolTableRecord
100
AcDbLayerTableRecord
  2
PNT
 70
     0
 62
     7
  6
CONTINUOUS
370
    -3
390
F
  0
LAYER
  5
258
330
2
100
AcDbSymbolTableRecord
100
AcDbLayerTableRecord
  2
Defpoints
 70
     0
 62
     7
  6
CONTINUOUS
290
     0
370
    -3
390
F
  0
LAYER
  5
541
102
{ACAD_XDICTIONARY
360
542
102
}
330
2
100
AcDbSymbolTableRecord
100
AcDbLayerTableRecord
  2
実線
 70
     0
 62
     3
  6
CONTINOUS
370
    -3
390
F
  0
LAYER
  5
543
102
{ACAD_XDICTIONARY
360
544
102
}
330
2
100
AcDbSymbolTableRecord
100
AcDbLayerTableRecord
  2
文字
 70
     0
 62
     7
  6
CONTINUOUS
370
    -3
390
F
  0
LAYER
  5
82E
330
2
100
AcDbSymbolTableRecord
100
AcDbLayerTableRecord
  2
00_COMPONENTS
 70
     0
 62
     7
  6
CONTINUOUS
370
    -3
390
F
  0
LAYER
  5
82F
330
2
100
AcDbSymbolTableRecord
100
AcDbLayerTableRecord
  2
01___PRT_ALL_DTM_PLN
 70
     0
 62
     7
  6
CONTINUOUS
370
    -3
390
F
  0
LAYER
  5
830
330
2
100
AcDbSymbolTableRecord
100
AcDbLayerTableRecord
  2
01___PRT_DEF_DTM_PLN
 70
     0
 62
     7
  6
CONTINUOUS
370
    -3
390
F
  0
LAYER
  5
831
330
2
100
AcDbSymbolTableRecord
100
AcDbLayerTableRecord
  2
02___PRT_ALL_AXES
 70
     0
 62
     7
  6
CONTINUOUS
370
    -3
390
F
  0
LAYER
  5
832
330
2
100
AcDbSymbolTableRecord
100
AcDbLayerTableRecord
  2
03___PRT_ALL_CURVES
 70
     0
 62
     7
  6
CONTINUOUS
370
    -3
390
F
  0
LAYER
  5
833
330
2
100
AcDbSymbolTableRecord
100
AcDbLayerTableRecord
  2
04___PRT_ALL_DTM_PNT
 70
     0
 62
     7
  6
CONTINUOUS
370
    -3
390
F
  0
LAYER
  5
834
330
2
100
AcDbSymbolTableRecord
100
AcDbLayerTableRecord
  2
05___PRT_ALL_DTM_CSYS
 70
     0
 62
     7
  6
CONTINUOUS
370
    -3
390
F
  0
LAYER
  5
835
330
2
100
AcDbSymbolTableRecord
100
AcDbLayerTableRecord
  2
05___PRT_DEF_DTM_CSYS
 70
     0
 62
     7
  6
CONTINUOUS
370
    -3
390
F
  0
LAYER
  5
836
330
2
100
AcDbSymbolTableRecord
100
AcDbLayerTableRecord
  2
06___PRT_ALL_SURFS
 70
     0
 62
     7
  6
CONTINUOUS
370
    -3
390
F
  0
LAYER
  5
837
330
2
100
AcDbSymbolTableRecord
100
AcDbLayerTableRecord
  2
1__DEF_PRT_PLN
 70
     0
 62
     7
  6
CONTINUOUS
370
    -3
390
F
  0
LAYER
  5
838
330
2
100
AcDbSymbolTableRecord
100
AcDbLayerTableRecord
  2
2__DEF_PRT_CSYS
 70
     0
 62
     7
  6
CONTINUOUS
370
    -3
390
F
  0
LAYER
  5
839
330
2
100
AcDbSymbolTableRecord
100
AcDbLayerTableRecord
  2
49-H1003G001
 70
     0
 62
     7
  6
CONTINUOUS
370
    -3
390
F
  0
LAYER
  5
83A
330
2
100
AcDbSymbolTableRecord
100
AcDbLayerTableRecord
  2
510210600
 70
     0
 62
     7
  6
CONTINUOUS
370
    -3
390
F
  0
LAYER
  5
83B
330
2
100
AcDbSymbolTableRecord
100
AcDbLayerTableRecord
  2
5_ALL_GTOLS_FREE_
 70
     0
 62
     7
  6
CONTINUOUS
370
    -3
390
F
  0
LAYER
  5
83C
330
2
100
AcDbSymbolTableRecord
100
AcDbLayerTableRecord
  2
7_ALL_FEATURES_8
 70
     0
 62
     7
  6
CONTINUOUS
370
    -3
390
F
  0
LAYER
  5
83D
330
2
100
AcDbSymbolTableRecord
100
AcDbLayerTableRecord
  2
9_ALL_COSM_SKETCH
 70
     0
 62
     7
  6
CONTINUOUS
370
    -3
390
F
  0
LAYER
  5
83E
330
2
100
AcDbSymbolTableRecord
100
AcDbLayerTableRecord
  2
9_ALL_COSM_SKETCHS
 70
     0
 62
     7
  6
CONTINUOUS
370
    -3
390
F
  0
LAYER
  5
83F
330
2
100
AcDbSymbolTableRecord
100
AcDbLayerTableRecord
  2
COLOR11
 70
     0
 62
     7
  6
CONTINUOUS
370
    -3
390
F
  0
LAYER
  5
840
330
2
100
AcDbSymbolTableRecord
100
AcDbLayerTableRecord
  2
COLOR13
 70
     0
 62
     7
  6
CONTINUOUS
370
    -3
390
F
  0
LAYER
  5
841
330
2
100
AcDbSymbolTableRecord
100
AcDbLayerTableRecord
  2
COLOR2
 70
     0
 62
     7
  6
CONTINUOUS
370
    -3
390
F
  0
LAYER
  5
842
330
2
100
AcDbSymbolTableRecord
100
AcDbLayerTableRecord
  2
COLOR26
 70
     0
 62
     7
  6
CONTINUOUS
370
    -3
390
F
  0
LAYER
  5
843
330
2
100
AcDbSymbolTableRecord
100
AcDbLayerTableRecord
  2
COLOR31
 70
     0
 62
     7
  6
CONTINUOUS
370
    -3
390
F
  0
LAYER
  5
844
330
2
100
AcDbSymbolTableRecord
100
AcDbLayerTableRecord
  2
COLOR6
 70
     0
 62
     7
  6
CONTINUOUS
370
    -3
390
F
  0
LAYER
  5
845
330
2
100
AcDbSymbolTableRecord
100
AcDbLayerTableRecord
  2
COLOR9
 70
     0
 62
     7
  6
CONTINUOUS
370
    -3
390
F
  0
LAYER
  5
846
330
2
100
AcDbSymbolTableRecord
100
AcDbLayerTableRecord
  2
G1-SOMA
 70
     0
 62
     7
  6
CONTINUOUS
370
    -3
390
F
  0
LAYER
  5
847
330
2
100
AcDbSymbolTableRecord
100
AcDbLayerTableRecord
  2
GALAEPO
 70
     0
 62
     7
  6
CONTINUOUS
370
    -3
390
F
  0
LAYER
  5
848
330
2
100
AcDbSymbolTableRecord
100
AcDbLayerTableRecord
  2
GR01-0015
 70
     0
 62
     7
  6
CONTINUOUS
370
    -3
390
F
  0
LAYER
  5
849
330
2
100
AcDbSymbolTableRecord
100
AcDbLayerTableRecord
  2
GR04-0006
 70
     0
 62
     7
  6
CONTINUOUS
370
    -3
390
F
  0
LAYER
  5
84A
330
2
100
AcDbSymbolTableRecord
100
AcDbLayerTableRecord
  2
GR04-0006_1
 70
     0
 62
     7
  6
CONTINUOUS
370
    -3
390
F
  0
LAYER
  5
84B
330
2
100
AcDbSymbolTableRecord
100
AcDbLayerTableRecord
  2
GR04-0016
 70
     0
 62
     7
  6
CONTINUOUS
370
    -3
390
F
  0
LAYER
  5
84C
330
2
100
AcDbSymbolTableRecord
100
AcDbLayerTableRecord
  2
GR07-0007
 70
     0
 62
     7
  6
CONTINUOUS
370
    -3
390
F
  0
LAYER
  5
84D
330
2
100
AcDbSymbolTableRecord
100
AcDbLayerTableRecord
  2
INTF_GREEN
 70
     0
 62
     7
  6
CONTINUOUS
370
    -3
390
F
  0
LAYER
  5
84E
330
2
100
AcDbSymbolTableRecord
100
AcDbLayerTableRecord
  2
INTF_MAGENTA
 70
     0
 62
     7
  6
CONTINUOUS
370
    -3
390
F
  0
LAYER
  5
84F
330
2
100
AcDbSymbolTableRecord
100
AcDbLayerTableRecord
  2
INTF_RED
 70
     0
 62
     7
  6
CONTINUOUS
370
    -3
390
F
  0
LAYER
  5
850
330
2
100
AcDbSymbolTableRecord
100
AcDbLayerTableRecord
  2
IR_EN
 70
     0
 62
     7
  6
CONTINUOUS
370
    -3
390
F
  0
LAYER
  5
851
330
2
100
AcDbSymbolTableRecord
100
AcDbLayerTableRecord
  2
L1
 70
     0
 62
     7
  6
CONTINUOUS
370
    -3
390
F
  0
LAYER
  5
852
330
2
100
AcDbSymbolTableRecord
100
AcDbLayerTableRecord
  2
L8
 70
     0
 62
     7
  6
CONTINUOUS
370
    -3
390
F
  0
LAYER
  5
853
330
2
100
AcDbSymbolTableRecord
100
AcDbLayerTableRecord
  2
NETWORK
 70
     0
 62
     7
  6
CONTINUOUS
370
    -3
390
F
  0
LAYER
  5
854
330
2
100
AcDbSymbolTableRecord
100
AcDbLayerTableRecord
  2
NEW-ASIA
 70
     0
 62
     7
  6
CONTINUOUS
370
    -3
390
F
  0
LAYER
  5
855
330
2
100
AcDbSymbolTableRecord
100
AcDbLayerTableRecord
  2
PATTERN
 70
     0
 62
     7
  6
CONTINUOUS
370
    -3
390
F
  0
LAYER
  5
856
330
2
100
AcDbSymbolTableRecord
100
AcDbLayerTableRecord
  2
PATTERN_1
 70
     0
 62
     7
  6
CONTINUOUS
370
    -3
390
F
  0
LAYER
  5
857
330
2
100
AcDbSymbolTableRecord
100
AcDbLayerTableRecord
  2
PATTERN_2
 70
     0
 62
     7
  6
CONTINUOUS
370
    -3
390
F
  0
LAYER
  5
858
330
2
100
AcDbSymbolTableRecord
100
AcDbLayerTableRecord
  2
PATTERN_3
 70
     0
 62
     7
  6
CONTINUOUS
370
    -3
390
F
  0
LAYER
  5
859
330
2
100
AcDbSymbolTableRecord
100
AcDbLayerTableRecord
  2
PRT0006
 70
     0
 62
     7
  6
CONTINUOUS
370
    -3
390
F
  0
LAYER
  5
85A
330
2
100
AcDbSymbolTableRecord
100
AcDbLayerTableRecord
  2
PRT0007
 70
     0
 62
     7
  6
CONTINUOUS
370
    -3
390
F
  0
LAYER
  5
85B
330
2
100
AcDbSymbolTableRecord
100
AcDbLayerTableRecord
  2
PRT0008
 70
     0
 62
     7
  6
CONTINUOUS
370
    -3
390
F
  0
LAYER
  5
85C
330
2
100
AcDbSymbolTableRecord
100
AcDbLayerTableRecord
  2
REGIST
 70
     0
 62
     7
  6
CONTINUOUS
370
    -3
390
F
  0
LAYER
  5
85D
330
2
100
AcDbSymbolTableRecord
100
AcDbLayerTableRecord
  2
SCREW-4
 70
     0
 62
     7
  6
CONTINUOUS
370
    -3
390
F
  0
LAYER
  5
85E
330
2
100
AcDbSymbolTableRecord
100
AcDbLayerTableRecord
  2
SCREW-4_1
 70
     0
 62
     7
  6
CONTINUOUS
370
    -3
390
F
  0
LAYER
  5
85F
330
2
100
AcDbSymbolTableRecord
100
AcDbLayerTableRecord
  2
SCREW_MX1_7X3
 70
     0
 62
     7
  6
CONTINUOUS
370
    -3
390
F
  0
LAYER
  5
860
330
2
100
AcDbSymbolTableRecord
100
AcDbLayerTableRecord
  2
SCREW_MX1_7X3_1
 70
     0
 62
     7
  6
CONTINUOUS
370
    -3
390
F
  0
LAYER
  5
861
330
2
100
AcDbSymbolTableRecord
100
AcDbLayerTableRecord
  2
SCREW_MX1_7X3_2
 70
     0
 62
     7
  6
CONTINUOUS
370
    -3
390
F
  0
LAYER
  5
862
330
2
100
AcDbSymbolTableRecord
100
AcDbLayerTableRecord
  2
WIDE
 70
     0
 62
     7
  6
CONTINUOUS
370
    -3
390
F
  0
LAYER
  5
863
330
2
100
AcDbSymbolTableRecord
100
AcDbLayerTableRecord
  2
XSEC_DATUMS
 70
     0
 62
     7
  6
CONTINUOUS
370
    -3
390
F
  0
LAYER
  5
864
330
2
100
AcDbSymbolTableRecord
100
AcDbLayerTableRecord
  2
YC-19-BARREL-1
 70
     0
 62
     7
  6
CONTINUOUS
370
    -3
390
F
  0
LAYER
  5
865
330
2
100
AcDbSymbolTableRecord
100
AcDbLayerTableRecord
  2
YC-19-CAM-1
 70
     0
 62
     7
  6
CONTINUOUS
370
    -3
390
F
  0
LAYER
  5
866
330
2
100
AcDbSymbolTableRecord
100
AcDbLayerTableRecord
  2
YC-19-FOCUSE
 70
     0
 62
     7
  6
CONTINUOUS
370
    -3
390
F
  0
LAYER
  5
867
330
2
100
AcDbSymbolTableRecord
100
AcDbLayerTableRecord
  2
YC-19-SCREW-1
 70
     0
 62
     7
  6
CONTINUOUS
370
    -3
390
F
  0
LAYER
  5
868
330
2
100
AcDbSymbolTableRecord
100
AcDbLayerTableRecord
  2
YC-19-SCREW-2
 70
     0
 62
     7
  6
CONTINUOUS
370
    -3
390
F
  0
LAYER
  5
869
330
2
100
AcDbSymbolTableRecord
100
AcDbLayerTableRecord
  2
YC-19-STICKER-240
 70
     0
 62
     7
  6
CONTINUOUS
370
    -3
390
F
  0
LAYER
  5
86A
330
2
100
AcDbSymbolTableRecord
100
AcDbLayerTableRecord
  2
YC_19_BARREL2
 70
     0
 62
     7
  6
CONTINUOUS
370
    -3
390
F
  0
LAYER
  5
86B
330
2
100
AcDbSymbolTableRecord
100
AcDbLayerTableRecord
  2
YC_19_CAM2
 70
     0
 62
     7
  6
CONTINUOUS
370
    -3
390
F
  0
LAYER
  5
86C
330
2
100
AcDbSymbolTableRecord
100
AcDbLayerTableRecord
  2
YC_19_REARCELL
 70
     0
 62
     7
  6
CONTINUOUS
370
    -3
390
F
  0
LAYER
  5
86D
330
2
100
AcDbSymbolTableRecord
100
AcDbLayerTableRecord
  2
YC_19_REAR_ASM
 70
     0
 62
     7
  6
CONTINUOUS
370
    -3
390
F
  0
LAYER
  5
86E
330
2
100
AcDbSymbolTableRecord
100
AcDbLayerTableRecord
  2
___SHELL
 70
     0
 62
     7
  6
CONTINUOUS
370
    -3
390
F
  0
LAYER
  5
86F
330
2
100
AcDbSymbolTableRecord
100
AcDbLayerTableRecord
  2
寸法
 70
     0
 62
    40
  6
CONTINUOUS
370
    -3
390
F
  0
LAYER
  5
870
330
2
100
AcDbSymbolTableRecord
100
AcDbLayerTableRecord
  2
非表示
 70
     0
 62
     5
  6
CONTINUOUS
290
     0
370
    -3
390
F
  0
LAYER
  5
871
330
2
100
AcDbSymbolTableRecord
100
AcDbLayerTableRecord
  2
図面枠
 70
     0
 62
   253
  6
CONTINUOUS
370
    -3
390
F
  0
LAYER
  5
872
330
2
100
AcDbSymbolTableRecord
100
AcDbLayerTableRecord
  2
図面枠-細
 70
     0
 62
   254
  6
CONTINUOUS
370
    -3
390
F
  0
LAYER
  5
873
330
2
100
AcDbSymbolTableRecord
100
AcDbLayerTableRecord
  2
図面枠-太
 70
     0
 62
   252
  6
CONTINUOUS
370
    -3
390
F
  0
LAYER
  5
874
330
2
100
AcDbSymbolTableRecord
100
AcDbLayerTableRecord
  2
一点鎖線
 70
     0
 62
   120
  6
CENTER
370
    -3
390
F
  0
LAYER
  5
875
330
2
100
AcDbSymbolTableRecord
100
AcDbLayerTableRecord
  2
INTFCLR_12295
 70
     0
 62
     7
  6
CONTINUOUS
370
    -3
390
F
  0
LAYER
  5
876
330
2
100
AcDbSymbolTableRecord
100
AcDbLayerTableRecord
  2
INTFCLR_12503
 70
     0
 62
     7
  6
CONTINUOUS
370
    -3
390
F
  0
LAYER
  5
877
330
2
100
AcDbSymbolTableRecord
100
AcDbLayerTableRecord
  2
INTFCLR_13505
 70
     0
 62
     7
  6
CONTINUOUS
370
    -3
390
F
  0
LAYER
  5
878
330
2
100
AcDbSymbolTableRecord
100
AcDbLayerTableRecord
  2
INTFCLR_14451
 70
     0
 62
     7
  6
CONTINUOUS
370
    -3
390
F
  0
LAYER
  5
879
330
2
100
AcDbSymbolTableRecord
100
AcDbLayerTableRecord
  2
INTFCLR_16683
 70
     0
 62
     7
  6
CONTINUOUS
370
    -3
390
F
  0
LAYER
  5
87A
330
2
100
AcDbSymbolTableRecord
100
AcDbLayerTableRecord
  2
INTFCLR_18219
 70
     0
 62
     7
  6
CONTINUOUS
370
    -3
390
F
  0
LAYER
  5
87B
330
2
100
AcDbSymbolTableRecord
100
AcDbLayerTableRecord
  2
INTFCLR_20849
 70
     0
 62
     7
  6
CONTINUOUS
370
    -3
390
F
  0
LAYER
  5
87C
330
2
100
AcDbSymbolTableRecord
100
AcDbLayerTableRecord
  2
INTFCLR_21747
 70
     0
 62
     7
  6
CONTINUOUS
370
    -3
390
F
  0
LAYER
  5
87D
330
2
100
AcDbSymbolTableRecord
100
AcDbLayerTableRecord
  2
INTFCLR_6641
 70
     0
 62
     7
  6
CONTINUOUS
370
    -3
390
F
  0
LAYER
  5
87E
330
2
100
AcDbSymbolTableRecord
100
AcDbLayerTableRecord
  2
INTF_11
 70
     0
 62
     7
  6
CONTINUOUS
370
    -3
390
F
  0
LAYER
  5
87F
330
2
100
AcDbSymbolTableRecord
100
AcDbLayerTableRecord
  2
INTF_13
 70
     0
 62
     7
  6
CONTINUOUS
370
    -3
390
F
  0
LAYER
  5
880
330
2
100
AcDbSymbolTableRecord
100
AcDbLayerTableRecord
  2
INTF_18
 70
     0
 62
     7
  6
CONTINUOUS
370
    -3
390
F
  0
LAYER
  5
881
330
2
100
AcDbSymbolTableRecord
100
AcDbLayerTableRecord
  2
INTF_2
 70
     0
 62
     7
  6
CONTINUOUS
370
    -3
390
F
  0
LAYER
  5
882
330
2
100
AcDbSymbolTableRecord
100
AcDbLayerTableRecord
  2
INTF_22
 70
     0
 62
     7
  6
CONTINUOUS
370
    -3
390
F
  0
LAYER
  5
883
330
2
100
AcDbSymbolTableRecord
100
AcDbLayerTableRecord
  2
INTF_26
 70
     0
 62
     7
  6
CONTINUOUS
370
    -3
390
F
  0
LAYER
  5
884
330
2
100
AcDbSymbolTableRecord
100
AcDbLayerTableRecord
  2
INTF_28
 70
     0
 62
     7
  6
CONTINUOUS
370
    -3
390
F
  0
LAYER
  5
885
330
2
100
AcDbSymbolTableRecord
100
AcDbLayerTableRecord
  2
INTF_30
 70
     0
 62
     7
  6
CONTINUOUS
370
    -3
390
F
  0
LAYER
  5
886
330
2
100
AcDbSymbolTableRecord
100
AcDbLayerTableRecord
  2
INTF_37
 70
     0
 62
     7
  6
CONTINUOUS
370
    -3
390
F
  0
LAYER
  5
887
330
2
100
AcDbSymbolTableRecord
100
AcDbLayerTableRecord
  2
INTF_4
 70
     0
 62
     7
  6
CONTINUOUS
370
    -3
390
F
  0
LAYER
  5
888
330
2
100
AcDbSymbolTableRecord
100
AcDbLayerTableRecord
  2
INTF_40
 70
     0
 62
     7
  6
CONTINUOUS
370
    -3
390
F
  0
LAYER
  5
889
330
2
100
AcDbSymbolTableRecord
100
AcDbLayerTableRecord
  2
INTF_7
 70
     0
 62
     7
  6
CONTINUOUS
370
    -3
390
F
  0
LAYER
  5
88A
330
2
100
AcDbSymbolTableRecord
100
AcDbLayerTableRecord
  2
INTF_9
 70
     0
 62
     7
  6
CONTINUOUS
370
    -3
390
F
  0
LAYER
  5
88B
330
2
100
AcDbSymbolTableRecord
100
AcDbLayerTableRecord
  2
INTF_BLANK
 70
     0
 62
     7
  6
CONTINUOUS
370
    -3
390
F
  0
ENDTAB
  0
TABLE
  2
STYLE
  5
3
330
0
100
AcDbSymbolTable
 70
     5
  0
STYLE
  5
5D
330
3
100
AcDbSymbolTableRecord
100
AcDbTextStyleTableRecord
  2
STANDARD
 70
     0
 40
0.0
 41
0.8
 50
0.0
 71
     0
 42
3.622133986672451
  3
monotxt.shx
  4
bigfont.shx
  0
STYLE
  5
61
330
3
100
AcDbSymbolTableRecord
100
AcDbTextStyleTableRecord
  2
Annotative
 70
     0
 40
0.0
 41
1.0
 50
0.0
 71
     0
 42
0.2
  3
txt
  4

1001
AcadAnnotative
1000
AnnotativeData
1002
{
1070
     1
1070
     1
1002
}
  0
STYLE
  5
88C
330
3
100
AcDbSymbolTableRecord
100
AcDbTextStyleTableRecord
  2
STANDARD1
 70
     0
 40
0.0
 41
0.8
 50
0.0
 71
     0
 42
2.5
  3
MONOTXT.shx
  4
BIGFONT.shx
  0
STYLE
  5
88D
330
3
100
AcDbSymbolTableRecord
100
AcDbTextStyleTableRecord
  2
STANDARD2
 70
     4
 40
0.0
 41
1.0
 50
0.0
 71
     0
 42
2.799999952316284
  3
MONOTXT
  4
BIGFONT
  0
STYLE
  5
88E
330
3
100
AcDbSymbolTableRecord
100
AcDbTextStyleTableRecord
  2
ARIAL-B
 70
     0
 40
0.0
 41
1.0
 50
0.0
 71
     0
 42
4.0
  3

  4

1001
ACAD
1000
Arial Black
1071
       34
  0
ENDTAB
  0
TABLE
  2
VIEW
  5
6
330
0
100
AcDbSymbolTable
 70
     0
  0
ENDTAB
  0
TABLE
  2
UCS
  5
7
330
0
100
AcDbSymbolTable
 70
     0
  0
ENDTAB
  0
TABLE
  2
APPID
  5
9
330
0
100
AcDbSymbolTable
 70
    12
  0
APPID
  5
5E
330
9
100
AcDbSymbolTableRecord
100
AcDbRegAppTableRecord
  2
ACAD
 70
     0
  0
APPID
  5
65
330
9
100
AcDbSymbolTableRecord
100
AcDbRegAppTableRecord
  2
AcadAnnotative
 70
     0
  0
APPID
  5
6F
330
9
100
AcDbSymbolTableRecord
100
AcDbRegAppTableRecord
  2
ACAD_MLEADERVER
 70
     0
  0
APPID
  5
30F
330
9
100
AcDbSymbolTableRecord
100
AcDbRegAppTableRecord
  2
ACAD_EXEMPT_FROM_CAD_STANDARDS
 70
     0
  0
APPID
  5
3EA
330
9
100
AcDbSymbolTableRecord
100
AcDbRegAppTableRecord
  2
AcadAnnotativeDecomposition
 70
     0
  0
APPID
  5
585
330
9
100
AcDbSymbolTableRecord
100
AcDbRegAppTableRecord
  2
AcadAnnoPO
 70
     0
  0
APPID
  5
59F
330
9
100
AcDbSymbolTableRecord
100
AcDbRegAppTableRecord
  2
ACAD_PSEXT
 70
     0
  0
APPID
  5
890
330
9
100
AcDbSymbolTableRecord
100
AcDbRegAppTableRecord
  2
CONTENTBLOCKDESCRIPTION
 70
     0
  0
APPID
  5
891
330
9
100
AcDbSymbolTableRecord
100
AcDbRegAppTableRecord
  2
CONTENTTABDATA
 70
     0
  0
APPID
  5
892
330
9
100
AcDbSymbolTableRecord
100
AcDbRegAppTableRecord
  2
CONTENTCURRENTTAB
 70
     0
  0
APPID
  5
893
330
9
100
AcDbSymbolTableRecord
100
AcDbRegAppTableRecord
  2
CONTENTBLOCKICON
 70
     0
  0
APPID
  5
894
330
9
100
AcDbSymbolTableRecord
100
AcDbRegAppTableRecord
  2
CONTENTLONGBLOCKNAME
 70
     0
  0
ENDTAB
  0
TABLE
  2
DIMSTYLE
  5
A
330
0
100
AcDbSymbolTable
 70
     3
100
AcDbDimStyleTable
 71
     1
340
5F
  0
DIMSTYLE
105
5F
102
{ACAD_REACTORS
330
21C
330
21D
102
}
330
A
100
AcDbSymbolTableRecord
100
AcDbDimStyleTableRecord
  2
Standard
 70
     0
340
5D
  0
DIMSTYLE
105
60
330
A
100
AcDbSymbolTableRecord
100
AcDbDimStyleTableRecord
  2
Annotative
 70
     0
340
5D
1001
AcadAnnotative
1000
AnnotativeData
1002
{
1070
     1
1070
     1
1002
}
  0
DIMSTYLE
105
88F
330
A
100
AcDbSymbolTableRecord
100
AcDbDimStyleTableRecord
  2
STANDARD-2
 70
     0
 41
2.0
 42
1.0
 44
1.0
 73
     0
 74
     0
 77
     3
 78
     9
140
2.5
144
1.03
147
1.0
172
     1
173
     1
271
     0
272
     0
284
     9
340
5D
341
2D1
343
2D1
344
2D1
  0
ENDTAB
  0
TABLE
  2
BLOCK_RECORD
  5
1
330
0
100
AcDbSymbolTable
 70
    21
  0
BLOCK_RECORD
  5
74
102
{ACAD_XDICTIONARY
360
34A
102
}
330
1
100
AcDbSymbolTableRecord
100
AcDbBlockTableRecord
  2
*Model_Space
340
77
  0
BLOCK_RECORD
  5
70
330
1
100
AcDbSymbolTableRecord
100
AcDbBlockTableRecord
  2
*Paper_Space
340
73
  0
BLOCK_RECORD
  5
AC
330
1
100
AcDbSymbolTableRecord
100
AcDbBlockTableRecord
  2
_OPEN
340
0
102
{BLKREFS
331
64B
331
64C
331
654
331
655
331
65D
331
65E
331
666
331
667
331
66F
331
670
331
678
331
679
331
681
331
682
331
816
331
817
331
80A
331
80B
331
7DA
331
7DB
331
7CE
331
7CF
331
7F2
331
7F3
331
7E6
331
7E7
331
7FE
331
7FF
102
}
  0
BLOCK_RECORD
  5
259
330
1
100
AcDbSymbolTableRecord
100
AcDbBlockTableRecord
  2
*D1
340
0
  0
BLOCK_RECORD
  5
266
330
1
100
AcDbSymbolTableRecord
100
AcDbBlockTableRecord
  2
*D2
340
0
  0
BLOCK_RECORD
  5
2D1
330
1
100
AcDbSymbolTableRecord
100
AcDbBlockTableRecord
  2
_Open30
340
0
102
{BLKREFS
331
347
331
51A
331
51B
331
523
331
524
331
A05
331
A09
331
A0A
331
A0F
331
A10
331
A15
331
A16
331
A1D
331
A1E
331
A25
331
A26
331
A2C
331
A2D
331
A30
331
A31
331
A37
331
A38
331
A3B
331
A3C
331
A41
331
A42
331
A47
331
A4A
331
A4D
331
A50
331
BC4
331
BC8
331
BC9
331
BCE
331
BCF
331
BD4
331
BD5
331
BDC
331
BDD
331
BE4
331
BE5
331
BEB
331
BEC
331
BEF
331
BF0
331
BF6
331
BF7
331
BFA
331
BFB
331
C00
331
C01
331
C06
331
C09
331
C0C
331
C0F
331
C24
331
C25
331
C2D
331
C2E
331
C39
331
C3A
331
C42
331
C43
331
C4B
331
C4C
331
C54
331
C55
102
}
  0
BLOCK_RECORD
  5
646
330
1
100
AcDbSymbolTableRecord
100
AcDbBlockTableRecord
  2
*D4
340
0
  0
BLOCK_RECORD
  5
64F
330
1
100
AcDbSymbolTableRecord
100
AcDbBlockTableRecord
  2
*D5
340
0
  0
BLOCK_RECORD
  5
658
330
1
100
AcDbSymbolTableRecord
100
AcDbBlockTableRecord
  2
*D6
340
0
  0
BLOCK_RECORD
  5
661
330
1
100
AcDbSymbolTableRecord
100
AcDbBlockTableRecord
  2
*D7
340
0
  0
BLOCK_RECORD
  5
66A
330
1
100
AcDbSymbolTableRecord
100
AcDbBlockTableRecord
  2
*D8
340
0
  0
BLOCK_RECORD
  5
673
330
1
100
AcDbSymbolTableRecord
100
AcDbBlockTableRecord
  2
*D9
340
0
  0
BLOCK_RECORD
  5
67C
330
1
100
AcDbSymbolTableRecord
100
AcDbBlockTableRecord
  2
*D10
340
0
  0
BLOCK_RECORD
  5
685
330
1
100
AcDbSymbolTableRecord
100
AcDbBlockTableRecord
  2
K_GAIKEI_JISB0405V_BL0
340
0
  0
BLOCK_RECORD
  5
7C9
330
1
100
AcDbSymbolTableRecord
100
AcDbBlockTableRecord
  2
*D12
340
0
  0
BLOCK_RECORD
  5
7D5
330
1
100
AcDbSymbolTableRecord
100
AcDbBlockTableRecord
  2
*D13
340
0
  0
BLOCK_RECORD
  5
7E1
330
1
100
AcDbSymbolTableRecord
100
AcDbBlockTableRecord
  2
*D14
340
0
  0
BLOCK_RECORD
  5
7ED
330
1
100
AcDbSymbolTableRecord
100
AcDbBlockTableRecord
  2
*D15
340
0
  0
BLOCK_RECORD
  5
7F9
330
1
100
AcDbSymbolTableRecord
100
AcDbBlockTableRecord
  2
*D16
340
0
  0
BLOCK_RECORD
  5
805
330
1
100
AcDbSymbolTableRecord
100
AcDbBlockTableRecord
  2
*D17
340
0
  0
BLOCK_RECORD
  5
811
330
1
100
AcDbSymbolTableRecord
100
AcDbBlockTableRecord
  2
*D18
340
0
  0
BLOCK_RECORD
  5
81D
330
1
100
AcDbSymbolTableRecord
100
AcDbBlockTableRecord
  2
A$C5F064851
340
0
  0
BLOCK_RECORD
  5
896
330
1
100
AcDbSymbolTableRecord
100
AcDbBlockTableRecord
  2
B-9360_外形図
340
0
102
{BLKREFS
331
A55
102
}
  0
ENDTAB
  0
ENDSEC
  0
SECTION
  2
BLOCKS
  0
BLOCK
  5
75
330
74
100
AcDbEntity
  8
0
100
AcDbBlockBegin
  2
*Model_Space
 70
     0
 10
0.0
 20
0.0
 30
0.0
  3
*Model_Space
  1

  0
ENDBLK
  5
76
330
74
100
AcDbEntity
  8
0
100
AcDbBlockEnd
  0
BLOCK
  5
71
330
70
100
AcDbEntity
 67
     1
  8
0
100
AcDbBlockBegin
  2
*Paper_Space
 70
     0
 10
0.0
 20
0.0
 30
0.0
  3
*Paper_Space
  1

  0
ENDBLK
  5
72
330
70
100
AcDbEntity
 67
     1
  8
0
100
AcDbBlockEnd
  0
BLOCK
  5
CC
330
AC
100
AcDbEntity
  8
0
100
AcDbBlockBegin
  2
_OPEN
 70
     0
 10
0.0
 20
0.0
 30
0.0
  3
_OPEN
  1

  0
LINE
  5
CD
330
AC
100
AcDbEntity
  8
0
  6
ByBlock
 62
     0
100
AcDbLine
 10
0.0
 20
0.0
 30
0.0
 11
-1.0
 21
0.3125
 31
0.0
  0
LINE
  5
CE
330
AC
100
AcDbEntity
  8
0
  6
ByBlock
 62
     0
100
AcDbLine
 10
-1.0
 20
-0.3125
 30
0.0
 11
0.0
 21
0.0
 31
0.0
  0
LINE
  5
CF
330
AC
100
AcDbEntity
  8
0
  6
ByBlock
 62
     0
100
AcDbLine
 10
-1.0
 20
0.0
 30
0.0
 11
0.0
 21
0.0
 31
0.0
  0
ENDBLK
  5
D0
330
AC
100
AcDbEntity
  8
0
  6
ByBlock
 62
     0
100
AcDbBlockEnd
  0
BLOCK
  5
25A
330
259
100
AcDbEntity
  8
0
100
AcDbBlockBegin
  2
*D1
 70
     1
 10
0.0
 20
0.0
 30
0.0
  3
*D1
  1

  0
LINE
  5
C50
330
259
100
AcDbEntity
  8
1_ALL_DRAFT_DIMS
  6
Continuous
 62
     0
370
    -2
100
AcDbLine
 10
599.3066872943611
 20
140.786388277661
 30
0.0
 11
599.3066872943611
 21
148.298032823061
 31
0.0
  0
LINE
  5
C51
330
259
100
AcDbEntity
  8
1_ALL_DRAFT_DIMS
  6
Continuous
 62
     0
370
    -2
100
AcDbLine
 10
564.3066872943611
 20
133.866207790961
 30
0.0
 11
564.3066872943611
 21
148.298032823061
 31
0.0
  0
LINE
  5
C52
330
259
100
AcDbEntity
  8
1_ALL_DRAFT_DIMS
  6
Continuous
 62
     0
370
    -2
100
AcDbLine
 10
596.3066872943612
 20
148.118032823061
 30
0.0
 11
567.3066872943612
 21
148.118032823061
 31
0.0
  0
MTEXT
  5
C53
330
259
100
AcDbEntity
  8
1_ALL_DRAFT_DIMS
  6
Continuous
 62
     0
100
AcDbMText
 10
580.755843981561
 20
151.3295301896872
 30
0.0
 40
3.5
 41
0.0
 71
     5
 72
     1
  1
\A1;50
 73
     1
 44
1.0
  0
INSERT
  5
C54
330
259
100
AcDbEntity
  8
1_ALL_DRAFT_DIMS
  6
Continuous
 62
     0
370
    -2
100
AcDbBlockReference
  2
_Open30
 10
599.3066872943611
 20
148.118032823061
 30
0.0
 41
3.0
 42
3.0
 43
3.0
  0
INSERT
  5
C55
330
259
100
AcDbEntity
  8
1_ALL_DRAFT_DIMS
  6
Continuous
 62
     0
370
    -2
100
AcDbBlockReference
  2
_Open30
 10
564.3066872943611
 20
148.118032823061
 30
0.0
 41
3.0
 42
3.0
 43
3.0
 50
180.0
  0
POINT
  5
C56
330
259
100
AcDbEntity
  8
Defpoints
  6
Continuous
 62
     0
100
AcDbPoint
 10
599.3066872943611
 20
140.723888277661
 30
0.0
  0
POINT
  5
C57
330
259
100
AcDbEntity
  8
Defpoints
  6
Continuous
 62
     0
100
AcDbPoint
 10
564.3066872943611
 20
133.803707790961
 30
0.0
  0
POINT
  5
C58
330
259
100
AcDbEntity
  8
Defpoints
  6
Continuous
 62
     0
100
AcDbPoint
 10
564.3066872943611
 20
148.118032823061
 30
0.0
  0
ENDBLK
  5
25B
330
259
100
AcDbEntity
  8
0
100
AcDbBlockEnd
  0
BLOCK
  5
267
330
266
100
AcDbEntity
  8
0
100
AcDbBlockBegin
  2
*D2
 70
     1
 10
0.0
 20
0.0
 30
0.0
  3
*D2
  1

  0
LINE
  5
C47
330
266
100
AcDbEntity
  8
1_ALL_DRAFT_DIMS
  6
Continuous
 62
     0
370
    -2
100
AcDbLine
 10
599.3066872943611
 20
140.786388277661
 30
0.0
 11
599.3066872943611
 21
155.274298828661
 31
0.0
  0
LINE
  5
C48
330
266
100
AcDbEntity
  8
1_ALL_DRAFT_DIMS
  6
Continuous
 62
     0
370
    -2
100
AcDbLine
 10
531.0566872943611
 20
97.386399302761
 30
0.0
 11
531.0566872943611
 21
155.274298828661
 31
0.0
  0
LINE
  5
C49
330
266
100
AcDbEntity
  8
1_ALL_DRAFT_DIMS
  6
Continuous
 62
     0
370
    -2
100
AcDbLine
 10
596.3066872943612
 20
155.094298828661
 30
0.0
 11
534.0566872943611
 21
155.094298828661
 31
0.0
  0
MTEXT
  5
C4A
330
266
100
AcDbEntity
  8
1_ALL_DRAFT_DIMS
  6
Continuous
 62
     0
100
AcDbMText
 10
564.5717116977611
 20
157.616956865392
 30
0.0
 40
3.5
 41
0.0
 71
     5
 72
     1
  1
\A1;97.5
 73
     1
 44
1.0
  0
INSERT
  5
C4B
330
266
100
AcDbEntity
  8
1_ALL_DRAFT_DIMS
  6
Continuous
 62
     0
370
    -2
100
AcDbBlockReference
  2
_Open30
 10
599.3066872943611
 20
155.094298828661
 30
0.0
 41
3.0
 42
3.0
 43
3.0
  0
INSERT
  5
C4C
330
266
100
AcDbEntity
  8
1_ALL_DRAFT_DIMS
  6
Continuous
 62
     0
370
    -2
100
AcDbBlockReference
  2
_Open30
 10
531.0566872943611
 20
155.094298828661
 30
0.0
 41
3.0
 42
3.0
 43
3.0
 50
180.0
  0
POINT
  5
C4D
330
266
100
AcDbEntity
  8
Defpoints
  6
Continuous
 62
     0
100
AcDbPoint
 10
599.3066872943611
 20
140.723888277661
 30
0.0
  0
POINT
  5
C4E
330
266
100
AcDbEntity
  8
Defpoints
  6
Continuous
 62
     0
100
AcDbPoint
 10
531.0566872943611
 20
97.32389930276099
 30
0.0
  0
POINT
  5
C4F
330
266
100
AcDbEntity
  8
Defpoints
  6
Continuous
 62
     0
100
AcDbPoint
 10
531.0566872943611
 20
155.094298828661
 30
0.0
  0
ENDBLK
  5
268
330
266
100
AcDbEntity
  8
0
100
AcDbBlockEnd
  0
BLOCK
  5
2D5
330
2D1
100
AcDbEntity
  8
0
100
AcDbBlockBegin
  2
_Open30
 70
     0
 10
0.0
 20
0.0
 30
0.0
  3
_Open30
  1

  0
LINE
  5
2D2
330
2D1
100
AcDbEntity
  8
0
  6
ByBlock
 62
     0
370
    -2
100
AcDbLine
 10
-1.0
 20
0.26794919
 30
0.0
 11
0.0
 21
0.0
 31
0.0
  0
LINE
  5
2D3
330
2D1
100
AcDbEntity
  8
0
  6
ByBlock
 62
     0
370
    -2
100
AcDbLine
 10
0.0
 20
0.0
 30
0.0
 11
-1.0
 21
-0.26794919
 31
0.0
  0
LINE
  5
2D4
330
2D1
100
AcDbEntity
  8
0
  6
ByBlock
 62
     0
370
    -2
100
AcDbLine
 10
0.0
 20
0.0
 30
0.0
 11
-1.0
 21
0.0
 31
0.0
  0
ENDBLK
  5
2D6
330
2D1
100
AcDbEntity
  8
0
100
AcDbBlockEnd
  0
BLOCK
  5
64D
330
646
100
AcDbEntity
  8
1_ALL_DRAFT_DIMS
  6
Continuous
 62
     2
100
AcDbBlockBegin
  2
*D4
 70
     1
 10
0.0
 20
0.0
 30
0.0
  3
*D4
  1

  0
LINE
  5
647
330
646
100
AcDbEntity
  8
1_ALL_DRAFT_DIMS
  6
Continuous
 62
     2
100
AcDbLine
 10
36.0923743106
 20
132.6646531675
 30
0.0
 11
25.3270522086
 21
132.6646531675
 31
0.0
  0
LINE
  5
648
330
646
100
AcDbEntity
  8
1_ALL_DRAFT_DIMS
  6
Continuous
 62
     2
100
AcDbLine
 10
51.8635772428
 20
189.6559256349999
 30
0.0
 11
25.3270522086
 21
189.6559256349999
 31
0.0
  0
LINE
  5
649
330
646
100
AcDbEntity
  8
1_ALL_DRAFT_DIMS
  6
Continuous
 62
     2
100
AcDbLine
 10
26.3270522086
 20
132.6646531675
 30
0.0
 11
26.3270522086
 21
161.1602894013
 31
0.0
  0
LINE
  5
64A
330
646
100
AcDbEntity
  8
1_ALL_DRAFT_DIMS
  6
Continuous
 62
     2
100
AcDbLine
 10
26.3270522086
 20
189.6559256349999
 30
0.0
 11
26.3270522086
 21
161.1602894013
 31
0.0
  0
INSERT
  5
64B
330
646
100
AcDbEntity
  8
1_ALL_DRAFT_DIMS
  6
Continuous
 62
     2
100
AcDbBlockReference
  2
_OPEN
 10
26.3270522086
 20
132.6646531675
 30
0.0
 41
2.0
 42
2.0
 43
2.0
 50
270.0
  0
INSERT
  5
64C
330
646
100
AcDbEntity
  8
1_ALL_DRAFT_DIMS
  6
Continuous
 62
     2
100
AcDbBlockReference
  2
_OPEN
 10
26.3270522086
 20
189.6559256349999
 30
0.0
 41
2.0
 42
2.0
 43
2.0
 50
90.0
  0
ENDBLK
  5
64E
330
646
100
AcDbEntity
  8
0
  6
ByBlock
 62
     0
100
AcDbBlockEnd
  0
BLOCK
  5
656
330
64F
100
AcDbEntity
  8
1_ALL_DRAFT_DIMS
  6
Continuous
 62
     2
100
AcDbBlockBegin
  2
*D5
 70
     1
 10
0.0
 20
0.0
 30
0.0
  3
*D5
  1

  0
LINE
  5
650
330
64F
100
AcDbEntity
  8
1_ALL_DRAFT_DIMS
  6
Continuous
 62
     2
100
AcDbLine
 10
34.4146126761
 20
156.1559256349999
 30
0.0
 11
34.4146126761
 21
117.9991486975
 31
0.0
  0
LINE
  5
651
330
64F
100
AcDbEntity
  8
1_ALL_DRAFT_DIMS
  6
Continuous
 62
     2
100
AcDbLine
 10
104.4146126761
 20
156.1559256349999
 30
0.0
 11
104.4146126761
 21
117.9991486975
 31
0.0
  0
LINE
  5
652
330
64F
100
AcDbEntity
  8
1_ALL_DRAFT_DIMS
  6
Continuous
 62
     2
100
AcDbLine
 10
34.4146126761
 20
118.9991486975
 30
0.0
 11
69.41461267609999
 21
118.9991486975
 31
0.0
  0
LINE
  5
653
330
64F
100
AcDbEntity
  8
1_ALL_DRAFT_DIMS
  6
Continuous
 62
     2
100
AcDbLine
 10
104.4146126761
 20
118.9991486975
 30
0.0
 11
69.41461267609999
 21
118.9991486975
 31
0.0
  0
INSERT
  5
654
330
64F
100
AcDbEntity
  8
1_ALL_DRAFT_DIMS
  6
Continuous
 62
     2
100
AcDbBlockReference
  2
_OPEN
 10
34.4146126761
 20
118.9991486975
 30
0.0
 41
2.0
 42
2.0
 43
2.0
 50
180.0
  0
INSERT
  5
655
330
64F
100
AcDbEntity
  8
1_ALL_DRAFT_DIMS
  6
Continuous
 62
     2
100
AcDbBlockReference
  2
_OPEN
 10
104.4146126761
 20
118.9991486975
 30
0.0
 41
2.0
 42
2.0
 43
2.0
  0
ENDBLK
  5
657
330
64F
100
AcDbEntity
  8
0
  6
ByBlock
 62
     0
100
AcDbBlockEnd
  0
BLOCK
  5
65F
330
658
100
AcDbEntity
  8
1_ALL_DRAFT_DIMS
  6
Continuous
 62
     2
100
AcDbBlockBegin
  2
*D6
 70
     1
 10
0.0
 20
0.0
 30
0.0
  3
*D6
  1

  0
LINE
  5
659
330
658
100
AcDbEntity
  8
1_ALL_DRAFT_DIMS
  6
Continuous
 62
     2
100
AcDbLine
 10
206.4323001009999
 20
91.7220687278
 30
0.0
 11
206.4323001009999
 21
127.6120750541
 31
0.0
  0
LINE
  5
65A
330
658
100
AcDbEntity
  8
1_ALL_DRAFT_DIMS
  6
Continuous
 62
     2
100
AcDbLine
 10
125.6101328780999
 20
85.5592871067
 30
0.0
 11
125.6101328780999
 21
127.6120750541
 31
0.0
  0
LINE
  5
65B
330
658
100
AcDbEntity
  8
1_ALL_DRAFT_DIMS
  6
Continuous
 62
     2
100
AcDbLine
 10
206.4323001009999
 20
126.6120750541
 30
0.0
 11
166.0212164895999
 21
126.6120750541
 31
0.0
  0
LINE
  5
65C
330
658
100
AcDbEntity
  8
1_ALL_DRAFT_DIMS
  6
Continuous
 62
     2
100
AcDbLine
 10
125.6101328780999
 20
126.6120750541
 30
0.0
 11
166.0212164895999
 21
126.6120750541
 31
0.0
  0
INSERT
  5
65D
330
658
100
AcDbEntity
  8
1_ALL_DRAFT_DIMS
  6
Continuous
 62
     2
100
AcDbBlockReference
  2
_OPEN
 10
206.4323001009999
 20
126.6120750541
 30
0.0
 41
2.0
 42
2.0
 43
2.0
  0
INSERT
  5
65E
330
658
100
AcDbEntity
  8
1_ALL_DRAFT_DIMS
  6
Continuous
 62
     2
100
AcDbBlockReference
  2
_OPEN
 10
125.6101328780999
 20
126.6120750541
 30
0.0
 41
2.0
 42
2.0
 43
2.0
 50
180.0
  0
ENDBLK
  5
660
330
658
100
AcDbEntity
  8
0
  6
ByBlock
 62
     0
100
AcDbBlockEnd
  0
BLOCK
  5
668
330
661
100
AcDbEntity
  8
1_ALL_DRAFT_DIMS
  6
Continuous
 62
     2
100
AcDbBlockBegin
  2
*D7
 70
     1
 10
0.0
 20
0.0
 30
0.0
  3
*D7
  1

  0
LINE
  5
662
330
661
100
AcDbEntity
  8
1_ALL_DRAFT_DIMS
  6
Continuous
 62
     2
100
AcDbLine
 10
206.4323001009999
 20
91.7220687278
 30
0.0
 11
206.4323001009999
 21
127.6120750541
 31
0.0
  0
LINE
  5
663
330
661
100
AcDbEntity
  8
1_ALL_DRAFT_DIMS
  6
Continuous
 62
     2
100
AcDbLine
 10
236.4323001009998
 20
90.12271302149999
 30
0.0
 11
236.4323001009998
 21
127.6120750541
 31
0.0
  0
LINE
  5
664
330
661
100
AcDbEntity
  8
1_ALL_DRAFT_DIMS
  6
Continuous
 62
     2
100
AcDbLine
 10
206.4323001009999
 20
126.6120750541
 30
0.0
 11
221.4323001009999
 21
126.6120750541
 31
0.0
  0
LINE
  5
665
330
661
100
AcDbEntity
  8
1_ALL_DRAFT_DIMS
  6
Continuous
 62
     2
100
AcDbLine
 10
236.4323001009998
 20
126.6120750541
 30
0.0
 11
221.4323001009999
 21
126.6120750541
 31
0.0
  0
INSERT
  5
666
330
661
100
AcDbEntity
  8
1_ALL_DRAFT_DIMS
  6
Continuous
 62
     2
100
AcDbBlockReference
  2
_OPEN
 10
206.4323001009999
 20
126.6120750541
 30
0.0
 41
2.0
 42
2.0
 43
2.0
 50
180.0
  0
INSERT
  5
667
330
661
100
AcDbEntity
  8
1_ALL_DRAFT_DIMS
  6
Continuous
 62
     2
100
AcDbBlockReference
  2
_OPEN
 10
236.4323001009998
 20
126.6120750541
 30
0.0
 41
2.0
 42
2.0
 43
2.0
  0
ENDBLK
  5
669
330
661
100
AcDbEntity
  8
0
  6
ByBlock
 62
     0
100
AcDbBlockEnd
  0
BLOCK
  5
671
330
66A
100
AcDbEntity
  8
1_ALL_DRAFT_DIMS
  6
Continuous
 62
     2
100
AcDbBlockBegin
  2
*D8
 70
     1
 10
0.0
 20
0.0
 30
0.0
  3
*D8
  1

  0
LINE
  5
66B
330
66A
100
AcDbEntity
  8
1_ALL_DRAFT_DIMS
  6
Continuous
 62
     2
100
AcDbLine
 10
206.4323001009999
 20
241.385396645
 30
0.0
 11
206.4323001009999
 21
270.5735097061
 31
0.0
  0
LINE
  5
66C
330
66A
100
AcDbEntity
  8
1_ALL_DRAFT_DIMS
  6
Continuous
 62
     2
100
AcDbLine
 10
125.6101328780999
 20
231.8341125344999
 30
0.0
 11
125.6101328780999
 21
270.5735097061
 31
0.0
  0
LINE
  5
66D
330
66A
100
AcDbEntity
  8
1_ALL_DRAFT_DIMS
  6
Continuous
 62
     2
100
AcDbLine
 10
206.4323001009999
 20
269.5735097061
 30
0.0
 11
166.0212164895999
 21
269.5735097061
 31
0.0
  0
LINE
  5
66E
330
66A
100
AcDbEntity
  8
1_ALL_DRAFT_DIMS
  6
Continuous
 62
     2
100
AcDbLine
 10
125.6101328780999
 20
269.5735097061
 30
0.0
 11
166.0212164895999
 21
269.5735097061
 31
0.0
  0
INSERT
  5
66F
330
66A
100
AcDbEntity
  8
1_ALL_DRAFT_DIMS
  6
Continuous
 62
     2
100
AcDbBlockReference
  2
_OPEN
 10
206.4323001009999
 20
269.5735097061
 30
0.0
 41
2.0
 42
2.0
 43
2.0
  0
INSERT
  5
670
330
66A
100
AcDbEntity
  8
1_ALL_DRAFT_DIMS
  6
Continuous
 62
     2
100
AcDbBlockReference
  2
_OPEN
 10
125.6101328780999
 20
269.5735097061
 30
0.0
 41
2.0
 42
2.0
 43
2.0
 50
180.0
  0
ENDBLK
  5
672
330
66A
100
AcDbEntity
  8
0
  6
ByBlock
 62
     0
100
AcDbBlockEnd
  0
BLOCK
  5
67A
330
673
100
AcDbEntity
  8
1_ALL_DRAFT_DIMS
  6
Continuous
 62
     2
100
AcDbBlockBegin
  2
*D9
 70
     1
 10
0.0
 20
0.0
 30
0.0
  3
*D9
  1

  0
LINE
  5
674
330
673
100
AcDbEntity
  8
1_ALL_DRAFT_DIMS
  6
Continuous
 62
     2
100
AcDbLine
 10
125.6101328780999
 20
231.8341125344999
 30
0.0
 11
125.6101328780999
 21
275.5018408032
 31
0.0
  0
LINE
  5
675
330
673
100
AcDbEntity
  8
1_ALL_DRAFT_DIMS
  6
Continuous
 62
     2
100
AcDbLine
 10
305.2597484157999
 20
263.9064172611999
 30
0.0
 11
305.2597484157999
 21
275.5018408032
 31
0.0
  0
LINE
  5
676
330
673
100
AcDbEntity
  8
1_ALL_DRAFT_DIMS
  6
Continuous
 62
     2
100
AcDbLine
 10
125.6101328780999
 20
274.5018408032
 30
0.0
 11
215.434940647
 21
274.5018408032
 31
0.0
  0
LINE
  5
677
330
673
100
AcDbEntity
  8
1_ALL_DRAFT_DIMS
  6
Continuous
 62
     2
100
AcDbLine
 10
305.2597484157999
 20
274.5018408032
 30
0.0
 11
215.434940647
 21
274.5018408032
 31
0.0
  0
INSERT
  5
678
330
673
100
AcDbEntity
  8
1_ALL_DRAFT_DIMS
  6
Continuous
 62
     2
100
AcDbBlockReference
  2
_OPEN
 10
125.6101328780999
 20
274.5018408032
 30
0.0
 41
2.0
 42
2.0
 43
2.0
 50
180.0
  0
INSERT
  5
679
330
673
100
AcDbEntity
  8
1_ALL_DRAFT_DIMS
  6
Continuous
 62
     2
100
AcDbBlockReference
  2
_OPEN
 10
305.2597484157999
 20
274.5018408032
 30
0.0
 41
2.0
 42
2.0
 43
2.0
  0
ENDBLK
  5
67B
330
673
100
AcDbEntity
  8
0
  6
ByBlock
 62
     0
100
AcDbBlockEnd
  0
BLOCK
  5
683
330
67C
100
AcDbEntity
  8
1_ALL_DRAFT_DIMS
  6
Continuous
 62
     2
100
AcDbBlockBegin
  2
*D10
 70
     1
 10
0.0
 20
0.0
 30
0.0
  3
*D10
  1

  0
LINE
  5
67D
330
67C
100
AcDbEntity
  8
1_ALL_DRAFT_DIMS
  6
Continuous
 62
     2
100
AcDbLine
 10
102.7015438746998
 20
132.6559256349999
 30
0.0
 11
115.4156907116
 21
132.6559256349999
 31
0.0
  0
LINE
  5
67E
330
67C
100
AcDbEntity
  8
1_ALL_DRAFT_DIMS
  6
Continuous
 62
     2
100
AcDbLine
 10
102.7359700127
 20
180.6559256349999
 30
0.0
 11
115.4156907116
 21
180.6559256349999
 31
0.0
  0
LINE
  5
67F
330
67C
100
AcDbEntity
  8
1_ALL_DRAFT_DIMS
  6
Continuous
 62
     2
100
AcDbLine
 10
114.4156907116
 20
132.6559256349999
 30
0.0
 11
114.4156907116
 21
156.6559256349998
 31
0.0
  0
LINE
  5
680
330
67C
100
AcDbEntity
  8
1_ALL_DRAFT_DIMS
  6
Continuous
 62
     2
100
AcDbLine
 10
114.4156907116
 20
180.6559256349999
 30
0.0
 11
114.4156907116
 21
156.6559256349998
 31
0.0
  0
INSERT
  5
681
330
67C
100
AcDbEntity
  8
1_ALL_DRAFT_DIMS
  6
Continuous
 62
     2
100
AcDbBlockReference
  2
_OPEN
 10
114.4156907116
 20
132.6559256349999
 30
0.0
 41
2.0
 42
2.0
 43
2.0
 50
270.0
  0
INSERT
  5
682
330
67C
100
AcDbEntity
  8
1_ALL_DRAFT_DIMS
  6
Continuous
 62
     2
100
AcDbBlockReference
  2
_OPEN
 10
114.4156907116
 20
180.6559256349999
 30
0.0
 41
2.0
 42
2.0
 43
2.0
 50
90.0
  0
ENDBLK
  5
684
330
67C
100
AcDbEntity
  8
0
  6
ByBlock
 62
     0
100
AcDbBlockEnd
  0
BLOCK
  5
7C7
330
685
100
AcDbEntity
  8
3_ALL_SYMBOLS
  6
Continuous
 62
     2
100
AcDbBlockBegin
  2
K_GAIKEI_JISB0405V_BL0
 70
     0
 10
388.36506751
 20
64.172553822
 30
0.0
  3
K_GAIKEI_JISB0405V_BL0
  1

  0
LINE
  5
686
330
685
100
AcDbEntity
  8
3_ALL_SYMBOLS
  6
Continuous
 62
     2
100
AcDbLine
 10
374.8206994629
 20
76.84299865719999
 30
0.0
 11
375.383203125
 21
76.84299865719999
 31
0.0
  0
LWPOLYLINE
  5
687
330
685
100
AcDbEntity
  8
3_ALL_SYMBOLS
  6
Continuous
 62
     2
100
AcDbPolyline
 90
        4
 70
     0
 43
0.0
 10
375.1332128905999
 20
77.28050079350001
 10
375.1332128905999
 20
75.5304986572
 10
375.0707153319999
 20
75.4680010986
 10
374.8206994629
 20
75.5304986572
  0
LWPOLYLINE
  5
688
330
685
100
AcDbEntity
  8
3_ALL_SYMBOLS
  6
Continuous
 62
     2
100
AcDbPolyline
 90
        3
 70
     0
 43
0.0
 10
374.7582019043
 20
76.0929959106
 10
375.1332128905999
 20
76.3429989624
 10
375.383203125
 20
76.53049804689999
  0
LWPOLYLINE
  5
689
330
685
100
AcDbEntity
  8
3_ALL_SYMBOLS
  6
Continuous
 62
     2
100
AcDbPolyline
 90
        6
 70
     0
 43
0.0
 10
375.5706958008
 20
77.28050079350001
 10
375.5706958008
 20
76.5929956055
 10
375.6331933594
 20
76.53049804689999
 10
376.3832153319999
 20
76.53049804689999
 10
376.5082104491999
 20
76.5929956055
 10
376.5082104491999
 20
76.7805010986
  0
LINE
  5
68A
330
685
100
AcDbEntity
  8
3_ALL_SYMBOLS
  6
Continuous
 62
     2
100
AcDbLine
 10
375.5706958008
 20
76.9680001831
 30
0.0
 11
376.4457128905998
 21
77.15549926760001
 31
0.0
  0
LWPOLYLINE
  5
68B
330
685
100
AcDbEntity
  8
3_ALL_SYMBOLS
  6
Continuous
 62
     2
100
AcDbPolyline
 90
        5
 70
     0
 43
0.0
 10
375.5706958008
 20
76.2805014038
 10
375.5706958008
 20
75.5304986572
 10
376.4457128905998
 20
75.5304986572
 10
376.4457128905998
 20
76.2805014038
 10
375.5706958008
 20
76.2805014038
  0
LINE
  5
68C
330
685
100
AcDbEntity
  8
3_ALL_SYMBOLS
  6
Continuous
 62
     2
100
AcDbLine
 10
375.5706958008
 20
75.90549682619998
 30
0.0
 11
376.4457128905998
 21
75.90549682619998
 31
0.0
  0
LWPOLYLINE
  5
68D
330
685
100
AcDbEntity
  8
3_ALL_SYMBOLS
  6
Continuous
 62
     2
100
AcDbPolyline
 90
        6
 70
     0
 43
0.0
 10
376.8206982422
 20
76.71799713129998
 10
376.8206982422
 20
77.0929953003
 10
378.4457116698998
 20
77.0929953003
 10
378.5082092285
 20
77.0929953003
 10
378.5707067870998
 20
77.03049774170001
 10
378.5082092285
 20
76.71799713129998
  0
LINE
  5
68E
330
685
100
AcDbEntity
  8
3_ALL_SYMBOLS
  6
Continuous
 62
     2
100
AcDbLine
 10
377.6957153319999
 20
77.0929953003
 30
0.0
 11
377.6957153319999
 21
77.28050079350001
 31
0.0
  0
LINE
  5
68F
330
685
100
AcDbEntity
  8
3_ALL_SYMBOLS
  6
Continuous
 62
     2
100
AcDbLine
 10
377.0707141113
 20
76.71799713129998
 30
0.0
 11
378.3207165527
 21
76.71799713129998
 31
0.0
  0
LINE
  5
690
330
685
100
AcDbEntity
  8
3_ALL_SYMBOLS
  6
Continuous
 62
     2
100
AcDbLine
 10
377.6957153319999
 20
76.71799713129998
 30
0.0
 11
377.6957153319999
 21
75.5304986572
 31
0.0
  0
LINE
  5
691
330
685
100
AcDbEntity
  8
3_ALL_SYMBOLS
  6
Continuous
 62
     2
100
AcDbLine
 10
377.6957153319999
 20
76.1554998779
 30
0.0
 11
378.4457116698998
 21
76.1554998779
 31
0.0
  0
LWPOLYLINE
  5
692
330
685
100
AcDbEntity
  8
3_ALL_SYMBOLS
  6
Continuous
 62
     2
100
AcDbPolyline
 90
        4
 70
     0
 43
0.0
 10
377.1957092285
 20
76.405496521
 10
377.0707141113
 20
76.0304983521
 10
376.9456933594
 20
75.7179977417
 10
376.7582006836
 20
75.4680010986
  0
LWPOLYLINE
  5
693
330
685
100
AcDbEntity
  8
3_ALL_SYMBOLS
  6
Continuous
 62
     2
100
AcDbPolyline
 90
        5
 70
     0
 43
0.0
 10
377.0707141113
 20
76.0304983521
 10
377.2582067870998
 20
75.7804953003
 10
377.4456994628997
 20
75.5929962158
 10
377.6957153319999
 20
75.5304986572
 10
378.5707067870998
 20
75.4680010986
  0
LINE
  5
694
330
685
100
AcDbEntity
  8
3_ALL_SYMBOLS
  6
Continuous
 62
     2
100
AcDbLine
 10
378.9457177733999
 20
77.28050079350001
 30
0.0
 11
378.9457177733999
 21
75.7804953003
 31
0.0
  0
LINE
  5
695
330
685
100
AcDbEntity
  8
3_ALL_SYMBOLS
  6
Continuous
 62
     2
100
AcDbLine
 10
378.7581994628999
 20
75.5929962158
 30
0.0
 11
379.8207092285
 21
76.2179974365
 31
0.0
  0
LINE
  5
696
330
685
100
AcDbEntity
  8
3_ALL_SYMBOLS
  6
Continuous
 62
     2
100
AcDbLine
 10
378.9457177733999
 20
75.7804953003
 30
0.0
 11
378.9457177733999
 21
75.7179977417
 31
0.0
  0
LINE
  5
697
330
685
100
AcDbEntity
  8
3_ALL_SYMBOLS
  6
Continuous
 62
     2
100
AcDbLine
 10
379.2582055664
 20
77.21799682619998
 30
0.0
 11
379.8207092285
 21
76.53049804689999
 31
0.0
  0
LWPOLYLINE
  5
698
330
685
100
AcDbEntity
  8
3_ALL_SYMBOLS
  6
Continuous
 62
     2
100
AcDbPolyline
 90
        7
 70
     0
 43
0.0
 10
379.1332104491999
 20
75.4680010986
 10
379.5706933594
 20
75.5929962158
 10
379.8832067870998
 20
75.7179977417
 10
380.0706994628999
 20
75.90549682619998
 10
380.1956945800997
 20
76.1554998779
 10
380.3207153319998
 20
76.5929956055
 10
380.3207153319998
 20
77.28050079350001
  0
LINE
  5
699
330
685
100
AcDbEntity
  8
3_ALL_SYMBOLS
  6
Continuous
 62
     2
100
AcDbLine
 10
380.1956945800997
 20
76.1554998779
 30
0.0
 11
380.5707055664
 21
75.4680010986
 31
0.0
  0
LWPOLYLINE
  5
69A
330
685
100
AcDbEntity
  8
3_ALL_SYMBOLS
  6
Continuous
 62
     2
100
AcDbPolyline
 90
        9
 70
     0
 43
0.0
 10
380.7581982422
 20
76.3429989624
 10
381.0707116698998
 20
77.03049774170001
 10
381.0707116698998
 20
77.28050079350001
 10
381.6332153319999
 20
77.28050079350001
 10
381.7582104491999
 20
77.15549926760001
 10
381.6957128905999
 20
76.71799713129998
 10
381.4456970215
 20
76.2179974365
 10
381.1332092284999
 20
75.7804953003
 10
380.7581982422
 20
75.4680010986
  0
LINE
  5
69B
330
685
100
AcDbEntity
  8
3_ALL_SYMBOLS
  6
Continuous
 62
     2
100
AcDbLine
 10
380.9457165527
 20
76.65549957279998
 30
0.0
 11
381.5081945800999
 21
76.3429989624
 31
0.0
  0
LINE
  5
69C
330
685
100
AcDbEntity
  8
3_ALL_SYMBOLS
  6
Continuous
 62
     2
100
AcDbLine
 10
382.0706982422
 20
77.28050079350001
 30
0.0
 11
382.0706982422
 21
75.4680010986
 31
0.0
  0
LINE
  5
69D
330
685
100
AcDbEntity
  8
3_ALL_SYMBOLS
  6
Continuous
 62
     2
100
AcDbLine
 10
382.0706982422
 20
76.53049804689999
 30
0.0
 11
382.5707043457
 21
76.2805014038
 31
0.0
  0
LWPOLYLINE
  5
69E
330
685
100
AcDbEntity
  8
3_ALL_SYMBOLS
  6
Continuous
 62
     2
100
AcDbPolyline
 90
       23
 70
     0
 43
0.0
 10
383.7582092285
 20
77.0929953003
 10
383.6957116699
 20
76.53049804689999
 10
383.5707165526999
 20
75.96800079350001
 10
383.4456958008
 20
75.6555001831
 10
383.3207006836
 20
75.5304986572
 10
383.1957055664
 20
75.5304986572
 10
383.0082128905999
 20
75.6555001831
 10
382.9457153319999
 20
75.90549682619998
 10
382.8832177733999
 20
76.1554998779
 10
382.8832177733999
 20
76.46800048829998
 10
383.0082128905999
 20
76.84299865719999
 10
383.3207006836
 20
77.0929953003
 10
383.7582092285
 20
77.0929953003
 10
384.0706970214997
 20
77.03049774170001
 10
384.3207128905999
 20
76.9054962158
 10
384.5082055664
 20
76.65549957279998
 10
384.570703125
 20
76.405496521
 10
384.570703125
 20
76.0929959106
 10
384.5082055664
 20
75.90549682619998
 10
384.3832104491998
 20
75.7179977417
 10
384.1957177733999
 20
75.5929962158
 10
384.0081994629
 20
75.5304986572
 10
383.7582092285
 20
75.4680010986
  0
LINE
  5
69F
330
685
100
AcDbEntity
  8
3_ALL_SYMBOLS
  6
Continuous
 62
     2
100
AcDbLine
 10
384.7581958008
 20
76.84299865719999
 30
0.0
 11
386.5082043456998
 21
76.84299865719999
 31
0.0
  0
LWPOLYLINE
  5
6A0
330
685
100
AcDbEntity
  8
3_ALL_SYMBOLS
  6
Continuous
 62
     2
100
AcDbPolyline
 90
        4
 70
     0
 43
0.0
 10
386.0706958008
 20
77.21799682619998
 10
386.0706958008
 20
75.5929962158
 10
385.9457006836
 20
75.4680010986
 10
385.3831970214999
 20
75.5929962158
  0
LINE
  5
6A1
330
685
100
AcDbEntity
  8
3_ALL_SYMBOLS
  6
Continuous
 62
     2
100
AcDbLine
 10
385.1957043456998
 20
76.53049804689999
 30
0.0
 11
385.5707153319999
 21
76.0304983521
 31
0.0
  0
LINE
  5
6A2
330
685
100
AcDbEntity
  8
3_ALL_SYMBOLS
  6
Continuous
 62
     2
100
AcDbLine
 10
386.8832153319999
 20
77.21799682619998
 30
0.0
 11
387.195703125
 21
76.9054962158
 31
0.0
  0
LINE
  5
6A3
330
685
100
AcDbEntity
  8
3_ALL_SYMBOLS
  6
Continuous
 62
     2
100
AcDbLine
 10
386.7581945801
 20
76.7805010986
 30
0.0
 11
387.0707080077999
 21
76.46800048829998
 31
0.0
  0
LWPOLYLINE
  5
6A4
330
685
100
AcDbEntity
  8
3_ALL_SYMBOLS
  6
Continuous
 62
     2
100
AcDbPolyline
 90
        3
 70
     0
 43
0.0
 10
386.7581945801
 20
75.5304986572
 10
387.0082104491999
 20
75.8429992676
 10
387.195703125
 20
76.2179974365
  0
LWPOLYLINE
  5
6A5
330
685
100
AcDbEntity
  8
3_ALL_SYMBOLS
  6
Continuous
 62
     2
100
AcDbPolyline
 90
        3
 70
     0
 43
0.0
 10
387.3831958008
 20
76.9680001831
 10
388.4457055664
 20
76.9680001831
 10
388.508203125
 20
76.9680001831
  0
LINE
  5
6A6
330
685
100
AcDbEntity
  8
3_ALL_SYMBOLS
  6
Continuous
 62
     2
100
AcDbLine
 10
387.9456994628997
 20
77.28050079350001
 30
0.0
 11
387.9456994628997
 21
76.405496521
 31
0.0
  0
LINE
  5
6A7
330
685
100
AcDbEntity
  8
3_ALL_SYMBOLS
  6
Continuous
 62
     2
100
AcDbLine
 10
387.3206982422
 20
76.405496521
 30
0.0
 11
388.5707006836
 21
76.405496521
 31
0.0
  0
LINE
  5
6A8
330
685
100
AcDbEntity
  8
3_ALL_SYMBOLS
  6
Continuous
 62
     2
100
AcDbLine
 10
387.9456994628997
 20
76.405496521
 30
0.0
 11
387.5082165527
 21
75.5304986572
 31
0.0
  0
LINE
  5
6A9
330
685
100
AcDbEntity
  8
3_ALL_SYMBOLS
  6
Continuous
 62
     2
100
AcDbLine
 10
387.3206982422
 20
75.4680010986
 30
0.0
 11
388.4457055664
 21
75.7179977417
 31
0.0
  0
LINE
  5
6AA
330
685
100
AcDbEntity
  8
3_ALL_SYMBOLS
  6
Continuous
 62
     2
100
AcDbLine
 10
388.1957153319999
 20
76.0929959106
 30
0.0
 11
388.5707006836
 21
75.4680010986
 31
0.0
  0
LWPOLYLINE
  5
6AB
330
685
100
AcDbEntity
  8
3_ALL_SYMBOLS
  6
Continuous
 62
     2
100
AcDbPolyline
 90
        3
 70
     0
 43
0.0
 10
388.9457116698999
 20
77.28050079350001
 10
388.8832141112998
 20
76.2805014038
 10
388.9457116698999
 20
75.4680010986
  0
LWPOLYLINE
  5
6AC
330
685
100
AcDbEntity
  8
3_ALL_SYMBOLS
  6
Continuous
 62
     2
100
AcDbPolyline
 90
        4
 70
     0
 43
0.0
 10
389.2581994628999
 20
77.03049774170001
 10
389.8832006836
 20
77.03049774170001
 10
390.3207092285
 20
76.9680001831
 10
389.9456982422
 20
76.5929956055
  0
LWPOLYLINE
  5
6AD
330
685
100
AcDbEntity
  8
3_ALL_SYMBOLS
  6
Continuous
 62
     2
100
AcDbPolyline
 90
        8
 70
     0
 43
0.0
 10
389.3831945801
 20
76.1554998779
 10
389.2581994628999
 20
75.96800079350001
 10
389.1957019043
 20
75.8429992676
 10
389.1957019043
 20
75.7179977417
 10
389.2581994628999
 20
75.6555001831
 10
389.6957080077999
 20
75.5929962158
 10
390.1332165527
 20
75.5929962158
 10
390.5082019043
 20
75.6555001831
  0
LWPOLYLINE
  5
6AE
330
685
100
AcDbEntity
  8
3_ALL_SYMBOLS
  6
Continuous
 62
     2
100
AcDbPolyline
 90
        3
 70
     0
 43
0.0
 10
390.8207153319999
 20
76.9680001831
 10
391.6332092285
 20
76.9680001831
 10
391.6957067870998
 20
76.9680001831
  0
LINE
  5
6AF
330
685
100
AcDbEntity
  8
3_ALL_SYMBOLS
  6
Continuous
 62
     2
100
AcDbLine
 10
391.2581982422
 20
76.9680001831
 30
0.0
 11
391.2581982422
 21
77.28050079350001
 31
0.0
  0
LWPOLYLINE
  5
6B0
330
685
100
AcDbEntity
  8
3_ALL_SYMBOLS
  6
Continuous
 62
     2
100
AcDbPolyline
 90
        5
 70
     0
 43
0.0
 10
391.5082141112998
 20
76.9680001831
 10
391.3831933594
 20
76.53049804689999
 10
391.2581982422
 20
76.1554998779
 10
391.0707055664
 20
75.8429992676
 10
390.7582177733999
 20
75.4680010986
  0
LINE
  5
6B1
330
685
100
AcDbEntity
  8
3_ALL_SYMBOLS
  6
Continuous
 62
     2
100
AcDbLine
 10
390.8832128905999
 20
76.7805010986
 30
0.0
 11
391.5707116699
 21
75.6555001831
 31
0.0
  0
LINE
  5
6B2
330
685
100
AcDbEntity
  8
3_ALL_SYMBOLS
  6
Continuous
 62
     2
100
AcDbLine
 10
391.7582043457
 20
76.84299865719999
 30
0.0
 11
392.5706982422
 21
76.84299865719999
 31
0.0
  0
LWPOLYLINE
  5
6B3
330
685
100
AcDbEntity
  8
3_ALL_SYMBOLS
  6
Continuous
 62
     2
100
AcDbPolyline
 90
        5
 70
     0
 43
0.0
 10
392.3207080077999
 20
77.28050079350001
 10
392.3207080077999
 20
75.5304986572
 10
392.2582104491999
 20
75.4680010986
 10
392.1957128905999
 20
75.4680010986
 10
391.8207019042998
 20
75.5929962158
  0
LINE
  5
6B4
330
685
100
AcDbEntity
  8
3_ALL_SYMBOLS
  6
Continuous
 62
     2
100
AcDbLine
 10
391.7582043457
 20
76.5929956055
 30
0.0
 11
392.0707177733999
 21
75.96800079350001
 31
0.0
  0
LINE
  5
6B5
330
685
100
AcDbEntity
  8
3_ALL_SYMBOLS
  6
Continuous
 62
     2
100
AcDbLine
 10
392.8207141112999
 20
76.9680001831
 30
0.0
 11
394.5706970214999
 21
76.9680001831
 31
0.0
  0
LWPOLYLINE
  5
6B6
330
685
100
AcDbEntity
  8
3_ALL_SYMBOLS
  6
Continuous
 62
     2
100
AcDbPolyline
 90
       17
 70
     0
 43
0.0
 10
394.1332141112998
 20
77.28050079350001
 10
394.1332141112998
 20
76.2179974365
 10
394.0707165526998
 20
76.0929959106
 10
393.9456958008
 20
75.96800079350001
 10
393.6957055664
 20
75.90549682619998
 10
393.4457153319998
 20
75.90549682619998
 10
393.2581970215
 20
75.96800079350001
 10
393.1332019042998
 20
76.0929959106
 10
393.0707043457
 20
76.2179974365
 10
393.0707043457
 20
76.3429989624
 10
393.1332019042998
 20
76.53049804689999
 10
393.2581970215
 20
76.65549957279998
 10
393.4457153319998
 20
76.71799713129998
 10
393.758203125
 20
76.71799713129998
 10
393.9456958008
 20
76.65549957279998
 10
394.0707165526998
 20
76.53049804689999
 10
394.1332141112998
 20
76.405496521
  0
LWPOLYLINE
  5
6B7
330
685
100
AcDbEntity
  8
3_ALL_SYMBOLS
  6
Continuous
 62
     2
100
AcDbPolyline
 90
        6
 70
     0
 43
0.0
 10
394.1332141112998
 20
76.2179974365
 10
394.1332141112998
 20
75.96800079350001
 10
394.0707165526998
 20
75.7804953003
 10
393.9456958008
 20
75.6555001831
 10
393.758203125
 20
75.5304986572
 10
393.3832177733999
 20
75.4680010986
  0
LWPOLYLINE
  5
6B8
330
685
100
AcDbEntity
  8
3_ALL_SYMBOLS
  6
Continuous
 62
     2
100
AcDbPolyline
 90
       25
 70
     0
 43
0.0
 10
395.070703125
 20
77.0929953003
 10
396.1957104491999
 20
77.0929953003
 10
394.8832104491998
 20
76.1554998779
 10
395.5707092284999
 20
76.53049804689999
 10
395.9456945800997
 20
76.5929956055
 10
396.2582080077999
 20
76.5929956055
 10
396.4457006836
 20
76.53049804689999
 10
396.5706958008
 20
76.3429989624
 10
396.5706958008
 20
76.1554998779
 10
396.5706958008
 20
76.0929959106
 10
396.5081982422
 20
75.96800079350001
 10
396.383203125
 20
75.7804953003
 10
396.1957104491999
 20
75.6555001831
 10
395.9456945800997
 20
75.5929962158
 10
395.6332067871
 20
75.5929962158
 10
395.3832165526998
 20
75.6555001831
 10
395.1956982422
 20
75.7804953003
 10
395.1332006836
 20
75.8429992676
 10
395.1332006836
 20
75.90549682619998
 10
395.1956982422
 20
75.96800079350001
 10
395.3206933594
 20
76.0304983521
 10
395.5082116699
 20
76.0304983521
 10
395.6957043456998
 20
75.96800079350001
 10
395.8206994629
 20
75.8429992676
 10
395.9456945800997
 20
75.5929962158
  0
LINE
  5
6B9
330
685
100
AcDbEntity
  8
3_ALL_SYMBOLS
  6
Continuous
 62
     2
100
AcDbLine
 10
396.7582141113
 20
76.84299865719999
 30
0.0
 11
398.5081970214999
 21
76.84299865719999
 31
0.0
  0
LWPOLYLINE
  5
6BA
330
685
100
AcDbEntity
  8
3_ALL_SYMBOLS
  6
Continuous
 62
     2
100
AcDbPolyline
 90
        4
 70
     0
 43
0.0
 10
398.0707141113
 20
77.21799682619998
 10
398.0707141113
 20
75.5929962158
 10
397.9456933594
 20
75.4680010986
 10
397.3832153319999
 20
75.5929962158
  0
LINE
  5
6BB
330
685
100
AcDbEntity
  8
3_ALL_SYMBOLS
  6
Continuous
 62
     2
100
AcDbLine
 10
397.1956970215
 20
76.53049804689999
 30
0.0
 11
397.5707080077999
 21
76.0304983521
 31
0.0
  0
LINE
  5
6BC
330
685
100
AcDbEntity
  8
3_ALL_SYMBOLS
  6
Continuous
 62
     2
100
AcDbLine
 10
398.8832080077999
 20
77.21799682619998
 30
0.0
 11
399.1956958008
 21
76.9054962158
 31
0.0
  0
LINE
  5
6BD
330
685
100
AcDbEntity
  8
3_ALL_SYMBOLS
  6
Continuous
 62
     2
100
AcDbLine
 10
398.7582128905998
 20
76.7805010986
 30
0.0
 11
399.0707006836
 21
76.46800048829998
 31
0.0
  0
LWPOLYLINE
  5
6BE
330
685
100
AcDbEntity
  8
3_ALL_SYMBOLS
  6
Continuous
 62
     2
100
AcDbPolyline
 90
        3
 70
     0
 43
0.0
 10
398.7582128905998
 20
75.5304986572
 10
399.008203125
 20
75.8429992676
 10
399.1956958008
 20
76.2179974365
  0
LWPOLYLINE
  5
6BF
330
685
100
AcDbEntity
  8
3_ALL_SYMBOLS
  6
Continuous
 62
     2
100
AcDbPolyline
 90
        3
 70
     0
 43
0.0
 10
399.3832141113
 20
76.9680001831
 10
400.4456982421998
 20
76.9680001831
 10
400.5081958008
 20
76.9680001831
  0
LINE
  5
6C0
330
685
100
AcDbEntity
  8
3_ALL_SYMBOLS
  6
Continuous
 62
     2
100
AcDbLine
 10
399.9457177733999
 20
77.28050079350001
 30
0.0
 11
399.9457177733999
 21
76.405496521
 31
0.0
  0
LINE
  5
6C1
330
685
100
AcDbEntity
  8
3_ALL_SYMBOLS
  6
Continuous
 62
     2
100
AcDbLine
 10
399.3207165527
 20
76.405496521
 30
0.0
 11
400.5706933594
 21
76.405496521
 31
0.0
  0
LINE
  5
6C2
330
685
100
AcDbEntity
  8
3_ALL_SYMBOLS
  6
Continuous
 62
     2
100
AcDbLine
 10
399.9457177733999
 20
76.405496521
 30
0.0
 11
399.5082092285
 21
75.5304986572
 31
0.0
  0
LINE
  5
6C3
330
685
100
AcDbEntity
  8
3_ALL_SYMBOLS
  6
Continuous
 62
     2
100
AcDbLine
 10
399.3207165527
 20
75.4680010986
 30
0.0
 11
400.4456982421998
 21
75.7179977417
 31
0.0
  0
LINE
  5
6C4
330
685
100
AcDbEntity
  8
3_ALL_SYMBOLS
  6
Continuous
 62
     2
100
AcDbLine
 10
400.1957080077999
 20
76.0929959106
 30
0.0
 11
400.5706933594
 21
75.4680010986
 31
0.0
  0
LINE
  5
6C5
330
685
100
AcDbEntity
  8
3_ALL_SYMBOLS
  6
Continuous
 62
     2
100
AcDbLine
 10
400.9457043457
 20
76.65549957279998
 30
0.0
 11
402.3831994628999
 21
76.65549957279998
 31
0.0
  0
LINE
  5
6C6
330
685
100
AcDbEntity
  8
3_ALL_SYMBOLS
  6
Continuous
 62
     2
100
AcDbLine
 10
400.8207092284999
 20
76.3429989624
 30
0.0
 11
402.5081945801
 21
76.3429989624
 31
0.0
  0
LINE
  5
6C7
330
685
100
AcDbEntity
  8
3_ALL_SYMBOLS
  6
Continuous
 62
     2
100
AcDbLine
 10
401.6957006835998
 20
76.9680001831
 30
0.0
 11
401.6957006835998
 21
76.3429989624
 31
0.0
  0
LINE
  5
6C8
330
685
100
AcDbEntity
  8
3_ALL_SYMBOLS
  6
Continuous
 62
     2
100
AcDbLine
 10
402.1957067870998
 20
77.28050079350001
 30
0.0
 11
402.0082141112998
 21
76.9680001831
 31
0.0
  0
LINE
  5
6C9
330
685
100
AcDbEntity
  8
3_ALL_SYMBOLS
  6
Continuous
 62
     2
100
AcDbLine
 10
401.3832128905999
 20
76.9680001831
 30
0.0
 11
401.1956945800998
 21
77.28050079350001
 31
0.0
  0
LINE
  5
6CA
330
685
100
AcDbEntity
  8
3_ALL_SYMBOLS
  6
Continuous
 62
     2
100
AcDbLine
 10
400.8832067871
 20
76.9680001831
 30
0.0
 11
402.4456970214997
 21
76.9680001831
 31
0.0
  0
LINE
  5
6CB
330
685
100
AcDbEntity
  8
3_ALL_SYMBOLS
  6
Continuous
 62
     2
100
AcDbLine
 10
401.3832128905999
 20
76.3429989624
 30
0.0
 11
400.7582116698999
 21
75.4680010986
 31
0.0
  0
LINE
  5
6CC
330
685
100
AcDbEntity
  8
3_ALL_SYMBOLS
  6
Continuous
 62
     2
100
AcDbLine
 10
401.4457104492
 20
76.0929959106
 30
0.0
 11
402.4456970214997
 21
76.0929959106
 31
0.0
  0
LINE
  5
6CD
330
685
100
AcDbEntity
  8
3_ALL_SYMBOLS
  6
Continuous
 62
     2
100
AcDbLine
 10
401.9457165527
 20
76.0929959106
 30
0.0
 11
401.9457165527
 21
75.5304986572
 31
0.0
  0
LINE
  5
6CE
330
685
100
AcDbEntity
  8
3_ALL_SYMBOLS
  6
Continuous
 62
     2
100
AcDbLine
 10
401.1956945800998
 20
75.5304986572
 30
0.0
 11
402.5707177733996
 21
75.5304986572
 31
0.0
  0
LWPOLYLINE
  5
6CF
330
685
100
AcDbEntity
  8
3_ALL_SYMBOLS
  6
Continuous
 62
     2
100
AcDbPolyline
 90
       10
 70
     0
 43
0.0
 10
372.8831982422
 20
74.2804962158
 10
372.6957055664
 20
74.15550109859998
 10
372.5707104491998
 20
74.0304995728
 10
372.4457153319999
 20
73.84300048829998
 10
372.3832177733999
 20
73.5304998779
 10
372.3832177733999
 20
73.2179992676
 10
372.4457153319999
 20
72.9054986572
 10
372.5707104491998
 20
72.71799957279998
 10
372.6957055664
 20
72.59299804689999
 10
372.8831982422
 20
72.467996521
  0
LWPOLYLINE
  5
6D0
330
685
100
AcDbEntity
  8
3_ALL_SYMBOLS
  6
Continuous
 62
     2
100
AcDbPolyline
 90
       11
 70
     0
 43
0.0
 10
375.1957104491999
 20
74.2804962158
 10
375.1957104491999
 20
73.0305001831
 10
375.1332128905999
 20
72.78049713129998
 10
375.0707153319999
 20
72.65549560550001
 10
374.9456945801
 20
72.53050048829995
 10
374.8206994629
 20
72.467996521
 10
374.5082116698998
 20
72.467996521
 10
374.3206933594
 20
72.53050048829995
 10
374.1956982422
 20
72.65549560550001
 10
374.1332006836
 20
72.78049713129998
 10
374.070703125
 20
72.96799621579999
  0
LINE
  5
6D1
330
685
100
AcDbEntity
  8
3_ALL_SYMBOLS
  6
Continuous
 62
     2
100
AcDbLine
 10
376.695703125
 20
74.2804962158
 30
0.0
 11
376.695703125
 21
72.467996521
 31
0.0
  0
LINE
  5
6D2
330
685
100
AcDbEntity
  8
3_ALL_SYMBOLS
  6
Continuous
 62
     2
100
AcDbLine
 10
376.5082104491999
 20
72.467996521
 30
0.0
 11
376.8831958008
 21
72.467996521
 31
0.0
  0
LINE
  5
6D3
330
685
100
AcDbEntity
  8
3_ALL_SYMBOLS
  6
Continuous
 62
     2
100
AcDbLine
 10
376.5082104491999
 20
74.2804962158
 30
0.0
 11
376.8831958008
 21
74.2804962158
 31
0.0
  0
LWPOLYLINE
  5
6D4
330
685
100
AcDbEntity
  8
3_ALL_SYMBOLS
  6
Continuous
 62
     2
100
AcDbPolyline
 90
       22
 70
     0
 43
0.0
 10
379.3832006836
 20
73.9054980469
 10
379.2582055664
 20
74.0929971313
 10
379.0707128905999
 20
74.2179986572
 10
378.8206970215
 20
74.2804962158
 10
378.5082092285
 20
74.2804962158
 10
378.1956958008
 20
74.2179986572
 10
378.0707006836
 20
74.0929971313
 10
378.008203125
 20
73.9054980469
 10
378.008203125
 20
73.7179989624
 10
378.1956958008
 20
73.5304998779
 10
378.3832141112998
 20
73.46799591060001
 10
378.9457177733999
 20
73.34300079350001
 10
379.2582055664
 20
73.2179992676
 10
379.3832006836
 20
73.0305001831
 10
379.3832006836
 20
72.78049713129998
 10
379.320703125
 20
72.65549560550001
 10
379.1957080077999
 20
72.53050048829995
 10
378.8831945801
 20
72.467996521
 10
378.5707067870998
 20
72.467996521
 10
378.2581933594
 20
72.53050048829995
 10
378.0707006836
 20
72.65549560550001
 10
377.9457055664
 20
72.8430010986
  0
LWPOLYLINE
  5
6D5
330
685
100
AcDbEntity
  8
3_ALL_SYMBOLS
  6
Continuous
 62
     2
100
AcDbPolyline
 90
       11
 70
     0
 43
0.0
 10
382.0706982422
 20
74.2804962158
 10
382.0706982422
 20
72.53050048829995
 10
383.0707104491999
 20
72.53050048829995
 10
383.258203125
 20
72.59299804689999
 10
383.3831982422
 20
72.71799957279998
 10
383.4456958008
 20
72.9054986572
 10
383.4456958008
 20
73.0305001831
 10
383.3831982422
 20
73.2179992676
 10
383.258203125
 20
73.34300079350001
 10
383.0707104491999
 20
73.4054983521
 10
382.0706982422
 20
73.4054983521
  0
LWPOLYLINE
  5
6D6
330
685
100
AcDbEntity
  8
3_ALL_SYMBOLS
  6
Continuous
 62
     2
100
AcDbPolyline
 90
        9
 70
     0
 43
0.0
 10
382.0706982422
 20
74.2804962158
 10
383.0707104491999
 20
74.2804962158
 10
383.258203125
 20
74.2179986572
 10
383.3831982422
 20
74.0929971313
 10
383.4456958008
 20
73.9054980469
 10
383.4456958008
 20
73.780496521
 10
383.3831982422
 20
73.5929974365
 10
383.258203125
 20
73.46799591060001
 10
383.0707104491999
 20
73.4054983521
  0
LWPOLYLINE
  5
6D7
330
685
100
AcDbEntity
  8
3_ALL_SYMBOLS
  6
Continuous
 62
     2
100
AcDbPolyline
 90
       25
 70
     0
 43
0.0
 10
386.7581945801
 20
74.2804962158
 10
386.5707019043
 20
74.2804962158
 10
386.3832092284999
 20
74.2179986572
 10
386.2582141113
 20
74.15550109859998
 10
386.1331933594
 20
74.0304995728
 10
386.0081982422
 20
73.84300048829998
 10
385.9457006836
 20
73.5304998779
 10
385.9457006836
 20
73.2179992676
 10
386.0081982422
 20
72.9054986572
 10
386.1331933594
 20
72.71799957279998
 10
386.2582141113
 20
72.59299804689999
 10
386.3832092284999
 20
72.53050048829995
 10
386.5707019043
 20
72.467996521
 10
386.7581945801
 20
72.467996521
 10
386.9457128905999
 20
72.53050048829995
 10
387.0707080077999
 20
72.59299804689999
 10
387.195703125
 20
72.71799957279998
 10
387.3206982422
 20
72.9054986572
 10
387.3831958008
 20
73.2179992676
 10
387.3831958008
 20
73.5304998779
 10
387.3206982422
 20
73.84300048829998
 10
387.195703125
 20
74.0304995728
 10
387.0707080077999
 20
74.15550109859998
 10
386.9457128905999
 20
74.2179986572
 10
386.7581945801
 20
74.2804962158
  0
LWPOLYLINE
  5
6D8
330
685
100
AcDbEntity
  8
3_ALL_SYMBOLS
  6
Continuous
 62
     2
100
AcDbPolyline
 90
        4
 70
     0
 43
0.0
 10
389.0707067870998
 20
72.467996521
 10
389.0707067870998
 20
74.2804962158
 10
387.8832019043
 20
72.9054986572
 10
389.3831945801
 20
72.9054986572
  0
LWPOLYLINE
  5
6D9
330
685
100
AcDbEntity
  8
3_ALL_SYMBOLS
  6
Continuous
 62
     2
100
AcDbPolyline
 90
       25
 70
     0
 43
0.0
 10
390.7582177733999
 20
74.2804962158
 10
390.5706994628999
 20
74.2804962158
 10
390.3832067870998
 20
74.2179986572
 10
390.2582116698998
 20
74.15550109859998
 10
390.1332165527
 20
74.0304995728
 10
390.0081958008
 20
73.84300048829998
 10
389.9456982422
 20
73.5304998779
 10
389.9456982422
 20
73.2179992676
 10
390.0081958008
 20
72.9054986572
 10
390.1332165527
 20
72.71799957279998
 10
390.2582116698998
 20
72.59299804689999
 10
390.3832067870998
 20
72.53050048829995
 10
390.5706994628999
 20
72.467996521
 10
390.7582177733999
 20
72.467996521
 10
390.9457104491999
 20
72.53050048829995
 10
391.0707055664
 20
72.59299804689999
 10
391.1957006836
 20
72.71799957279998
 10
391.3206958008
 20
72.9054986572
 10
391.3831933594
 20
73.2179992676
 10
391.3831933594
 20
73.5304998779
 10
391.3206958008
 20
73.84300048829998
 10
391.1957006836
 20
74.0304995728
 10
391.0707055664
 20
74.15550109859998
 10
390.9457104491999
 20
74.2179986572
 10
390.7582177733999
 20
74.2804962158
  0
LINE
  5
6DA
330
685
100
AcDbEntity
  8
3_ALL_SYMBOLS
  6
Continuous
 62
     2
100
AcDbLine
 10
391.9456970215
 20
74.2804962158
 30
0.0
 11
393.3832177733999
 21
74.2804962158
 31
0.0
  0
LWPOLYLINE
  5
6DB
330
685
100
AcDbEntity
  8
3_ALL_SYMBOLS
  6
Continuous
 62
     2
100
AcDbPolyline
 90
       19
 70
     0
 43
0.0
 10
391.9456970215
 20
74.2804962158
 10
391.9456970215
 20
73.4054983521
 10
392.1332153319998
 20
73.5304998779
 10
392.2582104491999
 20
73.5929974365
 10
392.5082006836
 20
73.6555014038
 10
392.7582165526998
 20
73.6555014038
 10
393.0082067871
 20
73.5929974365
 10
393.1956994629
 20
73.46799591060001
 10
393.3206945801
 20
73.34300079350001
 10
393.3832177733999
 20
73.2179992676
 10
393.3832177733999
 20
72.96799621579999
 10
393.3206945801
 20
72.78049713129998
 10
393.1956994629
 20
72.65549560550001
 10
393.0082067871
 20
72.53050048829995
 10
392.7582165526998
 20
72.467996521
 10
392.5082006836
 20
72.467996521
 10
392.3207080077999
 20
72.53050048829995
 10
392.0707177733999
 20
72.65549560550001
 10
391.9456970215
 20
72.78049713129998
  0
LWPOLYLINE
  5
6DC
330
685
100
AcDbEntity
  8
3_ALL_SYMBOLS
  6
Continuous
 62
     2
100
AcDbPolyline
 90
        3
 70
     0
 43
0.0
 10
395.9456945800997
 20
74.2804962158
 10
396.6331933594
 20
72.467996521
 10
397.3832153319999
 20
74.2804962158
  0
LINE
  5
6DD
330
685
100
AcDbEntity
  8
3_ALL_SYMBOLS
  6
Continuous
 62
     2
100
AcDbLine
 10
398.1332116698999
 20
74.2804962158
 30
0.0
 11
397.9456933594
 21
73.9054980469
 31
0.0
  0
LINE
  5
6DE
330
685
100
AcDbEntity
  8
3_ALL_SYMBOLS
  6
Continuous
 62
     2
100
AcDbLine
 10
397.8206982422
 20
74.0304995728
 30
0.0
 11
398.0707141113
 21
73.6555014038
 31
0.0
  0
LINE
  5
6DF
330
685
100
AcDbEntity
  8
3_ALL_SYMBOLS
  6
Continuous
 62
     2
100
AcDbLine
 10
398.3832019043
 20
74.0929971313
 30
0.0
 11
397.8831958008
 21
73.34300079350001
 31
0.0
  0
LINE
  5
6E0
330
685
100
AcDbEntity
  8
3_ALL_SYMBOLS
  6
Continuous
 62
     2
100
AcDbLine
 10
397.7582006836
 20
73.34300079350001
 30
0.0
 11
398.3207043456998
 21
73.4054983521
 31
0.0
  0
LINE
  5
6E1
330
685
100
AcDbEntity
  8
3_ALL_SYMBOLS
  6
Continuous
 62
     2
100
AcDbLine
 10
398.3207043456998
 20
73.5929974365
 30
0.0
 11
398.4456994628999
 21
73.28049682619997
 31
0.0
  0
LINE
  5
6E2
330
685
100
AcDbEntity
  8
3_ALL_SYMBOLS
  6
Continuous
 62
     2
100
AcDbLine
 10
398.3207043456998
 20
73.4054983521
 30
0.0
 11
398.3832019043
 21
73.4054983521
 31
0.0
  0
LINE
  5
6E3
330
685
100
AcDbEntity
  8
3_ALL_SYMBOLS
  6
Continuous
 62
     2
100
AcDbLine
 10
398.1332116698999
 20
73.34300079350001
 30
0.0
 11
398.1332116698999
 21
72.467996521
 31
0.0
  0
LINE
  5
6E4
330
685
100
AcDbEntity
  8
3_ALL_SYMBOLS
  6
Continuous
 62
     2
100
AcDbLine
 10
397.7582006836
 20
72.53050048829995
 30
0.0
 11
397.9456933594
 21
73.15549530030001
 31
0.0
  0
LINE
  5
6E5
330
685
100
AcDbEntity
  8
3_ALL_SYMBOLS
  6
Continuous
 62
     2
100
AcDbLine
 10
398.3207043456998
 20
73.2179992676
 30
0.0
 11
398.3832019043
 21
72.9054986572
 31
0.0
  0
LWPOLYLINE
  5
6E6
330
685
100
AcDbEntity
  8
3_ALL_SYMBOLS
  6
Continuous
 62
     2
100
AcDbPolyline
 90
        5
 70
     0
 43
0.0
 10
398.2582067871
 20
72.53050048829995
 10
398.5081970214999
 20
72.9054986572
 10
398.6957153319999
 20
73.28049682619997
 10
398.8207104491999
 20
73.780496521
 10
398.8207104491999
 20
74.2179986572
  0
LWPOLYLINE
  5
6E7
330
685
100
AcDbEntity
  8
3_ALL_SYMBOLS
  6
Continuous
 62
     2
100
AcDbPolyline
 90
        9
 70
     0
 43
0.0
 10
398.5081970214999
 20
74.2179986572
 10
399.3207165527
 20
74.2179986572
 10
399.1956958008
 20
73.7179989624
 10
399.4457116698999
 20
73.7179989624
 10
399.5082092285
 20
73.6555014038
 10
399.4457116698999
 20
73.34300079350001
 10
399.1956958008
 20
72.96799621579999
 10
398.8832080077999
 20
72.65549560550001
 10
398.5706945801
 20
72.467996521
  0
LWPOLYLINE
  5
6E8
330
685
100
AcDbEntity
  8
3_ALL_SYMBOLS
  6
Continuous
 62
     2
100
AcDbPolyline
 90
        5
 70
     0
 43
0.0
 10
398.8207104491999
 20
73.780496521
 10
398.9457055664
 20
73.34300079350001
 10
399.1331982422
 20
72.9054986572
 10
399.3207165527
 20
72.65549560550001
 10
399.5707067870998
 20
72.467996521
  0
LINE
  5
6E9
330
685
100
AcDbEntity
  8
3_ALL_SYMBOLS
  6
Continuous
 62
     2
100
AcDbLine
 10
399.8206970214997
 20
74.2179986572
 30
0.0
 11
400.1332104491998
 21
73.9679956055
 31
0.0
  0
LINE
  5
6EA
330
685
100
AcDbEntity
  8
3_ALL_SYMBOLS
  6
Continuous
 62
     2
100
AcDbLine
 10
399.7581994628997
 20
73.84300048829998
 30
0.0
 11
400.0707128905998
 21
73.5929974365
 31
0.0
  0
LWPOLYLINE
  5
6EB
330
685
100
AcDbEntity
  8
3_ALL_SYMBOLS
  6
Continuous
 62
     2
100
AcDbPolyline
 90
        3
 70
     0
 43
0.0
 10
399.7581994628997
 20
73.0305001831
 10
400.0707128905998
 20
73.28049682619997
 10
400.2582055663998
 20
73.5304998779
  0
LWPOLYLINE
  5
6EC
330
685
100
AcDbEntity
  8
3_ALL_SYMBOLS
  6
Continuous
 62
     2
100
AcDbPolyline
 90
        3
 70
     0
 43
0.0
 10
400.1332104491998
 20
73.780496521
 10
400.4456982421998
 20
74.0304995728
 10
400.5706933594
 20
74.2804962158
  0
LWPOLYLINE
  5
6ED
330
685
100
AcDbEntity
  8
3_ALL_SYMBOLS
  6
Continuous
 62
     2
100
AcDbPolyline
 90
        3
 70
     0
 43
0.0
 10
400.4456982421998
 20
74.0304995728
 10
400.4456982421998
 20
73.0929977417
 10
401.5082080077998
 20
73.0929977417
  0
LINE
  5
6EE
330
685
100
AcDbEntity
  8
3_ALL_SYMBOLS
  6
Continuous
 62
     2
100
AcDbLine
 10
400.4456982421998
 20
73.4054983521
 30
0.0
 11
401.4457104492
 21
73.4054983521
 31
0.0
  0
LINE
  5
6EF
330
685
100
AcDbEntity
  8
3_ALL_SYMBOLS
  6
Continuous
 62
     2
100
AcDbLine
 10
400.4456982421998
 20
73.7179989624
 30
0.0
 11
401.4457104492
 21
73.7179989624
 31
0.0
  0
LINE
  5
6F0
330
685
100
AcDbEntity
  8
3_ALL_SYMBOLS
  6
Continuous
 62
     2
100
AcDbLine
 10
400.4456982421998
 20
74.0304995728
 30
0.0
 11
401.5082080077998
 21
74.0304995728
 31
0.0
  0
LINE
  5
6F1
330
685
100
AcDbEntity
  8
3_ALL_SYMBOLS
  6
Continuous
 62
     2
100
AcDbLine
 10
400.9457043457
 20
74.0304995728
 30
0.0
 11
400.9457043457
 21
73.0929977417
 31
0.0
  0
LINE
  5
6F2
330
685
100
AcDbEntity
  8
3_ALL_SYMBOLS
  6
Continuous
 62
     2
100
AcDbLine
 10
400.9457043457
 20
74.0304995728
 30
0.0
 11
401.0706994629
 21
74.2804962158
 31
0.0
  0
LINE
  5
6F3
330
685
100
AcDbEntity
  8
3_ALL_SYMBOLS
  6
Continuous
 62
     2
100
AcDbLine
 10
399.7581994628997
 20
72.8430010986
 30
0.0
 11
401.5707055664
 21
72.8430010986
 31
0.0
  0
LINE
  5
6F4
330
685
100
AcDbEntity
  8
3_ALL_SYMBOLS
  6
Continuous
 62
     2
100
AcDbLine
 10
400.6332165526997
 20
73.0929977417
 30
0.0
 11
400.6332165526997
 21
72.467996521
 31
0.0
  0
LWPOLYLINE
  5
6F5
330
685
100
AcDbEntity
  8
3_ALL_SYMBOLS
  6
Continuous
 62
     2
100
AcDbPolyline
 90
        5
 70
     0
 43
0.0
 10
402.0082141112998
 20
74.2804962158
 10
402.0082141112998
 20
72.53050048829995
 10
401.9457165527
 20
72.467996521
 10
401.8831933593999
 20
72.467996521
 10
401.7581982422
 20
72.53050048829995
  0
LINE
  5
6F6
330
685
100
AcDbEntity
  8
3_ALL_SYMBOLS
  6
Continuous
 62
     2
100
AcDbLine
 10
401.7581982422
 20
73.0305001831
 30
0.0
 11
402.1957067870998
 21
73.34300079350001
 31
0.0
  0
LINE
  5
6F7
330
685
100
AcDbEntity
  8
3_ALL_SYMBOLS
  6
Continuous
 62
     2
100
AcDbLine
 10
401.7581982422
 20
73.84300048829998
 30
0.0
 11
402.1957067870998
 21
73.84300048829998
 31
0.0
  0
LWPOLYLINE
  5
6F8
330
685
100
AcDbEntity
  8
3_ALL_SYMBOLS
  6
Continuous
 62
     2
100
AcDbPolyline
 90
       10
 70
     0
 43
0.0
 10
402.1957067870998
 20
73.46799591060001
 10
402.3207019043
 20
73.7179989624
 10
402.3831994628999
 20
73.9679956055
 10
402.3831994628999
 20
74.2179986572
 10
402.6957128905999
 20
74.2179986572
 10
402.6957128905999
 20
73.780496521
 10
402.6332153319999
 20
73.4054983521
 10
402.5081945801
 20
73.0305001831
 10
402.3207019043
 20
72.65549560550001
 10
402.1957067870998
 20
72.467996521
  0
LWPOLYLINE
  5
6F9
330
685
100
AcDbEntity
  8
3_ALL_SYMBOLS
  6
Continuous
 62
     2
100
AcDbPolyline
 90
        7
 70
     0
 43
0.0
 10
402.3831994628999
 20
73.9679956055
 10
402.3831994628999
 20
73.5304998779
 10
402.5081945801
 20
73.0305001831
 10
402.6332153319999
 20
72.78049713129998
 10
402.8207080077999
 20
72.65549560550001
 10
403.1331958008
 20
72.53050048829995
 10
403.5707043457
 20
72.467996521
  0
LWPOLYLINE
  5
6FA
330
685
100
AcDbEntity
  8
3_ALL_SYMBOLS
  6
Continuous
 62
     2
100
AcDbPolyline
 90
       11
 70
     0
 43
0.0
 10
402.7582104491998
 20
72.9054986572
 10
402.8832055664
 20
73.15549530030001
 10
402.945703125
 20
73.46799591060001
 10
402.945703125
 20
74.2179986572
 10
403.2582165526996
 20
74.2179986572
 10
403.2582165526996
 20
73.0929977417
 10
403.2582165526996
 20
72.96799621579999
 10
403.3207141113
 20
72.9054986572
 10
403.5082067871
 20
72.9054986572
 10
403.5707043457
 20
72.96799621579999
 10
403.5707043457
 20
73.34300079350001
  0
LWPOLYLINE
  5
6FB
330
685
100
AcDbEntity
  8
3_ALL_SYMBOLS
  6
Continuous
 62
     2
100
AcDbPolyline
 90
       10
 70
     0
 43
0.0
 10
404.3831982422
 20
74.2804962158
 10
404.5707165527
 20
74.15550109859998
 10
404.6957116698996
 20
74.0304995728
 10
404.8207067871
 20
73.84300048829998
 10
404.8832043456997
 20
73.5304998779
 10
404.8832043456997
 20
73.2179992676
 10
404.8207067871
 20
72.9054986572
 10
404.6957116698996
 20
72.71799957279998
 10
404.5707165527
 20
72.59299804689999
 10
404.3831982422
 20
72.467996521
  0
LWPOLYLINE
  5
6FC
330
685
100
AcDbEntity
  8
3_ALL_SYMBOLS
  6
Continuous
 62
     2
100
AcDbPolyline
 90
        5
 70
     0
 43
0.0
 10
379.8207092285
 20
71.21800048829998
 10
379.8207092285
 20
69.842996521
 10
380.1956945800997
 20
69.842996521
 10
380.1956945800997
 20
71.21800048829998
 10
379.8207092285
 20
71.21800048829998
  0
LWPOLYLINE
  5
6FD
330
685
100
AcDbEntity
  8
3_ALL_SYMBOLS
  6
Continuous
 62
     2
100
AcDbPolyline
 90
        3
 70
     0
 43
0.0
 10
380.4457104491999
 20
71.21800048829998
 10
381.0082141112999
 20
71.21800048829998
 10
381.4456970215
 20
71.28049804689999
  0
LWPOLYLINE
  5
6FE
330
685
100
AcDbEntity
  8
3_ALL_SYMBOLS
  6
Continuous
 62
     2
100
AcDbPolyline
 90
        5
 70
     0
 43
0.0
 10
381.0082141112999
 20
71.21800048829998
 10
381.0082141112999
 20
69.5304959106
 10
380.9457165527
 20
69.4679983521
 10
380.8831933594
 20
69.4679983521
 10
380.5082080077998
 20
69.6554974365
  0
LINE
  5
6FF
330
685
100
AcDbEntity
  8
3_ALL_SYMBOLS
  6
Continuous
 62
     2
100
AcDbLine
 10
380.4457104491999
 20
70.15549713129999
 30
0.0
 11
381.5707177733999
 21
70.15549713129999
 31
0.0
  0
LINE
  5
700
330
685
100
AcDbEntity
  8
3_ALL_SYMBOLS
  6
Continuous
 62
     2
100
AcDbLine
 10
380.5082080077998
 20
70.9679974365
 30
0.0
 11
380.6957006836
 21
70.3429962158
 31
0.0
  0
LINE
  5
701
330
685
100
AcDbEntity
  8
3_ALL_SYMBOLS
  6
Continuous
 62
     2
100
AcDbLine
 10
381.2582043457
 20
70.3429962158
 30
0.0
 11
381.5081945800999
 21
70.9679974365
 31
0.0
  0
LWPOLYLINE
  5
702
330
685
100
AcDbEntity
  8
3_ALL_SYMBOLS
  6
Continuous
 62
     2
100
AcDbPolyline
 90
       21
 70
     0
 43
0.0
 10
381.7582104491999
 20
71.0929989624
 10
382.5707043457
 20
71.21800048829998
 10
382.1956933594
 20
70.84299591060001
 10
382.1331958008
 20
70.78049835209998
 10
382.0082006836
 20
70.59299926760001
 10
381.945703125
 20
70.46799774170001
 10
381.8832055664
 20
70.2180010986
 10
381.8832055664
 20
69.96799804689999
 10
381.945703125
 20
69.7804989624
 10
382.0082006836
 20
69.6554974365
 10
382.1331958008
 20
69.5304959106
 10
382.3207141113
 20
69.4679983521
 10
382.5707043457
 20
69.4679983521
 10
382.6956994629
 20
69.5304959106
 10
382.8206945800999
 20
69.6554974365
 10
382.9457153319999
 20
69.842996521
 10
383.0082128905999
 20
70.0304956055
 10
383.0707104491999
 20
70.28049865719999
 10
383.0707104491999
 20
70.5304953003
 10
383.0082128905999
 20
71.0305014038
 10
383.5707165526999
 20
70.3429962158
  0
LINE
  5
703
330
685
100
AcDbEntity
  8
3_ALL_SYMBOLS
  6
Continuous
 62
     2
100
AcDbLine
 10
383.3831982422
 20
71.28049804689999
 30
0.0
 11
383.5707165526999
 21
71.0929989624
 31
0.0
  0
LINE
  5
704
330
685
100
AcDbEntity
  8
3_ALL_SYMBOLS
  6
Continuous
 62
     2
100
AcDbLine
 10
383.258203125
 20
71.21800048829998
 30
0.0
 11
383.4456958008
 21
71.0305014038
 31
0.0
  0
LINE
  5
705
330
685
100
AcDbEntity
  8
3_ALL_SYMBOLS
  6
Continuous
 62
     2
100
AcDbLine
 10
383.7582092285
 20
70.84299591060001
 30
0.0
 11
385.5082177733999
 21
70.84299591060001
 31
0.0
  0
LWPOLYLINE
  5
706
330
685
100
AcDbEntity
  8
3_ALL_SYMBOLS
  6
Continuous
 62
     2
100
AcDbPolyline
 90
        4
 70
     0
 43
0.0
 10
385.0707092284999
 20
71.21800048829998
 10
385.0707092284999
 20
69.5929998779
 10
384.9457141112998
 20
69.4679983521
 10
384.3832104491998
 20
69.5929998779
  0
LINE
  5
707
330
685
100
AcDbEntity
  8
3_ALL_SYMBOLS
  6
Continuous
 62
     2
100
AcDbLine
 10
384.1957177733999
 20
70.5304953003
 30
0.0
 11
384.570703125
 21
70.0304956055
 31
0.0
  0
LINE
  5
708
330
685
100
AcDbEntity
  8
3_ALL_SYMBOLS
  6
Continuous
 62
     2
100
AcDbLine
 10
385.883203125
 20
71.21800048829998
 30
0.0
 11
386.1957165527
 21
70.9054998779
 31
0.0
  0
LINE
  5
709
330
685
100
AcDbEntity
  8
3_ALL_SYMBOLS
  6
Continuous
 62
     2
100
AcDbLine
 10
385.7582080077999
 20
70.78049835209998
 30
0.0
 11
386.0706958008
 21
70.46799774170001
 31
0.0
  0
LWPOLYLINE
  5
70A
330
685
100
AcDbEntity
  8
3_ALL_SYMBOLS
  6
Continuous
 62
     2
100
AcDbPolyline
 90
        3
 70
     0
 43
0.0
 10
385.7582080077999
 20
69.5304959106
 10
386.0081982422
 20
69.842996521
 10
386.1957165527
 20
70.2180010986
  0
LWPOLYLINE
  5
70B
330
685
100
AcDbEntity
  8
3_ALL_SYMBOLS
  6
Continuous
 62
     2
100
AcDbPolyline
 90
        3
 70
     0
 43
0.0
 10
386.3832092284999
 20
70.9679974365
 10
387.4456933594
 20
70.9679974365
 10
387.5082165527
 20
70.9679974365
  0
LINE
  5
70C
330
685
100
AcDbEntity
  8
3_ALL_SYMBOLS
  6
Continuous
 62
     2
100
AcDbLine
 10
386.9457128905999
 20
71.28049804689999
 30
0.0
 11
386.9457128905999
 21
70.4055001831
 31
0.0
  0
LINE
  5
70D
330
685
100
AcDbEntity
  8
3_ALL_SYMBOLS
  6
Continuous
 62
     2
100
AcDbLine
 10
386.3207116698998
 20
70.4055001831
 30
0.0
 11
387.5707141113
 21
70.4055001831
 31
0.0
  0
LINE
  5
70E
330
685
100
AcDbEntity
  8
3_ALL_SYMBOLS
  6
Continuous
 62
     2
100
AcDbLine
 10
386.9457128905999
 20
70.4055001831
 30
0.0
 11
386.5082043456998
 21
69.5304959106
 31
0.0
  0
LINE
  5
70F
330
685
100
AcDbEntity
  8
3_ALL_SYMBOLS
  6
Continuous
 62
     2
100
AcDbLine
 10
386.3207116698998
 20
69.4679983521
 30
0.0
 11
387.4456933594
 21
69.7180014038
 31
0.0
  0
LINE
  5
710
330
685
100
AcDbEntity
  8
3_ALL_SYMBOLS
  6
Continuous
 62
     2
100
AcDbLine
 10
387.195703125
 20
70.09299957279998
 30
0.0
 11
387.5707141113
 21
69.4679983521
 31
0.0
  0
LINE
  5
711
330
685
100
AcDbEntity
  8
3_ALL_SYMBOLS
  6
Continuous
 62
     2
100
AcDbLine
 10
401.0082019042997
 20
70.71800079350001
 30
0.0
 11
400.7582116698999
 21
70.46799774170001
 31
0.0
  0
LINE
  5
712
330
685
100
AcDbEntity
  8
3_ALL_SYMBOLS
  6
Continuous
 62
     2
100
AcDbLine
 10
401.0082019042997
 20
70.71800079350001
 30
0.0
 11
401.1956945800998
 21
71.0929989624
 31
0.0
  0
LWPOLYLINE
  5
713
330
685
100
AcDbEntity
  8
3_ALL_SYMBOLS
  6
Continuous
 62
     2
100
AcDbPolyline
 90
        5
 70
     0
 43
0.0
 10
401.2582177734
 20
71.28049804689999
 10
402.0082141112998
 20
71.28049804689999
 10
402.0707116698998
 20
71.21800048829998
 10
402.3207019043
 20
70.78049835209998
 10
402.5707177733996
 20
70.4055001831
  0
LINE
  5
714
330
685
100
AcDbEntity
  8
3_ALL_SYMBOLS
  6
Continuous
 62
     2
100
AcDbLine
 10
401.5707055664
 20
70.65549682619998
 30
0.0
 11
401.0082019042997
 21
69.5929998779
 31
0.0
  0
LINE
  5
715
330
685
100
AcDbEntity
  8
3_ALL_SYMBOLS
  6
Continuous
 62
     2
100
AcDbLine
 10
400.7582116698999
 20
69.5929998779
 30
0.0
 11
402.3207019043
 21
69.7180014038
 31
0.0
  0
LINE
  5
716
330
685
100
AcDbEntity
  8
3_ALL_SYMBOLS
  6
Continuous
 62
     2
100
AcDbLine
 10
401.9457165527
 20
70.3429962158
 30
0.0
 11
402.5707177733996
 21
69.4679983521
 31
0.0
  0
LINE
  5
717
330
685
100
AcDbEntity
  8
3_ALL_SYMBOLS
  6
Continuous
 62
     2
100
AcDbLine
 10
402.945703125
 20
70.65549682619998
 30
0.0
 11
404.3831982422
 21
70.65549682619998
 31
0.0
  0
LINE
  5
718
330
685
100
AcDbEntity
  8
3_ALL_SYMBOLS
  6
Continuous
 62
     2
100
AcDbLine
 10
402.8207080077999
 20
70.3429962158
 30
0.0
 11
404.5081933594
 21
70.3429962158
 31
0.0
  0
LINE
  5
719
330
685
100
AcDbEntity
  8
3_ALL_SYMBOLS
  6
Continuous
 62
     2
100
AcDbLine
 10
403.6956994628996
 20
70.9679974365
 30
0.0
 11
403.6956994628996
 21
70.3429962158
 31
0.0
  0
LINE
  5
71A
330
685
100
AcDbEntity
  8
3_ALL_SYMBOLS
  6
Continuous
 62
     2
100
AcDbLine
 10
404.1957055664
 20
71.28049804689999
 30
0.0
 11
404.0082128905998
 21
70.9679974365
 31
0.0
  0
LINE
  5
71B
330
685
100
AcDbEntity
  8
3_ALL_SYMBOLS
  6
Continuous
 62
     2
100
AcDbLine
 10
403.3832116699
 20
70.9679974365
 30
0.0
 11
403.1956933594
 21
71.28049804689999
 31
0.0
  0
LINE
  5
71C
330
685
100
AcDbEntity
  8
3_ALL_SYMBOLS
  6
Continuous
 62
     2
100
AcDbLine
 10
402.8832055664
 20
70.9679974365
 30
0.0
 11
404.4456958008
 21
70.9679974365
 31
0.0
  0
LINE
  5
71D
330
685
100
AcDbEntity
  8
3_ALL_SYMBOLS
  6
Continuous
 62
     2
100
AcDbLine
 10
403.3832116699
 20
70.3429962158
 30
0.0
 11
402.7582104491998
 21
69.4679983521
 31
0.0
  0
LINE
  5
71E
330
685
100
AcDbEntity
  8
3_ALL_SYMBOLS
  6
Continuous
 62
     2
100
AcDbLine
 10
403.4457092284999
 20
70.09299957279998
 30
0.0
 11
404.4456958008
 21
70.09299957279998
 31
0.0
  0
LINE
  5
71F
330
685
100
AcDbEntity
  8
3_ALL_SYMBOLS
  6
Continuous
 62
     2
100
AcDbLine
 10
403.9457153319998
 20
70.09299957279998
 30
0.0
 11
403.9457153319998
 21
69.5304959106
 31
0.0
  0
LINE
  5
720
330
685
100
AcDbEntity
  8
3_ALL_SYMBOLS
  6
Continuous
 62
     2
100
AcDbLine
 10
403.1956933594
 20
69.5304959106
 30
0.0
 11
404.5707165527
 21
69.5304959106
 31
0.0
  0
LWPOLYLINE
  5
721
330
685
100
AcDbEntity
  8
3_ALL_SYMBOLS
  6
Continuous
 62
     2
100
AcDbPolyline
 90
       30
 70
     0
 43
0.0
 10
391.3831933594
 20
67.9054953003
 10
391.2581982422
 20
68.09300079350001
 10
391.0707055664
 20
68.21799591060001
 10
390.8207153319999
 20
68.2804998779
 10
390.6331970215
 20
68.2804998779
 10
390.3832067870998
 20
68.21799591060001
 10
390.1957141112998
 20
68.09300079350001
 10
390.0706933594
 20
67.9054953003
 10
389.9456982422
 20
67.5304971313
 10
389.9456982422
 20
67.1554989624
 10
390.0081958008
 20
66.90549591060001
 10
390.0706933594
 20
66.78050079350001
 10
390.1957141112998
 20
66.6554992676
 10
390.3832067870998
 20
66.5304977417
 10
390.5706994628999
 20
66.4680001831
 10
390.8207153319999
 20
66.4680001831
 10
391.0707055664
 20
66.5304977417
 10
391.1957006836
 20
66.59299530030001
 10
391.3206958008
 20
66.78050079350001
 10
391.3831933594
 20
66.9679998779
 10
391.3831933594
 20
67.1554989624
 10
391.3206958008
 20
67.3429980469
 10
391.1957006836
 20
67.4679995728
 10
391.0082080077998
 20
67.59300109859999
 10
390.8207153319999
 20
67.6554986572
 10
390.5706994628999
 20
67.6554986572
 10
390.3832067870998
 20
67.59300109859999
 10
390.1957141112998
 20
67.4679995728
 10
390.0706933594
 20
67.3429980469
 10
389.9456982422
 20
67.1554989624
  0
LINE
  5
722
330
685
100
AcDbEntity
  8
3_ALL_SYMBOLS
  6
Continuous
 62
     2
100
AcDbLine
 10
391.9456970215
 20
68.2804998779
 30
0.0
 11
391.9456970215
 21
66.78050079350001
 31
0.0
  0
LINE
  5
723
330
685
100
AcDbEntity
  8
3_ALL_SYMBOLS
  6
Continuous
 62
     2
100
AcDbLine
 10
391.7582043457
 20
66.59299530030001
 30
0.0
 11
392.8207141112999
 21
67.217996521
 31
0.0
  0
LINE
  5
724
330
685
100
AcDbEntity
  8
3_ALL_SYMBOLS
  6
Continuous
 62
     2
100
AcDbLine
 10
391.9456970215
 20
66.78050079350001
 30
0.0
 11
391.9456970215
 21
66.71799682619999
 31
0.0
  0
LINE
  5
725
330
685
100
AcDbEntity
  8
3_ALL_SYMBOLS
  6
Continuous
 62
     2
100
AcDbLine
 10
392.2582104491999
 20
68.21799591060001
 30
0.0
 11
392.8207141112999
 21
67.5304971313
 31
0.0
  0
LWPOLYLINE
  5
726
330
685
100
AcDbEntity
  8
3_ALL_SYMBOLS
  6
Continuous
 62
     2
100
AcDbPolyline
 90
        7
 70
     0
 43
0.0
 10
392.1332153319998
 20
66.4680001831
 10
392.5706982422
 20
66.59299530030001
 10
392.8832116699
 20
66.71799682619999
 10
393.0707043457
 20
66.90549591060001
 10
393.1956994629
 20
67.1554989624
 10
393.3206945801
 20
67.59300109859999
 10
393.3206945801
 20
68.2804998779
  0
LINE
  5
727
330
685
100
AcDbEntity
  8
3_ALL_SYMBOLS
  6
Continuous
 62
     2
100
AcDbLine
 10
393.1956994629
 20
67.1554989624
 30
0.0
 11
393.5707104491999
 21
66.4680001831
 31
0.0
  0
LINE
  5
728
330
685
100
AcDbEntity
  8
3_ALL_SYMBOLS
  6
Continuous
 62
     2
100
AcDbLine
 10
393.758203125
 20
68.09300079350001
 30
0.0
 11
395.5082116699
 21
68.09300079350001
 31
0.0
  0
LINE
  5
729
330
685
100
AcDbEntity
  8
3_ALL_SYMBOLS
  6
Continuous
 62
     2
100
AcDbLine
 10
394.5706970214999
 20
68.09300079350001
 30
0.0
 11
394.5706970214999
 21
66.4680001831
 31
0.0
  0
LINE
  5
72A
330
685
100
AcDbEntity
  8
3_ALL_SYMBOLS
  6
Continuous
 62
     2
100
AcDbLine
 10
394.5706970214999
 20
67.7805001831
 30
0.0
 11
395.3832165526998
 21
67.1554989624
 31
0.0
  0
LINE
  5
72B
330
685
100
AcDbEntity
  8
3_ALL_SYMBOLS
  6
Continuous
 62
     2
100
AcDbLine
 10
398.0082165526998
 20
67.4054956055
 30
0.0
 11
399.2581933594
 21
67.4054956055
 31
0.0
  0
LINE
  5
72C
330
685
100
AcDbEntity
  8
3_ALL_SYMBOLS
  6
Continuous
 62
     2
100
AcDbLine
 10
398.6332177733999
 20
67.96799926760001
 30
0.0
 11
398.6332177733999
 21
66.8429983521
 31
0.0
  0
LINE
  5
72D
330
685
100
AcDbEntity
  8
3_ALL_SYMBOLS
  6
Continuous
 62
     2
100
AcDbLine
 10
398.0082165526998
 20
66.71799682619999
 30
0.0
 11
399.2581933594
 21
66.71799682619999
 31
0.0
  0
LWPOLYLINE
  5
72E
330
685
100
AcDbEntity
  8
3_ALL_SYMBOLS
  6
Continuous
 62
     2
100
AcDbPolyline
 90
       25
 70
     0
 43
0.0
 10
400.7582116698999
 20
68.2804998779
 10
400.5706933594
 20
68.2804998779
 10
400.3832006836
 20
68.21799591060001
 10
400.2582055663998
 20
68.15549835209999
 10
400.1332104491998
 20
68.03049682619999
 10
400.0082153319999
 20
67.8429977417
 10
399.9457177733999
 20
67.5304971313
 10
399.9457177733999
 20
67.217996521
 10
400.0082153319999
 20
66.90549591060001
 10
400.1332104491998
 20
66.71799682619999
 10
400.2582055663998
 20
66.59299530030001
 10
400.3832006836
 20
66.5304977417
 10
400.5706933594
 20
66.4680001831
 10
400.7582116698999
 20
66.4680001831
 10
400.9457043457
 20
66.5304977417
 10
401.0706994629
 20
66.59299530030001
 10
401.1956945800998
 20
66.71799682619999
 10
401.3207153319997
 20
66.90549591060001
 10
401.3832128905999
 20
67.217996521
 10
401.3832128905999
 20
67.5304971313
 10
401.3207153319997
 20
67.8429977417
 10
401.1956945800998
 20
68.03049682619999
 10
401.0706994629
 20
68.15549835209999
 10
400.9457043457
 20
68.21799591060001
 10
400.7582116698999
 20
68.2804998779
  0
LINE
  5
72F
330
685
100
AcDbEntity
  8
3_ALL_SYMBOLS
  6
Continuous
 62
     2
100
AcDbLine
 10
401.8831933593999
 20
66.6554992676
 30
0.0
 11
402.0082141112998
 21
66.6554992676
 31
0.0
  0
LWPOLYLINE
  5
730
330
685
100
AcDbEntity
  8
3_ALL_SYMBOLS
  6
Continuous
 62
     2
100
AcDbPolyline
 90
        6
 70
     0
 43
0.0
 10
401.9457165527
 20
66.71799682619999
 10
401.9457165527
 20
66.59299530030001
 10
401.8831933593999
 20
66.6554992676
 10
401.9457165527
 20
66.71799682619999
 10
402.0082141112998
 20
66.6554992676
 10
401.9457165527
 20
66.59299530030001
  0
LINE
  5
731
330
685
100
AcDbEntity
  8
3_ALL_SYMBOLS
  6
Continuous
 62
     2
100
AcDbLine
 10
403.9457153319998
 20
68.2804998779
 30
0.0
 11
405.3832104491998
 21
68.2804998779
 31
0.0
  0
LWPOLYLINE
  5
732
330
685
100
AcDbEntity
  8
3_ALL_SYMBOLS
  6
Continuous
 62
     2
100
AcDbPolyline
 90
       19
 70
     0
 43
0.0
 10
403.9457153319998
 20
68.2804998779
 10
403.9457153319998
 20
67.4054956055
 10
404.1332080077999
 20
67.5304971313
 10
404.258203125
 20
67.59300109859999
 10
404.5081933594
 20
67.6554986572
 10
404.7582092285
 20
67.6554986572
 10
405.0081994629
 20
67.59300109859999
 10
405.1957177733997
 20
67.4679995728
 10
405.3207128906
 20
67.3429980469
 10
405.3832104491998
 20
67.217996521
 10
405.3832104491998
 20
66.9679998779
 10
405.3207128906
 20
66.78050079350001
 10
405.1957177733997
 20
66.6554992676
 10
405.0081994629
 20
66.5304977417
 10
404.7582092285
 20
66.4680001831
 10
404.5081933594
 20
66.4680001831
 10
404.3207006835998
 20
66.5304977417
 10
404.0707104491999
 20
66.6554992676
 10
403.9457153319998
 20
66.78050079350001
  0
LWPOLYLINE
  5
733
330
685
100
AcDbEntity
  8
3_ALL_SYMBOLS
  6
Continuous
 62
     2
100
AcDbPolyline
 90
       30
 70
     0
 43
0.0
 10
377.3832019043
 20
64.9054971313
 10
377.2582067870998
 20
65.0929962158
 10
377.0707141113
 20
65.2179977417
 10
376.8206982422
 20
65.2804953003
 10
376.6332055664
 20
65.2804953003
 10
376.3832153319999
 20
65.2179977417
 10
376.1956970214999
 20
65.0929962158
 10
376.0707019043
 20
64.9054971313
 10
375.9457067871
 20
64.5304989624
 10
375.9457067871
 20
64.15550079350001
 10
376.0082043456998
 20
63.90549774170001
 10
376.0707019043
 20
63.7804962158
 10
376.1956970214999
 20
63.6555010986
 10
376.3832153319999
 20
63.53049957279999
 10
376.5707080077999
 20
63.4679956055
 10
376.8206982422
 20
63.4679956055
 10
377.0707141113
 20
63.53049957279999
 10
377.1957092285
 20
63.5929971313
 10
377.3207043456998
 20
63.7804962158
 10
377.3832019043
 20
63.9679953003
 10
377.3832019043
 20
64.15550079350001
 10
377.3207043456998
 20
64.3429998779
 10
377.1957092285
 20
64.4680014038
 10
377.0082165527
 20
64.592996521
 10
376.8206982422
 20
64.65550048829999
 10
376.5707080077999
 20
64.65550048829999
 10
376.3832153319999
 20
64.592996521
 10
376.1956970214999
 20
64.4680014038
 10
376.0707019043
 20
64.3429998779
 10
375.9457067871
 20
64.15550079350001
  0
LINE
  5
734
330
685
100
AcDbEntity
  8
3_ALL_SYMBOLS
  6
Continuous
 62
     2
100
AcDbLine
 10
377.8832080077999
 20
64.9680010986
 30
0.0
 11
379.5081958008
 21
64.9680010986
 31
0.0
  0
LINE
  5
735
330
685
100
AcDbEntity
  8
3_ALL_SYMBOLS
  6
Continuous
 62
     2
100
AcDbLine
 10
378.6332043457
 20
65.2804953003
 30
0.0
 11
377.9457055664
 21
64.09299682619999
 31
0.0
  0
LWPOLYLINE
  5
736
330
685
100
AcDbEntity
  8
3_ALL_SYMBOLS
  6
Continuous
 62
     2
100
AcDbPolyline
 90
        7
 70
     0
 43
0.0
 10
378.1331982422
 20
64.4054974365
 10
378.5082092285
 20
64.592996521
 10
378.6957019043
 20
64.65550048829999
 10
378.8831945801
 20
64.65550048829999
 10
379.0082153319999
 20
64.592996521
 10
379.0707128905999
 20
64.4054974365
 10
379.0707128905999
 20
63.8430001831
  0
LWPOLYLINE
  5
737
330
685
100
AcDbEntity
  8
3_ALL_SYMBOLS
  6
Continuous
 62
     2
100
AcDbPolyline
 90
        9
 70
     0
 43
0.0
 10
379.5706933594
 20
64.4054974365
 10
379.0707128905999
 20
64.28049591060001
 10
378.6332043457
 20
64.09299682619999
 10
378.4457116698998
 20
63.90549774170001
 10
378.3832141112998
 20
63.7804962158
 10
378.3832141112998
 20
63.6555010986
 10
378.5707067870998
 20
63.53049957279999
 10
378.9457177733999
 20
63.4679956055
 10
379.4456982422
 20
63.4679956055
  0
LWPOLYLINE
  5
738
330
685
100
AcDbEntity
  8
3_ALL_SYMBOLS
  6
Continuous
 62
     2
100
AcDbPolyline
 90
        5
 70
     0
 43
0.0
 10
380.0082019042998
 20
65.0929962158
 10
380.5707055664
 20
65.0929962158
 10
380.9457165527
 20
65.0304986572
 10
381.1957067870998
 20
64.9054971313
 10
380.8206958008
 20
64.65550048829999
  0
LWPOLYLINE
  5
739
330
685
100
AcDbEntity
  8
3_ALL_SYMBOLS
  6
Continuous
 62
     2
100
AcDbPolyline
 90
        9
 70
     0
 43
0.0
 10
380.1331970215
 20
64.28049591060001
 10
379.8832067870998
 20
64.03049926760001
 10
379.8207092285
 20
63.90549774170001
 10
379.8207092285
 20
63.7179986572
 10
379.9457043457
 20
63.5929971313
 10
380.2582177733999
 20
63.53049957279999
 10
380.6957006836
 20
63.4679956055
 10
381.0707116698998
 20
63.4679956055
 10
381.5081945800999
 20
63.53049957279999
  0
LINE
  5
73A
330
685
100
AcDbEntity
  8
3_ALL_SYMBOLS
  6
Continuous
 62
     2
100
AcDbLine
 10
382.3832116699
 20
65.2179977417
 30
0.0
 11
383.3207006836
 21
65.0929962158
 31
0.0
  0
LWPOLYLINE
  5
73B
330
685
100
AcDbEntity
  8
3_ALL_SYMBOLS
  6
Continuous
 62
     2
100
AcDbPolyline
 90
       12
 70
     0
 43
0.0
 10
382.0706982422
 20
64.78049560550001
 10
383.258203125
 20
64.78049560550001
 10
381.8207080078
 20
63.53049957279999
 10
382.5082067870998
 20
64.03049926760001
 10
382.6956994629
 20
64.09299682619999
 10
382.8206945800999
 20
64.09299682619999
 10
382.8832177733999
 20
64.03049926760001
 10
382.8832177733999
 20
63.90549774170001
 10
382.8832177733999
 20
63.6555010986
 10
382.9457153319999
 20
63.53049957279999
 10
383.1332080077999
 20
63.4679956055
 10
383.5707165526999
 20
63.4679956055
  0
LWPOLYLINE
  5
73C
330
685
100
AcDbEntity
  8
3_ALL_SYMBOLS
  6
Continuous
 62
     2
100
AcDbPolyline
 90
       15
 70
     0
 43
0.0
 10
387.9456994628997
 20
64.9054971313
 10
388.0081970215
 20
65.0304986572
 10
388.1332177733998
 20
65.1555001831
 10
388.2582128905998
 20
65.2179977417
 10
388.508203125
 20
65.2804953003
 10
388.8207165526998
 20
65.2804953003
 10
389.0707067870998
 20
65.2179977417
 10
389.1957019043
 20
65.1555001831
 10
389.3206970215
 20
65.0304986572
 10
389.3831945801
 20
64.9054971313
 10
389.3831945801
 20
64.71799804689999
 10
389.3206970215
 20
64.592996521
 10
389.1957019043
 20
64.4680014038
 10
388.9457116698999
 20
64.4054974365
 10
388.3207104491999
 20
64.4054974365
  0
LWPOLYLINE
  5
73D
330
685
100
AcDbEntity
  8
3_ALL_SYMBOLS
  6
Continuous
 62
     2
100
AcDbPolyline
 90
       13
 70
     0
 43
0.0
 10
388.9457116698999
 20
64.4054974365
 10
389.1957019043
 20
64.28049591060001
 10
389.3206970215
 20
64.15550079350001
 10
389.3831945801
 20
64.03049926760001
 10
389.3831945801
 20
63.8430001831
 10
389.3206970215
 20
63.7179986572
 10
389.1957019043
 20
63.5929971313
 10
389.0707067870998
 20
63.53049957279999
 10
388.8207165526998
 20
63.4679956055
 10
388.508203125
 20
63.4679956055
 10
388.2582128905998
 20
63.53049957279999
 10
388.0706945801
 20
63.6555010986
 10
387.9456994628997
 20
63.7804962158
  0
LWPOLYLINE
  5
73E
330
685
100
AcDbEntity
  8
3_ALL_SYMBOLS
  6
Continuous
 62
     2
100
AcDbPolyline
 90
       25
 70
     0
 43
0.0
 10
390.7582177733999
 20
65.2804953003
 10
390.5706994628999
 20
65.2804953003
 10
390.3832067870998
 20
65.2179977417
 10
390.2582116698998
 20
65.1555001831
 10
390.1332165527
 20
65.0304986572
 10
390.0081958008
 20
64.8429995728
 10
389.9456982422
 20
64.5304989624
 10
389.9456982422
 20
64.21799835209999
 10
390.0081958008
 20
63.90549774170001
 10
390.1332165527
 20
63.7179986572
 10
390.2582116698998
 20
63.5929971313
 10
390.3832067870998
 20
63.53049957279999
 10
390.5706994628999
 20
63.4679956055
 10
390.7582177733999
 20
63.4679956055
 10
390.9457104491999
 20
63.53049957279999
 10
391.0707055664
 20
63.5929971313
 10
391.1957006836
 20
63.7179986572
 10
391.3206958008
 20
63.90549774170001
 10
391.3831933594
 20
64.21799835209999
 10
391.3831933594
 20
64.5304989624
 10
391.3206958008
 20
64.8429995728
 10
391.1957006836
 20
65.0304986572
 10
391.0707055664
 20
65.1555001831
 10
390.9457104491999
 20
65.2179977417
 10
390.7582177733999
 20
65.2804953003
  0
LINE
  5
73F
330
685
100
AcDbEntity
  8
3_ALL_SYMBOLS
  6
Continuous
 62
     2
100
AcDbLine
 10
391.9456970215
 20
65.2804953003
 30
0.0
 11
391.9456970215
 21
63.7804962158
 31
0.0
  0
LINE
  5
740
330
685
100
AcDbEntity
  8
3_ALL_SYMBOLS
  6
Continuous
 62
     2
100
AcDbLine
 10
391.7582043457
 20
63.5929971313
 30
0.0
 11
392.8207141112999
 21
64.21799835209999
 31
0.0
  0
LINE
  5
741
330
685
100
AcDbEntity
  8
3_ALL_SYMBOLS
  6
Continuous
 62
     2
100
AcDbLine
 10
391.9456970215
 20
63.7804962158
 30
0.0
 11
391.9456970215
 21
63.7179986572
 31
0.0
  0
LINE
  5
742
330
685
100
AcDbEntity
  8
3_ALL_SYMBOLS
  6
Continuous
 62
     2
100
AcDbLine
 10
392.2582104491999
 20
65.2179977417
 30
0.0
 11
392.8207141112999
 21
64.5304989624
 31
0.0
  0
LWPOLYLINE
  5
743
330
685
100
AcDbEntity
  8
3_ALL_SYMBOLS
  6
Continuous
 62
     2
100
AcDbPolyline
 90
        7
 70
     0
 43
0.0
 10
392.1332153319998
 20
63.4679956055
 10
392.5706982422
 20
63.5929971313
 10
392.8832116699
 20
63.7179986572
 10
393.0707043457
 20
63.90549774170001
 10
393.1956994629
 20
64.15550079350001
 10
393.3206945801
 20
64.592996521
 10
393.3206945801
 20
65.2804953003
  0
LINE
  5
744
330
685
100
AcDbEntity
  8
3_ALL_SYMBOLS
  6
Continuous
 62
     2
100
AcDbLine
 10
393.1956994629
 20
64.15550079350001
 30
0.0
 11
393.5707104491999
 21
63.4679956055
 31
0.0
  0
LINE
  5
745
330
685
100
AcDbEntity
  8
3_ALL_SYMBOLS
  6
Continuous
 62
     2
100
AcDbLine
 10
393.758203125
 20
65.0929962158
 30
0.0
 11
395.5082116699
 21
65.0929962158
 31
0.0
  0
LINE
  5
746
330
685
100
AcDbEntity
  8
3_ALL_SYMBOLS
  6
Continuous
 62
     2
100
AcDbLine
 10
394.5706970214999
 20
65.0929962158
 30
0.0
 11
394.5706970214999
 21
63.4679956055
 31
0.0
  0
LINE
  5
747
330
685
100
AcDbEntity
  8
3_ALL_SYMBOLS
  6
Continuous
 62
     2
100
AcDbLine
 10
394.5706970214999
 20
64.78049560550001
 30
0.0
 11
395.3832165526998
 21
64.15550079350001
 31
0.0
  0
LINE
  5
748
330
685
100
AcDbEntity
  8
3_ALL_SYMBOLS
  6
Continuous
 62
     2
100
AcDbLine
 10
398.0082165526998
 20
64.4054974365
 30
0.0
 11
399.2581933594
 21
64.4054974365
 31
0.0
  0
LINE
  5
749
330
685
100
AcDbEntity
  8
3_ALL_SYMBOLS
  6
Continuous
 62
     2
100
AcDbLine
 10
398.6332177733999
 20
64.9680010986
 30
0.0
 11
398.6332177733999
 21
63.8430001831
 31
0.0
  0
LINE
  5
74A
330
685
100
AcDbEntity
  8
3_ALL_SYMBOLS
  6
Continuous
 62
     2
100
AcDbLine
 10
398.0082165526998
 20
63.7179986572
 30
0.0
 11
399.2581933594
 21
63.7179986572
 31
0.0
  0
LWPOLYLINE
  5
74B
330
685
100
AcDbEntity
  8
3_ALL_SYMBOLS
  6
Continuous
 62
     2
100
AcDbPolyline
 90
        3
 70
     0
 43
0.0
 10
400.8207092284999
 20
63.4679956055
 10
400.8207092284999
 20
65.2804953003
 10
400.320703125
 20
64.78049560550001
  0
LWPOLYLINE
  5
74C
330
685
100
AcDbEntity
  8
3_ALL_SYMBOLS
  6
Continuous
 62
     2
100
AcDbPolyline
 90
       15
 70
     0
 43
0.0
 10
373.9457080077999
 20
61.9054989624
 10
374.0082055664
 20
62.0305004883
 10
374.1332006836
 20
62.1554956055
 10
374.2581958008
 20
62.2179995728
 10
374.5082116698998
 20
62.2804971313
 10
374.8206994629
 20
62.2804971313
 10
375.0707153319999
 20
62.2179995728
 10
375.1957104491999
 20
62.1554956055
 10
375.3207055664
 20
62.0305004883
 10
375.383203125
 20
61.9054989624
 10
375.383203125
 20
61.7179998779
 10
375.3207055664
 20
61.59299835209999
 10
375.1957104491999
 20
61.4679968262
 10
374.9456945801
 20
61.4054992676
 10
374.3206933594
 20
61.4054992676
  0
LWPOLYLINE
  5
74D
330
685
100
AcDbEntity
  8
3_ALL_SYMBOLS
  6
Continuous
 62
     2
100
AcDbPolyline
 90
       13
 70
     0
 43
0.0
 10
374.9456945801
 20
61.4054992676
 10
375.1957104491999
 20
61.2804977417
 10
375.3207055664
 20
61.1554962158
 10
375.383203125
 20
61.03050109859999
 10
375.383203125
 20
60.8429956055
 10
375.3207055664
 20
60.7180004883
 10
375.1957104491999
 20
60.59299896239998
 10
375.0707153319999
 20
60.5305014038
 10
374.8206994629
 20
60.4679974365
 10
374.5082116698998
 20
60.4679974365
 10
374.2581958008
 20
60.5305014038
 10
374.070703125
 20
60.655496521
 10
373.9457080077999
 20
60.7804980469
  0
LWPOLYLINE
  5
74E
330
685
100
AcDbEntity
  8
3_ALL_SYMBOLS
  6
Continuous
 62
     2
100
AcDbPolyline
 90
       25
 70
     0
 43
0.0
 10
376.7582006836
 20
62.2804971313
 10
376.5707080077999
 20
62.2804971313
 10
376.3832153319999
 20
62.2179995728
 10
376.2581945801
 20
62.1554956055
 10
376.1331994628997
 20
62.0305004883
 10
376.0082043456998
 20
61.8430014038
 10
375.9457067871
 20
61.5305007935
 10
375.9457067871
 20
61.2180001831
 10
376.0082043456998
 20
60.9054995728
 10
376.1331994628997
 20
60.7180004883
 10
376.2581945801
 20
60.59299896239998
 10
376.3832153319999
 20
60.5305014038
 10
376.5707080077999
 20
60.4679974365
 10
376.7582006836
 20
60.4679974365
 10
376.9456933594
 20
60.5305014038
 10
377.0707141113
 20
60.59299896239998
 10
377.1957092285
 20
60.7180004883
 10
377.3207043456998
 20
60.9054995728
 10
377.3832019043
 20
61.2180001831
 10
377.3832019043
 20
61.5305007935
 10
377.3207043456998
 20
61.8430014038
 10
377.1957092285
 20
62.0305004883
 10
377.0707141113
 20
62.1554956055
 10
376.9456933594
 20
62.2179995728
 10
376.7582006836
 20
62.2804971313
  0
LINE
  5
74F
330
685
100
AcDbEntity
  8
3_ALL_SYMBOLS
  6
Continuous
 62
     2
100
AcDbLine
 10
377.8832080077999
 20
61.96799652100001
 30
0.0
 11
379.5081958008
 21
61.96799652100001
 31
0.0
  0
LINE
  5
750
330
685
100
AcDbEntity
  8
3_ALL_SYMBOLS
  6
Continuous
 62
     2
100
AcDbLine
 10
378.6332043457
 20
62.2804971313
 30
0.0
 11
377.9457055664
 21
61.0929986572
 31
0.0
  0
LWPOLYLINE
  5
751
330
685
100
AcDbEntity
  8
3_ALL_SYMBOLS
  6
Continuous
 62
     2
100
AcDbPolyline
 90
        7
 70
     0
 43
0.0
 10
378.1331982422
 20
61.4054992676
 10
378.5082092285
 20
61.59299835209999
 10
378.6957019043
 20
61.6554959106
 10
378.8831945801
 20
61.6554959106
 10
379.0082153319999
 20
61.59299835209999
 10
379.0707128905999
 20
61.4054992676
 10
379.0707128905999
 20
60.8429956055
  0
LWPOLYLINE
  5
752
330
685
100
AcDbEntity
  8
3_ALL_SYMBOLS
  6
Continuous
 62
     2
100
AcDbPolyline
 90
        9
 70
     0
 43
0.0
 10
379.5706933594
 20
61.4054992676
 10
379.0707128905999
 20
61.2804977417
 10
378.6332043457
 20
61.0929986572
 10
378.4457116698998
 20
60.9054995728
 10
378.3832141112998
 20
60.7804980469
 10
378.3832141112998
 20
60.655496521
 10
378.5707067870998
 20
60.5305014038
 10
378.9457177733999
 20
60.4679974365
 10
379.4456982422
 20
60.4679974365
  0
LWPOLYLINE
  5
753
330
685
100
AcDbEntity
  8
3_ALL_SYMBOLS
  6
Continuous
 62
     2
100
AcDbPolyline
 90
        5
 70
     0
 43
0.0
 10
380.0082019042998
 20
62.09299804689999
 10
380.5707055664
 20
62.09299804689999
 10
380.9457165527
 20
62.0305004883
 10
381.1957067870998
 20
61.9054989624
 10
380.8206958008
 20
61.6554959106
  0
LWPOLYLINE
  5
754
330
685
100
AcDbEntity
  8
3_ALL_SYMBOLS
  6
Continuous
 62
     2
100
AcDbPolyline
 90
        9
 70
     0
 43
0.0
 10
380.1331970215
 20
61.2804977417
 10
379.8832067870998
 20
61.03050109859999
 10
379.8207092285
 20
60.9054995728
 10
379.8207092285
 20
60.7180004883
 10
379.9457043457
 20
60.59299896239998
 10
380.2582177733999
 20
60.5305014038
 10
380.6957006836
 20
60.4679974365
 10
381.0707116698998
 20
60.4679974365
 10
381.5081945800999
 20
60.5305014038
  0
LINE
  5
755
330
685
100
AcDbEntity
  8
3_ALL_SYMBOLS
  6
Continuous
 62
     2
100
AcDbLine
 10
382.3832116699
 20
62.2179995728
 30
0.0
 11
383.3207006836
 21
62.09299804689999
 31
0.0
  0
LWPOLYLINE
  5
756
330
685
100
AcDbEntity
  8
3_ALL_SYMBOLS
  6
Continuous
 62
     2
100
AcDbPolyline
 90
       12
 70
     0
 43
0.0
 10
382.0706982422
 20
61.78049743649999
 10
383.258203125
 20
61.78049743649999
 10
381.8207080078
 20
60.5305014038
 10
382.5082067870998
 20
61.03050109859999
 10
382.6956994629
 20
61.0929986572
 10
382.8206945800999
 20
61.0929986572
 10
382.8832177733999
 20
61.03050109859999
 10
382.8832177733999
 20
60.9054995728
 10
382.8832177733999
 20
60.655496521
 10
382.9457153319999
 20
60.5305014038
 10
383.1332080077999
 20
60.4679974365
 10
383.5707165526999
 20
60.4679974365
  0
LWPOLYLINE
  5
757
330
685
100
AcDbEntity
  8
3_ALL_SYMBOLS
  6
Continuous
 62
     2
100
AcDbPolyline
 90
        3
 70
     0
 43
0.0
 10
386.8207177733999
 20
60.4679974365
 10
386.8207177733999
 20
62.2804971313
 10
386.3207116698998
 20
61.78049743649999
  0
LWPOLYLINE
  5
758
330
685
100
AcDbEntity
  8
3_ALL_SYMBOLS
  6
Continuous
 62
     2
100
AcDbPolyline
 90
       19
 70
     0
 43
0.0
 10
387.9456994628997
 20
61.8430014038
 10
388.0081970215
 20
61.96799652100001
 10
388.1332177733998
 20
62.09299804689999
 10
388.3207104491999
 20
62.2179995728
 10
388.5707006836
 20
62.2804971313
 10
388.8207165526998
 20
62.2804971313
 10
389.0707067870998
 20
62.2179995728
 10
389.2581994628999
 20
62.09299804689999
 10
389.3831945801
 20
61.9054989624
 10
389.3831945801
 20
61.7179998779
 10
389.3206970215
 20
61.59299835209999
 10
389.1957019043
 20
61.4679968262
 10
388.8832141112998
 20
61.34299530029998
 10
388.5707006836
 20
61.2180001831
 10
388.3207104491999
 20
61.03050109859999
 10
388.1332177733998
 20
60.8429956055
 10
388.0081970215
 20
60.655496521
 10
387.9456994628997
 20
60.4679974365
 10
389.3831945801
 20
60.4679974365
  0
LWPOLYLINE
  5
759
330
685
100
AcDbEntity
  8
3_ALL_SYMBOLS
  6
Continuous
 62
     2
100
AcDbPolyline
 90
       25
 70
     0
 43
0.0
 10
390.7582177733999
 20
62.2804971313
 10
390.5706994628999
 20
62.2804971313
 10
390.3832067870998
 20
62.2179995728
 10
390.2582116698998
 20
62.1554956055
 10
390.1332165527
 20
62.0305004883
 10
390.0081958008
 20
61.8430014038
 10
389.9456982422
 20
61.5305007935
 10
389.9456982422
 20
61.2180001831
 10
390.0081958008
 20
60.9054995728
 10
390.1332165527
 20
60.7180004883
 10
390.2582116698998
 20
60.59299896239998
 10
390.3832067870998
 20
60.5305014038
 10
390.5706994628999
 20
60.4679974365
 10
390.7582177733999
 20
60.4679974365
 10
390.9457104491999
 20
60.5305014038
 10
391.0707055664
 20
60.59299896239998
 10
391.1957006836
 20
60.7180004883
 10
391.3206958008
 20
60.9054995728
 10
391.3831933594
 20
61.2180001831
 10
391.3831933594
 20
61.5305007935
 10
391.3206958008
 20
61.8430014038
 10
391.1957006836
 20
62.0305004883
 10
391.0707055664
 20
62.1554956055
 10
390.9457104491999
 20
62.2179995728
 10
390.7582177733999
 20
62.2804971313
  0
LINE
  5
75A
330
685
100
AcDbEntity
  8
3_ALL_SYMBOLS
  6
Continuous
 62
     2
100
AcDbLine
 10
391.9456970215
 20
62.2804971313
 30
0.0
 11
391.9456970215
 21
60.7804980469
 31
0.0
  0
LINE
  5
75B
330
685
100
AcDbEntity
  8
3_ALL_SYMBOLS
  6
Continuous
 62
     2
100
AcDbLine
 10
391.7582043457
 20
60.59299896239998
 30
0.0
 11
392.8207141112999
 21
61.2180001831
 31
0.0
  0
LINE
  5
75C
330
685
100
AcDbEntity
  8
3_ALL_SYMBOLS
  6
Continuous
 62
     2
100
AcDbLine
 10
391.9456970215
 20
60.7804980469
 30
0.0
 11
391.9456970215
 21
60.7180004883
 31
0.0
  0
LINE
  5
75D
330
685
100
AcDbEntity
  8
3_ALL_SYMBOLS
  6
Continuous
 62
     2
100
AcDbLine
 10
392.2582104491999
 20
62.2179995728
 30
0.0
 11
392.8207141112999
 21
61.5305007935
 31
0.0
  0
LWPOLYLINE
  5
75E
330
685
100
AcDbEntity
  8
3_ALL_SYMBOLS
  6
Continuous
 62
     2
100
AcDbPolyline
 90
        7
 70
     0
 43
0.0
 10
392.1332153319998
 20
60.4679974365
 10
392.5706982422
 20
60.59299896239998
 10
392.8832116699
 20
60.7180004883
 10
393.0707043457
 20
60.9054995728
 10
393.1956994629
 20
61.1554962158
 10
393.3206945801
 20
61.59299835209999
 10
393.3206945801
 20
62.2804971313
  0
LINE
  5
75F
330
685
100
AcDbEntity
  8
3_ALL_SYMBOLS
  6
Continuous
 62
     2
100
AcDbLine
 10
393.1956994629
 20
61.1554962158
 30
0.0
 11
393.5707104491999
 21
60.4679974365
 31
0.0
  0
LINE
  5
760
330
685
100
AcDbEntity
  8
3_ALL_SYMBOLS
  6
Continuous
 62
     2
100
AcDbLine
 10
393.758203125
 20
62.09299804689999
 30
0.0
 11
395.5082116699
 21
62.09299804689999
 31
0.0
  0
LINE
  5
761
330
685
100
AcDbEntity
  8
3_ALL_SYMBOLS
  6
Continuous
 62
     2
100
AcDbLine
 10
394.5706970214999
 20
62.09299804689999
 30
0.0
 11
394.5706970214999
 21
60.4679974365
 31
0.0
  0
LINE
  5
762
330
685
100
AcDbEntity
  8
3_ALL_SYMBOLS
  6
Continuous
 62
     2
100
AcDbLine
 10
394.5706970214999
 20
61.78049743649999
 30
0.0
 11
395.3832165526998
 21
61.1554962158
 31
0.0
  0
LINE
  5
763
330
685
100
AcDbEntity
  8
3_ALL_SYMBOLS
  6
Continuous
 62
     2
100
AcDbLine
 10
398.0082165526998
 20
61.4054992676
 30
0.0
 11
399.2581933594
 21
61.4054992676
 31
0.0
  0
LINE
  5
764
330
685
100
AcDbEntity
  8
3_ALL_SYMBOLS
  6
Continuous
 62
     2
100
AcDbLine
 10
398.6332177733999
 20
61.96799652100001
 30
0.0
 11
398.6332177733999
 21
60.8429956055
 31
0.0
  0
LINE
  5
765
330
685
100
AcDbEntity
  8
3_ALL_SYMBOLS
  6
Continuous
 62
     2
100
AcDbLine
 10
398.0082165526998
 20
60.7180004883
 30
0.0
 11
399.2581933594
 21
60.7180004883
 31
0.0
  0
LWPOLYLINE
  5
766
330
685
100
AcDbEntity
  8
3_ALL_SYMBOLS
  6
Continuous
 62
     2
100
AcDbPolyline
 90
        3
 70
     0
 43
0.0
 10
400.8207092284999
 20
60.4679974365
 10
400.8207092284999
 20
62.2804971313
 10
400.320703125
 20
61.78049743649999
  0
LINE
  5
767
330
685
100
AcDbEntity
  8
3_ALL_SYMBOLS
  6
Continuous
 62
     2
100
AcDbLine
 10
401.8831933593999
 20
60.655496521
 30
0.0
 11
402.0082141112998
 21
60.655496521
 31
0.0
  0
LWPOLYLINE
  5
768
330
685
100
AcDbEntity
  8
3_ALL_SYMBOLS
  6
Continuous
 62
     2
100
AcDbPolyline
 90
        6
 70
     0
 43
0.0
 10
401.9457165527
 20
60.7180004883
 10
401.9457165527
 20
60.59299896239998
 10
401.8831933593999
 20
60.655496521
 10
401.9457165527
 20
60.7180004883
 10
402.0082141112998
 20
60.655496521
 10
401.9457165527
 20
60.59299896239998
  0
LINE
  5
769
330
685
100
AcDbEntity
  8
3_ALL_SYMBOLS
  6
Continuous
 62
     2
100
AcDbLine
 10
403.9457153319998
 20
62.2804971313
 30
0.0
 11
405.3832104491998
 21
62.2804971313
 31
0.0
  0
LWPOLYLINE
  5
76A
330
685
100
AcDbEntity
  8
3_ALL_SYMBOLS
  6
Continuous
 62
     2
100
AcDbPolyline
 90
       19
 70
     0
 43
0.0
 10
403.9457153319998
 20
62.2804971313
 10
403.9457153319998
 20
61.4054992676
 10
404.1332080077999
 20
61.5305007935
 10
404.258203125
 20
61.59299835209999
 10
404.5081933594
 20
61.6554959106
 10
404.7582092285
 20
61.6554959106
 10
405.0081994629
 20
61.59299835209999
 10
405.1957177733997
 20
61.4679968262
 10
405.3207128906
 20
61.34299530029998
 10
405.3832104491998
 20
61.2180001831
 10
405.3832104491998
 20
60.9679971313
 10
405.3207128906
 20
60.7804980469
 10
405.1957177733997
 20
60.655496521
 10
405.0081994629
 20
60.5305014038
 10
404.7582092285
 20
60.4679974365
 10
404.5081933594
 20
60.4679974365
 10
404.3207006835998
 20
60.5305014038
 10
404.0707104491999
 20
60.655496521
 10
403.9457153319998
 20
60.7804980469
  0
LWPOLYLINE
  5
76B
330
685
100
AcDbEntity
  8
3_ALL_SYMBOLS
  6
Continuous
 62
     2
100
AcDbPolyline
 90
        3
 70
     0
 43
0.0
 10
372.8207006836
 20
57.4679992676
 10
372.8207006836
 20
59.2804989624
 10
372.3206945800999
 20
58.7804992676
  0
LWPOLYLINE
  5
76C
330
685
100
AcDbEntity
  8
3_ALL_SYMBOLS
  6
Continuous
 62
     2
100
AcDbPolyline
 90
       19
 70
     0
 43
0.0
 10
373.9457080077999
 20
58.8429968262
 10
374.0082055664
 20
58.9679983521
 10
374.1332006836
 20
59.09299987789999
 10
374.3206933594
 20
59.2180014038
 10
374.5707092284999
 20
59.2804989624
 10
374.8206994629
 20
59.2804989624
 10
375.0707153319999
 20
59.2180014038
 10
375.2582080077999
 20
59.09299987789999
 10
375.383203125
 20
58.9055007935
 10
375.383203125
 20
58.71799530029999
 10
375.3207055664
 20
58.5930001831
 10
375.1957104491999
 20
58.46799865720001
 10
374.8831970214999
 20
58.3429971313
 10
374.5707092284999
 20
58.2179956055
 10
374.3206933594
 20
58.030496521
 10
374.1332006836
 20
57.8429974365
 10
374.0082055664
 20
57.65549835209998
 10
373.9457080077999
 20
57.4679992676
 10
375.383203125
 20
57.4679992676
  0
LWPOLYLINE
  5
76D
330
685
100
AcDbEntity
  8
3_ALL_SYMBOLS
  6
Continuous
 62
     2
100
AcDbPolyline
 90
       25
 70
     0
 43
0.0
 10
376.7582006836
 20
59.2804989624
 10
376.5707080077999
 20
59.2804989624
 10
376.3832153319999
 20
59.2180014038
 10
376.2581945801
 20
59.1554974365
 10
376.1331994628997
 20
59.0304959106
 10
376.0082043456998
 20
58.8429968262
 10
375.9457067871
 20
58.5304962158
 10
375.9457067871
 20
58.2179956055
 10
376.0082043456998
 20
57.9055014038
 10
376.1331994628997
 20
57.7179959106
 10
376.2581945801
 20
57.5930007935
 10
376.3832153319999
 20
57.5304968262
 10
376.5707080077999
 20
57.4679992676
 10
376.7582006836
 20
57.4679992676
 10
376.9456933594
 20
57.5304968262
 10
377.0707141113
 20
57.5930007935
 10
377.1957092285
 20
57.7179959106
 10
377.3207043456998
 20
57.9055014038
 10
377.3832019043
 20
58.2179956055
 10
377.3832019043
 20
58.5304962158
 10
377.3207043456998
 20
58.8429968262
 10
377.1957092285
 20
59.0304959106
 10
377.0707141113
 20
59.1554974365
 10
376.9456933594
 20
59.2180014038
 10
376.7582006836
 20
59.2804989624
  0
LINE
  5
76E
330
685
100
AcDbEntity
  8
3_ALL_SYMBOLS
  6
Continuous
 62
     2
100
AcDbLine
 10
377.8832080077999
 20
58.9679983521
 30
0.0
 11
379.5081958008
 21
58.9679983521
 31
0.0
  0
LINE
  5
76F
330
685
100
AcDbEntity
  8
3_ALL_SYMBOLS
  6
Continuous
 62
     2
100
AcDbLine
 10
378.6332043457
 20
59.2804989624
 30
0.0
 11
377.9457055664
 21
58.09300048829999
 31
0.0
  0
LWPOLYLINE
  5
770
330
685
100
AcDbEntity
  8
3_ALL_SYMBOLS
  6
Continuous
 62
     2
100
AcDbPolyline
 90
        7
 70
     0
 43
0.0
 10
378.1331982422
 20
58.4055010986
 10
378.5082092285
 20
58.5930001831
 10
378.6957019043
 20
58.6554977417
 10
378.8831945801
 20
58.6554977417
 10
379.0082153319999
 20
58.5930001831
 10
379.0707128905999
 20
58.4055010986
 10
379.0707128905999
 20
57.8429974365
  0
LWPOLYLINE
  5
771
330
685
100
AcDbEntity
  8
3_ALL_SYMBOLS
  6
Continuous
 62
     2
100
AcDbPolyline
 90
        9
 70
     0
 43
0.0
 10
379.5706933594
 20
58.4055010986
 10
379.0707128905999
 20
58.2804995728
 10
378.6332043457
 20
58.09300048829999
 10
378.4457116698998
 20
57.9055014038
 10
378.3832141112998
 20
57.7804998779
 10
378.3832141112998
 20
57.65549835209998
 10
378.5707067870998
 20
57.5304968262
 10
378.9457177733999
 20
57.4679992676
 10
379.4456982422
 20
57.4679992676
  0
LWPOLYLINE
  5
772
330
685
100
AcDbEntity
  8
3_ALL_SYMBOLS
  6
Continuous
 62
     2
100
AcDbPolyline
 90
        5
 70
     0
 43
0.0
 10
380.0082019042998
 20
59.09299987789999
 10
380.5707055664
 20
59.09299987789999
 10
380.9457165527
 20
59.0304959106
 10
381.1957067870998
 20
58.9055007935
 10
380.8206958008
 20
58.6554977417
  0
LWPOLYLINE
  5
773
330
685
100
AcDbEntity
  8
3_ALL_SYMBOLS
  6
Continuous
 62
     2
100
AcDbPolyline
 90
        9
 70
     0
 43
0.0
 10
380.1331970215
 20
58.2804995728
 10
379.8832067870998
 20
58.030496521
 10
379.8207092285
 20
57.9055014038
 10
379.8207092285
 20
57.7179959106
 10
379.9457043457
 20
57.5930007935
 10
380.2582177733999
 20
57.5304968262
 10
380.6957006836
 20
57.4679992676
 10
381.0707116698998
 20
57.4679992676
 10
381.5081945800999
 20
57.5304968262
  0
LINE
  5
774
330
685
100
AcDbEntity
  8
3_ALL_SYMBOLS
  6
Continuous
 62
     2
100
AcDbLine
 10
382.3832116699
 20
59.2180014038
 30
0.0
 11
383.3207006836
 21
59.09299987789999
 31
0.0
  0
LWPOLYLINE
  5
775
330
685
100
AcDbEntity
  8
3_ALL_SYMBOLS
  6
Continuous
 62
     2
100
AcDbPolyline
 90
       12
 70
     0
 43
0.0
 10
382.0706982422
 20
58.7804992676
 10
383.258203125
 20
58.7804992676
 10
381.8207080078
 20
57.5304968262
 10
382.5082067870998
 20
58.030496521
 10
382.6956994629
 20
58.09300048829999
 10
382.8206945800999
 20
58.09300048829999
 10
382.8832177733999
 20
58.030496521
 10
382.8832177733999
 20
57.9055014038
 10
382.8832177733999
 20
57.65549835209998
 10
382.9457153319999
 20
57.5304968262
 10
383.1332080077999
 20
57.4679992676
 10
383.5707165526999
 20
57.4679992676
  0
LWPOLYLINE
  5
776
330
685
100
AcDbEntity
  8
3_ALL_SYMBOLS
  6
Continuous
 62
     2
100
AcDbPolyline
 90
        4
 70
     0
 43
0.0
 10
387.0707080077999
 20
57.4679992676
 10
387.0707080077999
 20
59.2804989624
 10
385.883203125
 20
57.9055014038
 10
387.3831958008
 20
57.9055014038
  0
LWPOLYLINE
  5
777
330
685
100
AcDbEntity
  8
3_ALL_SYMBOLS
  6
Continuous
 62
     2
100
AcDbPolyline
 90
       25
 70
     0
 43
0.0
 10
388.7581933594
 20
59.2804989624
 10
388.5707006836
 20
59.2804989624
 10
388.3832080077999
 20
59.2180014038
 10
388.2582128905998
 20
59.1554974365
 10
388.1332177733998
 20
59.0304959106
 10
388.0081970215
 20
58.8429968262
 10
387.9456994628997
 20
58.5304962158
 10
387.9456994628997
 20
58.2179956055
 10
388.0081970215
 20
57.9055014038
 10
388.1332177733998
 20
57.7179959106
 10
388.2582128905998
 20
57.5930007935
 10
388.3832080077999
 20
57.5304968262
 10
388.5707006836
 20
57.4679992676
 10
388.7581933594
 20
57.4679992676
 10
388.9457116698999
 20
57.5304968262
 10
389.0707067870998
 20
57.5930007935
 10
389.1957019043
 20
57.7179959106
 10
389.3206970215
 20
57.9055014038
 10
389.3831945801
 20
58.2179956055
 10
389.3831945801
 20
58.5304962158
 10
389.3206970215
 20
58.8429968262
 10
389.1957019043
 20
59.0304959106
 10
389.0707067870998
 20
59.1554974365
 10
388.9457116698999
 20
59.2180014038
 10
388.7581933594
 20
59.2804989624
  0
LWPOLYLINE
  5
778
330
685
100
AcDbEntity
  8
3_ALL_SYMBOLS
  6
Continuous
 62
     2
100
AcDbPolyline
 90
       25
 70
     0
 43
0.0
 10
390.7582177733999
 20
59.2804989624
 10
390.5706994628999
 20
59.2804989624
 10
390.3832067870998
 20
59.2180014038
 10
390.2582116698998
 20
59.1554974365
 10
390.1332165527
 20
59.0304959106
 10
390.0081958008
 20
58.8429968262
 10
389.9456982422
 20
58.5304962158
 10
389.9456982422
 20
58.2179956055
 10
390.0081958008
 20
57.9055014038
 10
390.1332165527
 20
57.7179959106
 10
390.2582116698998
 20
57.5930007935
 10
390.3832067870998
 20
57.5304968262
 10
390.5706994628999
 20
57.4679992676
 10
390.7582177733999
 20
57.4679992676
 10
390.9457104491999
 20
57.5304968262
 10
391.0707055664
 20
57.5930007935
 10
391.1957006836
 20
57.7179959106
 10
391.3206958008
 20
57.9055014038
 10
391.3831933594
 20
58.2179956055
 10
391.3831933594
 20
58.5304962158
 10
391.3206958008
 20
58.8429968262
 10
391.1957006836
 20
59.0304959106
 10
391.0707055664
 20
59.1554974365
 10
390.9457104491999
 20
59.2180014038
 10
390.7582177733999
 20
59.2804989624
  0
LINE
  5
779
330
685
100
AcDbEntity
  8
3_ALL_SYMBOLS
  6
Continuous
 62
     2
100
AcDbLine
 10
391.9456970215
 20
59.2804989624
 30
0.0
 11
391.9456970215
 21
57.7804998779
 31
0.0
  0
LINE
  5
77A
330
685
100
AcDbEntity
  8
3_ALL_SYMBOLS
  6
Continuous
 62
     2
100
AcDbLine
 10
391.7582043457
 20
57.5930007935
 30
0.0
 11
392.8207141112999
 21
58.2179956055
 31
0.0
  0
LINE
  5
77B
330
685
100
AcDbEntity
  8
3_ALL_SYMBOLS
  6
Continuous
 62
     2
100
AcDbLine
 10
391.9456970215
 20
57.7804998779
 30
0.0
 11
391.9456970215
 21
57.7179959106
 31
0.0
  0
LINE
  5
77C
330
685
100
AcDbEntity
  8
3_ALL_SYMBOLS
  6
Continuous
 62
     2
100
AcDbLine
 10
392.2582104491999
 20
59.2180014038
 30
0.0
 11
392.8207141112999
 21
58.5304962158
 31
0.0
  0
LWPOLYLINE
  5
77D
330
685
100
AcDbEntity
  8
3_ALL_SYMBOLS
  6
Continuous
 62
     2
100
AcDbPolyline
 90
        7
 70
     0
 43
0.0
 10
392.1332153319998
 20
57.4679992676
 10
392.5706982422
 20
57.5930007935
 10
392.8832116699
 20
57.7179959106
 10
393.0707043457
 20
57.9055014038
 10
393.1956994629
 20
58.15549804689999
 10
393.3206945801
 20
58.5930001831
 10
393.3206945801
 20
59.2804989624
  0
LINE
  5
77E
330
685
100
AcDbEntity
  8
3_ALL_SYMBOLS
  6
Continuous
 62
     2
100
AcDbLine
 10
393.1956994629
 20
58.15549804689999
 30
0.0
 11
393.5707104491999
 21
57.4679992676
 31
0.0
  0
LINE
  5
77F
330
685
100
AcDbEntity
  8
3_ALL_SYMBOLS
  6
Continuous
 62
     2
100
AcDbLine
 10
393.758203125
 20
59.09299987789999
 30
0.0
 11
395.5082116699
 21
59.09299987789999
 31
0.0
  0
LINE
  5
780
330
685
100
AcDbEntity
  8
3_ALL_SYMBOLS
  6
Continuous
 62
     2
100
AcDbLine
 10
394.5706970214999
 20
59.09299987789999
 30
0.0
 11
394.5706970214999
 21
57.4679992676
 31
0.0
  0
LINE
  5
781
330
685
100
AcDbEntity
  8
3_ALL_SYMBOLS
  6
Continuous
 62
     2
100
AcDbLine
 10
394.5706970214999
 20
58.7804992676
 30
0.0
 11
395.3832165526998
 21
58.15549804689999
 31
0.0
  0
LINE
  5
782
330
685
100
AcDbEntity
  8
3_ALL_SYMBOLS
  6
Continuous
 62
     2
100
AcDbLine
 10
398.0082165526998
 20
58.4055010986
 30
0.0
 11
399.2581933594
 21
58.4055010986
 31
0.0
  0
LINE
  5
783
330
685
100
AcDbEntity
  8
3_ALL_SYMBOLS
  6
Continuous
 62
     2
100
AcDbLine
 10
398.6332177733999
 20
58.9679983521
 30
0.0
 11
398.6332177733999
 21
57.8429974365
 31
0.0
  0
LINE
  5
784
330
685
100
AcDbEntity
  8
3_ALL_SYMBOLS
  6
Continuous
 62
     2
100
AcDbLine
 10
398.0082165526998
 20
57.7179959106
 30
0.0
 11
399.2581933594
 21
57.7179959106
 31
0.0
  0
LWPOLYLINE
  5
785
330
685
100
AcDbEntity
  8
3_ALL_SYMBOLS
  6
Continuous
 62
     2
100
AcDbPolyline
 90
       19
 70
     0
 43
0.0
 10
399.9457177733999
 20
58.8429968262
 10
400.0082153319999
 20
58.9679983521
 10
400.1332104491998
 20
59.09299987789999
 10
400.320703125
 20
59.2180014038
 10
400.5706933594
 20
59.2804989624
 10
400.8207092284999
 20
59.2804989624
 10
401.0706994629
 20
59.2180014038
 10
401.2582177734
 20
59.09299987789999
 10
401.3832128905999
 20
58.9055007935
 10
401.3832128905999
 20
58.71799530029999
 10
401.3207153319997
 20
58.5930001831
 10
401.1956945800998
 20
58.46799865720001
 10
400.8832067871
 20
58.3429971313
 10
400.5706933594
 20
58.2179956055
 10
400.320703125
 20
58.030496521
 10
400.1332104491998
 20
57.8429974365
 10
400.0082153319999
 20
57.65549835209998
 10
399.9457177733999
 20
57.4679992676
 10
401.3832128905999
 20
57.4679992676
  0
LINE
  5
786
330
685
100
AcDbEntity
  8
3_ALL_SYMBOLS
  6
Continuous
 62
     2
100
AcDbLine
 10
401.8831933593999
 20
57.65549835209998
 30
0.0
 11
402.0082141112998
 21
57.65549835209998
 31
0.0
  0
LWPOLYLINE
  5
787
330
685
100
AcDbEntity
  8
3_ALL_SYMBOLS
  6
Continuous
 62
     2
100
AcDbPolyline
 90
        6
 70
     0
 43
0.0
 10
401.9457165527
 20
57.7179959106
 10
401.9457165527
 20
57.5930007935
 10
401.8831933593999
 20
57.65549835209998
 10
401.9457165527
 20
57.7179959106
 10
402.0082141112998
 20
57.65549835209998
 10
401.9457165527
 20
57.5930007935
  0
LINE
  5
788
330
685
100
AcDbEntity
  8
3_ALL_SYMBOLS
  6
Continuous
 62
     2
100
AcDbLine
 10
403.9457153319998
 20
59.2804989624
 30
0.0
 11
405.3832104491998
 21
59.2804989624
 31
0.0
  0
LWPOLYLINE
  5
789
330
685
100
AcDbEntity
  8
3_ALL_SYMBOLS
  6
Continuous
 62
     2
100
AcDbPolyline
 90
       19
 70
     0
 43
0.0
 10
403.9457153319998
 20
59.2804989624
 10
403.9457153319998
 20
58.4055010986
 10
404.1332080077999
 20
58.5304962158
 10
404.258203125
 20
58.5930001831
 10
404.5081933594
 20
58.6554977417
 10
404.7582092285
 20
58.6554977417
 10
405.0081994629
 20
58.5930001831
 10
405.1957177733997
 20
58.46799865720001
 10
405.3207128906
 20
58.3429971313
 10
405.3832104491998
 20
58.2179956055
 10
405.3832104491998
 20
57.96799896239999
 10
405.3207128906
 20
57.7804998779
 10
405.1957177733997
 20
57.65549835209998
 10
405.0081994629
 20
57.5304968262
 10
404.7582092285
 20
57.4679992676
 10
404.5081933594
 20
57.4679992676
 10
404.3207006835998
 20
57.5304968262
 10
404.0707104491999
 20
57.65549835209998
 10
403.9457153319998
 20
57.7804998779
  0
LWPOLYLINE
  5
78A
330
685
100
AcDbEntity
  8
3_ALL_SYMBOLS
  6
Continuous
 62
     2
100
AcDbPolyline
 90
        4
 70
     0
 43
0.0
 10
373.0707165526998
 20
54.46800109859999
 10
373.0707165526998
 20
56.2805007935
 10
371.8832116699
 20
54.9054968262
 10
373.3832043456998
 20
54.9054968262
  0
LWPOLYLINE
  5
78B
330
685
100
AcDbEntity
  8
3_ALL_SYMBOLS
  6
Continuous
 62
     2
100
AcDbPolyline
 90
       25
 70
     0
 43
0.0
 10
374.7582019043
 20
56.2805007935
 10
374.5707092284999
 20
56.2805007935
 10
374.3832165526999
 20
56.2179968262
 10
374.2581958008
 20
56.15549926759999
 10
374.1332006836
 20
56.0304977417
 10
374.0082055664
 20
55.84299865720002
 10
373.9457080077999
 20
55.53049804689999
 10
373.9457080077999
 20
55.21799743649999
 10
374.0082055664
 20
54.9054968262
 10
374.1332006836
 20
54.7179977417
 10
374.2581958008
 20
54.5929962158
 10
374.3832165526999
 20
54.5304986572
 10
374.5707092284999
 20
54.46800109859999
 10
374.7582019043
 20
54.46800109859999
 10
374.9456945801
 20
54.5304986572
 10
375.0707153319999
 20
54.5929962158
 10
375.1957104491999
 20
54.7179977417
 10
375.3207055664
 20
54.9054968262
 10
375.383203125
 20
55.21799743649999
 10
375.383203125
 20
55.53049804689999
 10
375.3207055664
 20
55.84299865720002
 10
375.1957104491999
 20
56.0304977417
 10
375.0707153319999
 20
56.15549926759999
 10
374.9456945801
 20
56.2179968262
 10
374.7582019043
 20
56.2805007935
  0
LWPOLYLINE
  5
78C
330
685
100
AcDbEntity
  8
3_ALL_SYMBOLS
  6
Continuous
 62
     2
100
AcDbPolyline
 90
       25
 70
     0
 43
0.0
 10
376.7582006836
 20
56.2805007935
 10
376.5707080077999
 20
56.2805007935
 10
376.3832153319999
 20
56.2179968262
 10
376.2581945801
 20
56.15549926759999
 10
376.1331994628997
 20
56.0304977417
 10
376.0082043456998
 20
55.84299865720002
 10
375.9457067871
 20
55.53049804689999
 10
375.9457067871
 20
55.21799743649999
 10
376.0082043456998
 20
54.9054968262
 10
376.1331994628997
 20
54.7179977417
 10
376.2581945801
 20
54.5929962158
 10
376.3832153319999
 20
54.5304986572
 10
376.5707080077999
 20
54.46800109859999
 10
376.7582006836
 20
54.46800109859999
 10
376.9456933594
 20
54.5304986572
 10
377.0707141113
 20
54.5929962158
 10
377.1957092285
 20
54.7179977417
 10
377.3207043456998
 20
54.9054968262
 10
377.3832019043
 20
55.21799743649999
 10
377.3832019043
 20
55.53049804689999
 10
377.3207043456998
 20
55.84299865720002
 10
377.1957092285
 20
56.0304977417
 10
377.0707141113
 20
56.15549926759999
 10
376.9456933594
 20
56.2179968262
 10
376.7582006836
 20
56.2805007935
  0
LINE
  5
78D
330
685
100
AcDbEntity
  8
3_ALL_SYMBOLS
  6
Continuous
 62
     2
100
AcDbLine
 10
377.8832080077999
 20
55.9680001831
 30
0.0
 11
379.5081958008
 21
55.9680001831
 31
0.0
  0
LINE
  5
78E
330
685
100
AcDbEntity
  8
3_ALL_SYMBOLS
  6
Continuous
 62
     2
100
AcDbLine
 10
378.6332043457
 20
56.2805007935
 30
0.0
 11
377.9457055664
 21
55.0929959106
 31
0.0
  0
LWPOLYLINE
  5
78F
330
685
100
AcDbEntity
  8
3_ALL_SYMBOLS
  6
Continuous
 62
     2
100
AcDbPolyline
 90
        7
 70
     0
 43
0.0
 10
378.1331982422
 20
55.40549652100001
 10
378.5082092285
 20
55.5929956055
 10
378.6957019043
 20
55.6554995728
 10
378.8831945801
 20
55.6554995728
 10
379.0082153319999
 20
55.5929956055
 10
379.0707128905999
 20
55.40549652100001
 10
379.0707128905999
 20
54.8429992676
  0
LWPOLYLINE
  5
790
330
685
100
AcDbEntity
  8
3_ALL_SYMBOLS
  6
Continuous
 62
     2
100
AcDbPolyline
 90
        9
 70
     0
 43
0.0
 10
379.5706933594
 20
55.40549652100001
 10
379.0707128905999
 20
55.2805014038
 10
378.6332043457
 20
55.0929959106
 10
378.4457116698998
 20
54.9054968262
 10
378.3832141112998
 20
54.78049530029998
 10
378.3832141112998
 20
54.6555001831
 10
378.5707067870998
 20
54.5304986572
 10
378.9457177733999
 20
54.46800109859999
 10
379.4456982422
 20
54.46800109859999
  0
LWPOLYLINE
  5
791
330
685
100
AcDbEntity
  8
3_ALL_SYMBOLS
  6
Continuous
 62
     2
100
AcDbPolyline
 90
        5
 70
     0
 43
0.0
 10
380.0082019042998
 20
56.0929953003
 10
380.5707055664
 20
56.0929953003
 10
380.9457165527
 20
56.0304977417
 10
381.1957067870998
 20
55.9054962158
 10
380.8206958008
 20
55.6554995728
  0
LWPOLYLINE
  5
792
330
685
100
AcDbEntity
  8
3_ALL_SYMBOLS
  6
Continuous
 62
     2
100
AcDbPolyline
 90
        9
 70
     0
 43
0.0
 10
380.1331970215
 20
55.2805014038
 10
379.8832067870998
 20
55.03049835209999
 10
379.8207092285
 20
54.9054968262
 10
379.8207092285
 20
54.7179977417
 10
379.9457043457
 20
54.5929962158
 10
380.2582177733999
 20
54.5304986572
 10
380.6957006836
 20
54.46800109859999
 10
381.0707116698998
 20
54.46800109859999
 10
381.5081945800999
 20
54.5304986572
  0
LINE
  5
793
330
685
100
AcDbEntity
  8
3_ALL_SYMBOLS
  6
Continuous
 62
     2
100
AcDbLine
 10
382.3832116699
 20
56.2179968262
 30
0.0
 11
383.3207006836
 21
56.0929953003
 31
0.0
  0
LWPOLYLINE
  5
794
330
685
100
AcDbEntity
  8
3_ALL_SYMBOLS
  6
Continuous
 62
     2
100
AcDbPolyline
 90
       12
 70
     0
 43
0.0
 10
382.0706982422
 20
55.7805010986
 10
383.258203125
 20
55.7805010986
 10
381.8207080078
 20
54.5304986572
 10
382.5082067870998
 20
55.03049835209999
 10
382.6956994629
 20
55.0929959106
 10
382.8206945800999
 20
55.0929959106
 10
382.8832177733999
 20
55.03049835209999
 10
382.8832177733999
 20
54.9054968262
 10
382.8832177733999
 20
54.6555001831
 10
382.9457153319999
 20
54.5304986572
 10
383.1332080077999
 20
54.46800109859999
 10
383.5707165526999
 20
54.46800109859999
  0
LWPOLYLINE
  5
795
330
685
100
AcDbEntity
  8
3_ALL_SYMBOLS
  6
Continuous
 62
     2
100
AcDbPolyline
 90
        3
 70
     0
 43
0.0
 10
384.8206933594
 20
54.46800109859999
 10
384.8206933594
 20
56.2805007935
 10
384.3207128905999
 20
55.7805010986
  0
LWPOLYLINE
  5
796
330
685
100
AcDbEntity
  8
3_ALL_SYMBOLS
  6
Continuous
 62
     2
100
AcDbPolyline
 90
       25
 70
     0
 43
0.0
 10
386.7581945801
 20
56.2805007935
 10
386.5707019043
 20
56.2805007935
 10
386.3832092284999
 20
56.2179968262
 10
386.2582141113
 20
56.15549926759999
 10
386.1331933594
 20
56.0304977417
 10
386.0081982422
 20
55.84299865720002
 10
385.9457006836
 20
55.53049804689999
 10
385.9457006836
 20
55.21799743649999
 10
386.0081982422
 20
54.9054968262
 10
386.1331933594
 20
54.7179977417
 10
386.2582141113
 20
54.5929962158
 10
386.3832092284999
 20
54.5304986572
 10
386.5707019043
 20
54.46800109859999
 10
386.7581945801
 20
54.46800109859999
 10
386.9457128905999
 20
54.5304986572
 10
387.0707080077999
 20
54.5929962158
 10
387.195703125
 20
54.7179977417
 10
387.3206982422
 20
54.9054968262
 10
387.3831958008
 20
55.21799743649999
 10
387.3831958008
 20
55.53049804689999
 10
387.3206982422
 20
55.84299865720002
 10
387.195703125
 20
56.0304977417
 10
387.0707080077999
 20
56.15549926759999
 10
386.9457128905999
 20
56.2179968262
 10
386.7581945801
 20
56.2805007935
  0
LWPOLYLINE
  5
797
330
685
100
AcDbEntity
  8
3_ALL_SYMBOLS
  6
Continuous
 62
     2
100
AcDbPolyline
 90
       25
 70
     0
 43
0.0
 10
388.7581933594
 20
56.2805007935
 10
388.5707006836
 20
56.2805007935
 10
388.3832080077999
 20
56.2179968262
 10
388.2582128905998
 20
56.15549926759999
 10
388.1332177733998
 20
56.0304977417
 10
388.0081970215
 20
55.84299865720002
 10
387.9456994628997
 20
55.53049804689999
 10
387.9456994628997
 20
55.21799743649999
 10
388.0081970215
 20
54.9054968262
 10
388.1332177733998
 20
54.7179977417
 10
388.2582128905998
 20
54.5929962158
 10
388.3832080077999
 20
54.5304986572
 10
388.5707006836
 20
54.46800109859999
 10
388.7581933594
 20
54.46800109859999
 10
388.9457116698999
 20
54.5304986572
 10
389.0707067870998
 20
54.5929962158
 10
389.1957019043
 20
54.7179977417
 10
389.3206970215
 20
54.9054968262
 10
389.3831945801
 20
55.21799743649999
 10
389.3831945801
 20
55.53049804689999
 10
389.3206970215
 20
55.84299865720002
 10
389.1957019043
 20
56.0304977417
 10
389.0707067870998
 20
56.15549926759999
 10
388.9457116698999
 20
56.2179968262
 10
388.7581933594
 20
56.2805007935
  0
LWPOLYLINE
  5
798
330
685
100
AcDbEntity
  8
3_ALL_SYMBOLS
  6
Continuous
 62
     2
100
AcDbPolyline
 90
       25
 70
     0
 43
0.0
 10
390.7582177733999
 20
56.2805007935
 10
390.5706994628999
 20
56.2805007935
 10
390.3832067870998
 20
56.2179968262
 10
390.2582116698998
 20
56.15549926759999
 10
390.1332165527
 20
56.0304977417
 10
390.0081958008
 20
55.84299865720002
 10
389.9456982422
 20
55.53049804689999
 10
389.9456982422
 20
55.21799743649999
 10
390.0081958008
 20
54.9054968262
 10
390.1332165527
 20
54.7179977417
 10
390.2582116698998
 20
54.5929962158
 10
390.3832067870998
 20
54.5304986572
 10
390.5706994628999
 20
54.46800109859999
 10
390.7582177733999
 20
54.46800109859999
 10
390.9457104491999
 20
54.5304986572
 10
391.0707055664
 20
54.5929962158
 10
391.1957006836
 20
54.7179977417
 10
391.3206958008
 20
54.9054968262
 10
391.3831933594
 20
55.21799743649999
 10
391.3831933594
 20
55.53049804689999
 10
391.3206958008
 20
55.84299865720002
 10
391.1957006836
 20
56.0304977417
 10
391.0707055664
 20
56.15549926759999
 10
390.9457104491999
 20
56.2179968262
 10
390.7582177733999
 20
56.2805007935
  0
LINE
  5
799
330
685
100
AcDbEntity
  8
3_ALL_SYMBOLS
  6
Continuous
 62
     2
100
AcDbLine
 10
391.9456970215
 20
56.2805007935
 30
0.0
 11
391.9456970215
 21
54.78049530029998
 31
0.0
  0
LINE
  5
79A
330
685
100
AcDbEntity
  8
3_ALL_SYMBOLS
  6
Continuous
 62
     2
100
AcDbLine
 10
391.7582043457
 20
54.5929962158
 30
0.0
 11
392.8207141112999
 21
55.21799743649999
 31
0.0
  0
LINE
  5
79B
330
685
100
AcDbEntity
  8
3_ALL_SYMBOLS
  6
Continuous
 62
     2
100
AcDbLine
 10
391.9456970215
 20
54.78049530029998
 30
0.0
 11
391.9456970215
 21
54.7179977417
 31
0.0
  0
LINE
  5
79C
330
685
100
AcDbEntity
  8
3_ALL_SYMBOLS
  6
Continuous
 62
     2
100
AcDbLine
 10
392.2582104491999
 20
56.2179968262
 30
0.0
 11
392.8207141112999
 21
55.53049804689999
 31
0.0
  0
LWPOLYLINE
  5
79D
330
685
100
AcDbEntity
  8
3_ALL_SYMBOLS
  6
Continuous
 62
     2
100
AcDbPolyline
 90
        7
 70
     0
 43
0.0
 10
392.1332153319998
 20
54.46800109859999
 10
392.5706982422
 20
54.5929962158
 10
392.8832116699
 20
54.7179977417
 10
393.0707043457
 20
54.9054968262
 10
393.1956994629
 20
55.1554998779
 10
393.3206945801
 20
55.5929956055
 10
393.3206945801
 20
56.2805007935
  0
LINE
  5
79E
330
685
100
AcDbEntity
  8
3_ALL_SYMBOLS
  6
Continuous
 62
     2
100
AcDbLine
 10
393.1956994629
 20
55.1554998779
 30
0.0
 11
393.5707104491999
 21
54.46800109859999
 31
0.0
  0
LINE
  5
79F
330
685
100
AcDbEntity
  8
3_ALL_SYMBOLS
  6
Continuous
 62
     2
100
AcDbLine
 10
393.758203125
 20
56.0929953003
 30
0.0
 11
395.5082116699
 21
56.0929953003
 31
0.0
  0
LINE
  5
7A0
330
685
100
AcDbEntity
  8
3_ALL_SYMBOLS
  6
Continuous
 62
     2
100
AcDbLine
 10
394.5706970214999
 20
56.0929953003
 30
0.0
 11
394.5706970214999
 21
54.46800109859999
 31
0.0
  0
LINE
  5
7A1
330
685
100
AcDbEntity
  8
3_ALL_SYMBOLS
  6
Continuous
 62
     2
100
AcDbLine
 10
394.5706970214999
 20
55.7805010986
 30
0.0
 11
395.3832165526998
 21
55.1554998779
 31
0.0
  0
LINE
  5
7A2
330
685
100
AcDbEntity
  8
3_ALL_SYMBOLS
  6
Continuous
 62
     2
100
AcDbLine
 10
398.0082165526998
 20
55.40549652100001
 30
0.0
 11
399.2581933594
 21
55.40549652100001
 31
0.0
  0
LINE
  5
7A3
330
685
100
AcDbEntity
  8
3_ALL_SYMBOLS
  6
Continuous
 62
     2
100
AcDbLine
 10
398.6332177733999
 20
55.9680001831
 30
0.0
 11
398.6332177733999
 21
54.8429992676
 31
0.0
  0
LINE
  5
7A4
330
685
100
AcDbEntity
  8
3_ALL_SYMBOLS
  6
Continuous
 62
     2
100
AcDbLine
 10
398.0082165526998
 20
54.7179977417
 30
0.0
 11
399.2581933594
 21
54.7179977417
 31
0.0
  0
LWPOLYLINE
  5
7A5
330
685
100
AcDbEntity
  8
3_ALL_SYMBOLS
  6
Continuous
 62
     2
100
AcDbPolyline
 90
        4
 70
     0
 43
0.0
 10
401.0706994629
 20
54.46800109859999
 10
401.0706994629
 20
56.2805007935
 10
399.8831945801
 20
54.9054968262
 10
401.3832128905999
 20
54.9054968262
  0
LWPOLYLINE
  5
7A6
330
685
100
AcDbEntity
  8
3_ALL_SYMBOLS
  6
Continuous
 62
     2
100
AcDbPolyline
 90
        3
 70
     0
 43
0.0
 10
370.8207019042998
 20
51.467996521
 10
370.8207019042998
 20
53.28049621579999
 10
370.3206958008
 20
52.780496521
  0
LWPOLYLINE
  5
7A7
330
685
100
AcDbEntity
  8
3_ALL_SYMBOLS
  6
Continuous
 62
     2
100
AcDbPolyline
 90
       25
 70
     0
 43
0.0
 10
372.758203125
 20
53.28049621579999
 10
372.5707104491998
 20
53.28049621579999
 10
372.3832177733999
 20
53.2179986572
 10
372.2581970214997
 20
53.1555010986
 10
372.1332019042998
 20
53.03049957279998
 10
372.0082067871
 20
52.8430004883
 10
371.9457092284999
 20
52.53049987789999
 10
371.9457092284999
 20
52.2179992676
 10
372.0082067871
 20
51.90549865720001
 10
372.1332019042998
 20
51.7179995728
 10
372.2581970214997
 20
51.59299804689999
 10
372.3832177733999
 20
51.53050048829999
 10
372.5707104491998
 20
51.467996521
 10
372.758203125
 20
51.467996521
 10
372.9456958008
 20
51.53050048829999
 10
373.0707165526998
 20
51.59299804689999
 10
373.1957116699
 20
51.7179995728
 10
373.3207067871
 20
51.90549865720001
 10
373.3832043456998
 20
52.2179992676
 10
373.3832043456998
 20
52.53049987789999
 10
373.3207067871
 20
52.8430004883
 10
373.1957116699
 20
53.03049957279998
 10
373.0707165526998
 20
53.1555010986
 10
372.9456958008
 20
53.2179986572
 10
372.758203125
 20
53.28049621579999
  0
LWPOLYLINE
  5
7A8
330
685
100
AcDbEntity
  8
3_ALL_SYMBOLS
  6
Continuous
 62
     2
100
AcDbPolyline
 90
       25
 70
     0
 43
0.0
 10
374.7582019043
 20
53.28049621579999
 10
374.5707092284999
 20
53.28049621579999
 10
374.3832165526999
 20
53.2179986572
 10
374.2581958008
 20
53.1555010986
 10
374.1332006836
 20
53.03049957279998
 10
374.0082055664
 20
52.8430004883
 10
373.9457080077999
 20
52.53049987789999
 10
373.9457080077999
 20
52.2179992676
 10
374.0082055664
 20
51.90549865720001
 10
374.1332006836
 20
51.7179995728
 10
374.2581958008
 20
51.59299804689999
 10
374.3832165526999
 20
51.53050048829999
 10
374.5707092284999
 20
51.467996521
 10
374.7582019043
 20
51.467996521
 10
374.9456945801
 20
51.53050048829999
 10
375.0707153319999
 20
51.59299804689999
 10
375.1957104491999
 20
51.7179995728
 10
375.3207055664
 20
51.90549865720001
 10
375.383203125
 20
52.2179992676
 10
375.383203125
 20
52.53049987789999
 10
375.3207055664
 20
52.8430004883
 10
375.1957104491999
 20
53.03049957279998
 10
375.0707153319999
 20
53.1555010986
 10
374.9456945801
 20
53.2179986572
 10
374.7582019043
 20
53.28049621579999
  0
LWPOLYLINE
  5
7A9
330
685
100
AcDbEntity
  8
3_ALL_SYMBOLS
  6
Continuous
 62
     2
100
AcDbPolyline
 90
       25
 70
     0
 43
0.0
 10
376.7582006836
 20
53.28049621579999
 10
376.5707080077999
 20
53.28049621579999
 10
376.3832153319999
 20
53.2179986572
 10
376.2581945801
 20
53.1555010986
 10
376.1331994628997
 20
53.03049957279998
 10
376.0082043456998
 20
52.8430004883
 10
375.9457067871
 20
52.53049987789999
 10
375.9457067871
 20
52.2179992676
 10
376.0082043456998
 20
51.90549865720001
 10
376.1331994628997
 20
51.7179995728
 10
376.2581945801
 20
51.59299804689999
 10
376.3832153319999
 20
51.53050048829999
 10
376.5707080077999
 20
51.467996521
 10
376.7582006836
 20
51.467996521
 10
376.9456933594
 20
51.53050048829999
 10
377.0707141113
 20
51.59299804689999
 10
377.1957092285
 20
51.7179995728
 10
377.3207043456998
 20
51.90549865720001
 10
377.3832019043
 20
52.2179992676
 10
377.3832019043
 20
52.53049987789999
 10
377.3207043456998
 20
52.8430004883
 10
377.1957092285
 20
53.03049957279998
 10
377.0707141113
 20
53.1555010986
 10
376.9456933594
 20
53.2179986572
 10
376.7582006836
 20
53.28049621579999
  0
LINE
  5
7AA
330
685
100
AcDbEntity
  8
3_ALL_SYMBOLS
  6
Continuous
 62
     2
100
AcDbLine
 10
377.8832080077999
 20
52.9679956055
 30
0.0
 11
379.5081958008
 21
52.9679956055
 31
0.0
  0
LINE
  5
7AB
330
685
100
AcDbEntity
  8
3_ALL_SYMBOLS
  6
Continuous
 62
     2
100
AcDbLine
 10
378.6332043457
 20
53.28049621579999
 30
0.0
 11
377.9457055664
 21
52.0929977417
 31
0.0
  0
LWPOLYLINE
  5
7AC
330
685
100
AcDbEntity
  8
3_ALL_SYMBOLS
  6
Continuous
 62
     2
100
AcDbPolyline
 90
        7
 70
     0
 43
0.0
 10
378.1331982422
 20
52.4054983521
 10
378.5082092285
 20
52.5929974365
 10
378.6957019043
 20
52.6555014038
 10
378.8831945801
 20
52.6555014038
 10
379.0082153319999
 20
52.5929974365
 10
379.0707128905999
 20
52.4054983521
 10
379.0707128905999
 20
51.8430010986
  0
LWPOLYLINE
  5
7AD
330
685
100
AcDbEntity
  8
3_ALL_SYMBOLS
  6
Continuous
 62
     2
100
AcDbPolyline
 90
        9
 70
     0
 43
0.0
 10
379.5706933594
 20
52.4054983521
 10
379.0707128905999
 20
52.2804968262
 10
378.6332043457
 20
52.0929977417
 10
378.4457116698998
 20
51.90549865720001
 10
378.3832141112998
 20
51.7804971313
 10
378.3832141112998
 20
51.6554956055
 10
378.5707067870998
 20
51.53050048829999
 10
378.9457177733999
 20
51.467996521
 10
379.4456982422
 20
51.467996521
  0
LWPOLYLINE
  5
7AE
330
685
100
AcDbEntity
  8
3_ALL_SYMBOLS
  6
Continuous
 62
     2
100
AcDbPolyline
 90
        5
 70
     0
 43
0.0
 10
380.0082019042998
 20
53.0929971313
 10
380.5707055664
 20
53.0929971313
 10
380.9457165527
 20
53.03049957279998
 10
381.1957067870998
 20
52.90549804689999
 10
380.8206958008
 20
52.6555014038
  0
LWPOLYLINE
  5
7AF
330
685
100
AcDbEntity
  8
3_ALL_SYMBOLS
  6
Continuous
 62
     2
100
AcDbPolyline
 90
        9
 70
     0
 43
0.0
 10
380.1331970215
 20
52.2804968262
 10
379.8832067870998
 20
52.0305001831
 10
379.8207092285
 20
51.90549865720001
 10
379.8207092285
 20
51.7179995728
 10
379.9457043457
 20
51.59299804689999
 10
380.2582177733999
 20
51.53050048829999
 10
380.6957006836
 20
51.467996521
 10
381.0707116698998
 20
51.467996521
 10
381.5081945800999
 20
51.53050048829999
  0
LINE
  5
7B0
330
685
100
AcDbEntity
  8
3_ALL_SYMBOLS
  6
Continuous
 62
     2
100
AcDbLine
 10
382.3832116699
 20
53.2179986572
 30
0.0
 11
383.3207006836
 21
53.0929971313
 31
0.0
  0
LWPOLYLINE
  5
7B1
330
685
100
AcDbEntity
  8
3_ALL_SYMBOLS
  6
Continuous
 62
     2
100
AcDbPolyline
 90
       12
 70
     0
 43
0.0
 10
382.0706982422
 20
52.780496521
 10
383.258203125
 20
52.780496521
 10
381.8207080078
 20
51.53050048829999
 10
382.5082067870998
 20
52.0305001831
 10
382.6956994629
 20
52.0929977417
 10
382.8206945800999
 20
52.0929977417
 10
382.8832177733999
 20
52.0305001831
 10
382.8832177733999
 20
51.90549865720001
 10
382.8832177733999
 20
51.6554956055
 10
382.9457153319999
 20
51.53050048829999
 10
383.1332080077999
 20
51.467996521
 10
383.5707165526999
 20
51.467996521
  0
LWPOLYLINE
  5
7B2
330
685
100
AcDbEntity
  8
3_ALL_SYMBOLS
  6
Continuous
 62
     2
100
AcDbPolyline
 90
       25
 70
     0
 43
0.0
 10
384.0706970214997
 20
53.0929971313
 10
385.1957043456998
 20
53.0929971313
 10
383.8832043456998
 20
52.15549530029999
 10
384.570703125
 20
52.53049987789999
 10
384.9457141112998
 20
52.5929974365
 10
385.2582019043
 20
52.5929974365
 10
385.4456945801
 20
52.53049987789999
 10
385.5707153319999
 20
52.3430007935
 10
385.5707153319999
 20
52.15549530029999
 10
385.5707153319999
 20
52.0929977417
 10
385.5082177733999
 20
51.9679962158
 10
385.3831970214999
 20
51.7804971313
 10
385.1957043456998
 20
51.6554956055
 10
384.9457141112998
 20
51.59299804689999
 10
384.6332006836
 20
51.59299804689999
 10
384.3832104491998
 20
51.6554956055
 10
384.1957177733999
 20
51.7804971313
 10
384.1331945801
 20
51.8430010986
 10
384.1331945801
 20
51.90549865720001
 10
384.1957177733999
 20
51.9679962158
 10
384.3207128905999
 20
52.0305001831
 10
384.5082055664
 20
52.0305001831
 10
384.6956982422
 20
51.9679962158
 10
384.8206933594
 20
51.8430010986
 10
384.9457141112998
 20
51.59299804689999
  0
LINE
  5
7B3
330
685
100
AcDbEntity
  8
3_ALL_SYMBOLS
  6
Continuous
 62
     2
100
AcDbLine
 10
385.883203125
 20
52.90549804689999
 30
0.0
 11
387.195703125
 21
52.90549804689999
 31
0.0
  0
LWPOLYLINE
  5
7B4
330
685
100
AcDbEntity
  8
3_ALL_SYMBOLS
  6
Continuous
 62
     2
100
AcDbPolyline
 90
        7
 70
     0
 43
0.0
 10
385.9457006836
 20
52.5929974365
 10
385.8207055664
 20
52.4679959106
 10
385.7582080077999
 20
52.4054983521
 10
385.7582080077999
 20
52.3430007935
 10
385.8207055664
 20
52.2804968262
 10
386.3832092284999
 20
52.2179992676
 10
387.0082104491999
 20
52.3430007935
  0
LWPOLYLINE
  5
7B5
330
685
100
AcDbEntity
  8
3_ALL_SYMBOLS
  6
Continuous
 62
     2
100
AcDbPolyline
 90
       11
 70
     0
 43
0.0
 10
386.4457067871
 20
53.28049621579999
 10
386.3207116698998
 20
51.6554956055
 10
386.3207116698998
 20
51.59299804689999
 10
386.3832092284999
 20
51.53050048829999
 10
386.5082043456998
 20
51.467996521
 10
387.2582006836
 20
51.467996521
 10
387.3831958008
 20
51.59299804689999
 10
387.4456933594
 20
51.7179995728
 10
387.4456933594
 20
51.8430010986
 10
387.3831958008
 20
52.0305001831
 10
387.2582006836
 20
52.3430007935
  0
LWPOLYLINE
  5
7B6
330
685
100
AcDbEntity
  8
3_ALL_SYMBOLS
  6
Continuous
 62
     2
100
AcDbPolyline
 90
       23
 70
     0
 43
0.0
 10
388.7581933594
 20
53.0929971313
 10
388.6956958008
 20
52.53049987789999
 10
388.5707006836
 20
51.9679962158
 10
388.4457055664
 20
51.6554956055
 10
388.3207104491999
 20
51.53050048829999
 10
388.1957153319999
 20
51.53050048829999
 10
388.0081970215
 20
51.6554956055
 10
387.9456994628997
 20
51.90549865720001
 10
387.8832019043
 20
52.15549530029999
 10
387.8832019043
 20
52.4679959106
 10
388.0081970215
 20
52.8430004883
 10
388.3207104491999
 20
53.0929971313
 10
388.7581933594
 20
53.0929971313
 10
389.0707067870998
 20
53.03049957279998
 10
389.3206970215
 20
52.90549804689999
 10
389.5082153319999
 20
52.6555014038
 10
389.5707128905998
 20
52.4054983521
 10
389.5707128905998
 20
52.0929977417
 10
389.5082153319999
 20
51.90549865720001
 10
389.3831945801
 20
51.7179995728
 10
389.1957019043
 20
51.59299804689999
 10
389.0082092285
 20
51.53050048829999
 10
388.7581933594
 20
51.467996521
  0
LINE
  5
7B7
330
685
100
AcDbEntity
  8
3_ALL_SYMBOLS
  6
Continuous
 62
     2
100
AcDbLine
 10
398.0082165526998
 20
52.4054983521
 30
0.0
 11
399.2581933594
 21
52.4054983521
 31
0.0
  0
LINE
  5
7B8
330
685
100
AcDbEntity
  8
3_ALL_SYMBOLS
  6
Continuous
 62
     2
100
AcDbLine
 10
398.6332177733999
 20
52.9679956055
 30
0.0
 11
398.6332177733999
 21
51.8430010986
 31
0.0
  0
LINE
  5
7B9
330
685
100
AcDbEntity
  8
3_ALL_SYMBOLS
  6
Continuous
 62
     2
100
AcDbLine
 10
398.0082165526998
 20
51.7179995728
 30
0.0
 11
399.2581933594
 21
51.7179995728
 31
0.0
  0
LWPOLYLINE
  5
7BA
330
685
100
AcDbEntity
  8
3_ALL_SYMBOLS
  6
Continuous
 62
     2
100
AcDbPolyline
 90
       30
 70
     0
 43
0.0
 10
401.3832128905999
 20
52.90549804689999
 10
401.2582177734
 20
53.0929971313
 10
401.0706994629
 20
53.2179986572
 10
400.8207092284999
 20
53.28049621579999
 10
400.6332165526997
 20
53.28049621579999
 10
400.3832006836
 20
53.2179986572
 10
400.1957080077999
 20
53.0929971313
 10
400.0707128905998
 20
52.90549804689999
 10
399.9457177733999
 20
52.53049987789999
 10
399.9457177733999
 20
52.15549530029999
 10
400.0082153319999
 20
51.90549865720001
 10
400.0707128905998
 20
51.7804971313
 10
400.1957080077999
 20
51.6554956055
 10
400.3832006836
 20
51.53050048829999
 10
400.5706933594
 20
51.467996521
 10
400.8207092284999
 20
51.467996521
 10
401.0706994629
 20
51.53050048829999
 10
401.1956945800998
 20
51.59299804689999
 10
401.3207153319997
 20
51.7804971313
 10
401.3832128905999
 20
51.9679962158
 10
401.3832128905999
 20
52.15549530029999
 10
401.3207153319997
 20
52.3430007935
 10
401.1956945800998
 20
52.4679959106
 10
401.0082019042997
 20
52.5929974365
 10
400.8207092284999
 20
52.6555014038
 10
400.5706933594
 20
52.6555014038
 10
400.3832006836
 20
52.5929974365
 10
400.1957080077999
 20
52.4679959106
 10
400.0707128905998
 20
52.3430007935
 10
399.9457177733999
 20
52.15549530029999
  0
LINE
  5
7BB
330
685
100
AcDbEntity
  8
3_ALL_SYMBOLS
  6
Continuous
 62
     7
100
AcDbLine
 10
369.36506751
 20
50.67255382199999
 30
0.0
 11
369.36506751
 21
77.672553822
 31
0.0
  0
LINE
  5
7BC
330
685
100
AcDbEntity
  8
3_ALL_SYMBOLS
  6
Continuous
 62
     7
100
AcDbLine
 10
407.36506751
 20
50.67255382199999
 30
0.0
 11
369.36506751
 21
50.67255382199999
 31
0.0
  0
LINE
  5
7BD
330
685
100
AcDbEntity
  8
3_ALL_SYMBOLS
  6
Continuous
 62
     7
100
AcDbLine
 10
369.36506751
 20
53.67255382199999
 30
0.0
 11
407.36506751
 21
53.67255382199999
 31
0.0
  0
LINE
  5
7BE
330
685
100
AcDbEntity
  8
3_ALL_SYMBOLS
  6
Continuous
 62
     7
100
AcDbLine
 10
369.36506751
 20
56.672553822
 30
0.0
 11
407.36506751
 21
56.672553822
 31
0.0
  0
LINE
  5
7BF
330
685
100
AcDbEntity
  8
3_ALL_SYMBOLS
  6
Continuous
 62
     7
100
AcDbLine
 10
369.36506751
 20
59.672553822
 30
0.0
 11
407.36506751
 21
59.672553822
 31
0.0
  0
LINE
  5
7C0
330
685
100
AcDbEntity
  8
3_ALL_SYMBOLS
  6
Continuous
 62
     7
100
AcDbLine
 10
369.36506751
 20
62.672553822
 30
0.0
 11
407.36506751
 21
62.672553822
 31
0.0
  0
LINE
  5
7C1
330
685
100
AcDbEntity
  8
3_ALL_SYMBOLS
  6
Continuous
 62
     7
100
AcDbLine
 10
369.36506751
 20
65.67255382199999
 30
0.0
 11
407.36506751
 21
65.67255382199999
 31
0.0
  0
LINE
  5
7C2
330
685
100
AcDbEntity
  8
3_ALL_SYMBOLS
  6
Continuous
 62
     7
100
AcDbLine
 10
369.36506751
 20
68.67255382199998
 30
0.0
 11
407.36506751
 21
68.67255382199998
 31
0.0
  0
LINE
  5
7C3
330
685
100
AcDbEntity
  8
3_ALL_SYMBOLS
  6
Continuous
 62
     7
100
AcDbLine
 10
397.36506751
 20
71.672553822
 30
0.0
 11
397.36506751
 21
50.67255382199999
 31
0.0
  0
LINE
  5
7C4
330
685
100
AcDbEntity
  8
3_ALL_SYMBOLS
  6
Continuous
 62
     7
100
AcDbLine
 10
369.36506751
 20
71.672553822
 30
0.0
 11
407.36506751
 21
71.672553822
 31
0.0
  0
LINE
  5
7C5
330
685
100
AcDbEntity
  8
3_ALL_SYMBOLS
  6
Continuous
 62
     7
100
AcDbLine
 10
369.36506751
 20
77.672553822
 30
0.0
 11
407.36506751
 21
77.672553822
 31
0.0
  0
LINE
  5
7C6
330
685
100
AcDbEntity
  8
3_ALL_SYMBOLS
  6
Continuous
 62
     7
100
AcDbLine
 10
407.36506751
 20
77.672553822
 30
0.0
 11
407.36506751
 21
50.67255382199999
 31
0.0
  0
ENDBLK
  5
7C8
330
685
100
AcDbEntity
  8
0
  6
ByBlock
 62
     0
100
AcDbBlockEnd
  0
BLOCK
  5
7D3
330
7C9
100
AcDbEntity
  8
0
100
AcDbBlockBegin
  2
*D12
 70
     1
 10
0.0
 20
0.0
 30
0.0
  3
*D12
  1

  0
LINE
  5
7CA
330
7C9
100
AcDbEntity
  8
___SHELL
 62
     0
370
    -2
100
AcDbLine
 10
206.4323001009999
 20
68.99691404459648
 30
0.0
 11
206.4323001009999
 21
105.5869203708964
 31
0.0
  0
LINE
  5
7CB
330
7C9
100
AcDbEntity
  8
___SHELL
 62
     0
370
    -2
100
AcDbLine
 10
236.4323001009998
 20
67.39755833829646
 30
0.0
 11
236.4323001009998
 21
105.5869203708964
 31
0.0
  0
LINE
  5
7CC
330
7C9
100
AcDbEntity
  8
___SHELL
 62
     0
370
    -2
100
AcDbLine
 10
208.4323001009999
 20
104.5869203708964
 30
0.0
 11
234.4323001009998
 21
104.5869203708964
 31
0.0
  0
MTEXT
  5
7CD
330
7C9
100
AcDbEntity
  8
___SHELL
 62
     0
100
AcDbMText
 10
220.4457307374105
 20
106.9378143187497
 30
0.0
 40
2.5
 41
0.0
 71
     5
 72
     1
  1
\A1;30
 73
     1
 44
1.0
  0
INSERT
  5
7CE
330
7C9
100
AcDbEntity
  8
___SHELL
 62
     0
370
    -2
100
AcDbBlockReference
  2
_OPEN
 10
206.4323001009999
 20
104.5869203708964
 30
0.0
 41
2.0
 42
2.0
 43
2.0
 50
180.0
  0
INSERT
  5
7CF
330
7C9
100
AcDbEntity
  8
___SHELL
 62
     0
370
    -2
100
AcDbBlockReference
  2
_OPEN
 10
236.4323001009998
 20
104.5869203708964
 30
0.0
 41
2.0
 42
2.0
 43
2.0
  0
POINT
  5
7D0
330
7C9
100
AcDbEntity
  8
Defpoints
 62
     0
100
AcDbPoint
 10
206.4323001009999
 20
68.99691404459648
 30
0.0
  0
POINT
  5
7D1
330
7C9
100
AcDbEntity
  8
Defpoints
 62
     0
100
AcDbPoint
 10
236.4323001009998
 20
67.39755833829646
 30
0.0
  0
POINT
  5
7D2
330
7C9
100
AcDbEntity
  8
Defpoints
 62
     0
100
AcDbPoint
 10
236.4323001009998
 20
104.5869203708964
 30
0.0
  0
ENDBLK
  5
7D4
330
7C9
100
AcDbEntity
  8
0
100
AcDbBlockEnd
  0
BLOCK
  5
7DF
330
7D5
100
AcDbEntity
  8
0
100
AcDbBlockBegin
  2
*D13
 70
     1
 10
0.0
 20
0.0
 30
0.0
  3
*D13
  1

  0
LINE
  5
7D6
330
7D5
100
AcDbEntity
  8
___SHELL
 62
     0
370
    -2
100
AcDbLine
 10
206.4323001009999
 20
68.99691404459648
 30
0.0
 11
206.4323001009999
 21
105.5869203708964
 31
0.0
  0
LINE
  5
7D7
330
7D5
100
AcDbEntity
  8
___SHELL
 62
     0
370
    -2
100
AcDbLine
 10
125.6101328780999
 20
62.83413242349646
 30
0.0
 11
125.6101328780999
 21
105.5869203708964
 31
0.0
  0
LINE
  5
7D8
330
7D5
100
AcDbEntity
  8
___SHELL
 62
     0
370
    -2
100
AcDbLine
 10
204.4323001009999
 20
104.5869203708964
 30
0.0
 11
127.6101328780999
 21
104.5869203708964
 31
0.0
  0
MTEXT
  5
7D9
330
7D5
100
AcDbEntity
  8
___SHELL
 62
     0
100
AcDbMText
 10
165.2041995385799
 20
107.1147841018294
 30
0.0
 40
2.5
 41
0.0
 71
     5
 72
     1
  1
\A1;81
 73
     1
 44
1.0
  0
INSERT
  5
7DA
330
7D5
100
AcDbEntity
  8
___SHELL
 62
     0
370
    -2
100
AcDbBlockReference
  2
_OPEN
 10
206.4323001009999
 20
104.5869203708964
 30
0.0
 41
2.0
 42
2.0
 43
2.0
  0
INSERT
  5
7DB
330
7D5
100
AcDbEntity
  8
___SHELL
 62
     0
370
    -2
100
AcDbBlockReference
  2
_OPEN
 10
125.6101328780999
 20
104.5869203708964
 30
0.0
 41
2.0
 42
2.0
 43
2.0
 50
180.0
  0
POINT
  5
7DC
330
7D5
100
AcDbEntity
  8
Defpoints
 62
     0
100
AcDbPoint
 10
206.4323001009999
 20
68.99691404459648
 30
0.0
  0
POINT
  5
7DD
330
7D5
100
AcDbEntity
  8
Defpoints
 62
     0
100
AcDbPoint
 10
125.6101328780999
 20
62.83413242349646
 30
0.0
  0
POINT
  5
7DE
330
7D5
100
AcDbEntity
  8
Defpoints
 62
     0
100
AcDbPoint
 10
125.6101328780999
 20
104.5869203708964
 30
0.0
  0
ENDBLK
  5
7E0
330
7D5
100
AcDbEntity
  8
0
100
AcDbBlockEnd
  0
BLOCK
  5
7EB
330
7E1
100
AcDbEntity
  8
0
100
AcDbBlockBegin
  2
*D14
 70
     1
 10
0.0
 20
0.0
 30
0.0
  3
*D14
  1

  0
LINE
  5
7E2
330
7E1
100
AcDbEntity
  8
___SHELL
 62
     0
370
    -2
100
AcDbLine
 10
125.6101328780999
 20
236.142422503348
 30
0.0
 11
125.6101328780999
 21
280.5101507720479
 31
0.0
  0
LINE
  5
7E3
330
7E1
100
AcDbEntity
  8
___SHELL
 62
     0
370
    -2
100
AcDbLine
 10
305.2597484157999
 20
268.2147272300479
 30
0.0
 11
305.2597484157999
 21
280.5101507720479
 31
0.0
  0
LINE
  5
7E4
330
7E1
100
AcDbEntity
  8
___SHELL
 62
     0
370
    -2
100
AcDbLine
 10
127.6101328780999
 20
279.510150772048
 30
0.0
 11
303.2597484157999
 21
279.510150772048
 31
0.0
  0
MTEXT
  5
7E5
330
7E1
100
AcDbEntity
  8
___SHELL
 62
     0
100
AcDbMText
 10
213.9649748455179
 20
282.3117589522727
 30
0.0
 40
2.5
 41
0.0
 71
     5
 72
     1
  1
\A1;180
 73
     1
 44
1.0
  0
INSERT
  5
7E6
330
7E1
100
AcDbEntity
  8
___SHELL
 62
     0
370
    -2
100
AcDbBlockReference
  2
_OPEN
 10
125.6101328780999
 20
279.510150772048
 30
0.0
 41
2.0
 42
2.0
 43
2.0
 50
180.0
  0
INSERT
  5
7E7
330
7E1
100
AcDbEntity
  8
___SHELL
 62
     0
370
    -2
100
AcDbBlockReference
  2
_OPEN
 10
305.2597484157999
 20
279.510150772048
 30
0.0
 41
2.0
 42
2.0
 43
2.0
  0
POINT
  5
7E8
330
7E1
100
AcDbEntity
  8
Defpoints
 62
     0
100
AcDbPoint
 10
125.6101328780999
 20
236.142422503348
 30
0.0
  0
POINT
  5
7E9
330
7E1
100
AcDbEntity
  8
Defpoints
 62
     0
100
AcDbPoint
 10
305.2597484157999
 20
268.2147272300479
 30
0.0
  0
POINT
  5
7EA
330
7E1
100
AcDbEntity
  8
Defpoints
 62
     0
100
AcDbPoint
 10
305.2597484157999
 20
279.510150772048
 30
0.0
  0
ENDBLK
  5
7EC
330
7E1
100
AcDbEntity
  8
0
100
AcDbBlockEnd
  0
BLOCK
  5
7F7
330
7ED
100
AcDbEntity
  8
0
100
AcDbBlockBegin
  2
*D15
 70
     1
 10
0.0
 20
0.0
 30
0.0
  3
*D15
  1

  0
LINE
  5
7EE
330
7ED
100
AcDbEntity
  8
___SHELL
 62
     0
370
    -2
100
AcDbLine
 10
206.4323001009999
 20
245.6937066138479
 30
0.0
 11
206.4323001009999
 21
275.5818196749479
 31
0.0
  0
LINE
  5
7EF
330
7ED
100
AcDbEntity
  8
___SHELL
 62
     0
370
    -2
100
AcDbLine
 10
125.6101328780999
 20
236.142422503348
 30
0.0
 11
125.6101328780999
 21
275.5818196749479
 31
0.0
  0
LINE
  5
7F0
330
7ED
100
AcDbEntity
  8
___SHELL
 62
     0
370
    -2
100
AcDbLine
 10
204.4323001009999
 20
274.581819674948
 30
0.0
 11
127.6101328780999
 21
274.581819674948
 31
0.0
  0
MTEXT
  5
7F1
330
7ED
100
AcDbEntity
  8
___SHELL
 62
     0
100
AcDbMText
 10
165.6114836560949
 20
277.0210754510677
 30
0.0
 40
2.5
 41
0.0
 71
     5
 72
     1
  1
\A1;81
 73
     1
 44
1.0
  0
INSERT
  5
7F2
330
7ED
100
AcDbEntity
  8
___SHELL
 62
     0
370
    -2
100
AcDbBlockReference
  2
_OPEN
 10
206.4323001009999
 20
274.581819674948
 30
0.0
 41
2.0
 42
2.0
 43
2.0
  0
INSERT
  5
7F3
330
7ED
100
AcDbEntity
  8
___SHELL
 62
     0
370
    -2
100
AcDbBlockReference
  2
_OPEN
 10
125.6101328780999
 20
274.581819674948
 30
0.0
 41
2.0
 42
2.0
 43
2.0
 50
180.0
  0
POINT
  5
7F4
330
7ED
100
AcDbEntity
  8
Defpoints
 62
     0
100
AcDbPoint
 10
206.4323001009999
 20
245.6937066138479
 30
0.0
  0
POINT
  5
7F5
330
7ED
100
AcDbEntity
  8
Defpoints
 62
     0
100
AcDbPoint
 10
125.6101328780999
 20
236.142422503348
 30
0.0
  0
POINT
  5
7F6
330
7ED
100
AcDbEntity
  8
Defpoints
 62
     0
100
AcDbPoint
 10
125.6101328780999
 20
274.581819674948
 30
0.0
  0
ENDBLK
  5
7F8
330
7ED
100
AcDbEntity
  8
0
100
AcDbBlockEnd
  0
BLOCK
  5
803
330
7F9
100
AcDbEntity
  8
0
100
AcDbBlockBegin
  2
*D16
 70
     1
 10
0.0
 20
0.0
 30
0.0
  3
*D16
  1

  0
LINE
  5
7FA
330
7F9
100
AcDbEntity
  8
___SHELL
 62
     0
370
    -2
100
AcDbLine
 10
102.7015438746998
 20
127.6371758833662
 30
0.0
 11
114.7156907115999
 21
127.6371758833662
 31
0.0
  0
LINE
  5
7FB
330
7F9
100
AcDbEntity
  8
___SHELL
 62
     0
370
    -2
100
AcDbLine
 10
102.7359700127
 20
175.6371758833662
 30
0.0
 11
114.7156907116
 21
175.6371758833662
 31
0.0
  0
LINE
  5
7FC
330
7F9
100
AcDbEntity
  8
___SHELL
 62
     0
370
    -2
100
AcDbLine
 10
113.7156907115999
 20
129.6371758833662
 30
0.0
 11
113.7156907116
 21
173.6371758833662
 31
0.0
  0
MTEXT
  5
7FD
330
7F9
100
AcDbEntity
  8
___SHELL
 62
     0
100
AcDbMText
 10
111.0795576373753
 20
150.0113725934749
 30
0.0
 40
2.5
 41
0.0
 71
     5
 72
     1
  1
\A1;48
 11
0.0000000000000001
 21
1.0
 31
0.0
 73
     1
 44
1.0
  0
INSERT
  5
7FE
330
7F9
100
AcDbEntity
  8
___SHELL
 62
     0
370
    -2
100
AcDbBlockReference
  2
_OPEN
 10
113.7156907115999
 20
127.6371758833662
 30
0.0
 41
2.0
 42
2.0
 43
2.0
 50
270.0
  0
INSERT
  5
7FF
330
7F9
100
AcDbEntity
  8
___SHELL
 62
     0
370
    -2
100
AcDbBlockReference
  2
_OPEN
 10
113.7156907116
 20
175.6371758833662
 30
0.0
 41
2.0
 42
2.0
 43
2.0
 50
90.0
  0
POINT
  5
800
330
7F9
100
AcDbEntity
  8
Defpoints
 62
     0
100
AcDbPoint
 10
102.7015438746998
 20
127.6371758833662
 30
0.0
  0
POINT
  5
801
330
7F9
100
AcDbEntity
  8
Defpoints
 62
     0
100
AcDbPoint
 10
102.7359700127
 20
175.6371758833662
 30
0.0
  0
POINT
  5
802
330
7F9
100
AcDbEntity
  8
Defpoints
 62
     0
100
AcDbPoint
 10
113.7156907116
 20
175.6371758833662
 30
0.0
  0
ENDBLK
  5
804
330
7F9
100
AcDbEntity
  8
0
100
AcDbBlockEnd
  0
BLOCK
  5
80F
330
805
100
AcDbEntity
  8
0
100
AcDbBlockBegin
  2
*D17
 70
     1
 10
0.0
 20
0.0
 30
0.0
  3
*D17
  1

  0
LINE
  5
806
330
805
100
AcDbEntity
  8
___SHELL
 62
     0
370
    -2
100
AcDbLine
 10
34.4146126761
 20
151.1371758833661
 30
0.0
 11
34.4146126761
 21
113.6803989458662
 31
0.0
  0
LINE
  5
807
330
805
100
AcDbEntity
  8
___SHELL
 62
     0
370
    -2
100
AcDbLine
 10
104.4146126761
 20
151.1371758833661
 30
0.0
 11
104.4146126761
 21
113.6803989458662
 31
0.0
  0
LINE
  5
808
330
805
100
AcDbEntity
  8
___SHELL
 62
     0
370
    -2
100
AcDbLine
 10
36.41461267609999
 20
114.6803989458662
 30
0.0
 11
102.4146126761
 21
114.6803989458662
 31
0.0
  0
MTEXT
  5
809
330
805
100
AcDbEntity
  8
___SHELL
 62
     0
100
AcDbMText
 10
67.32019283469971
 20
117.0310465211803
 30
0.0
 40
2.5
 41
0.0
 71
     5
 72
     1
  1
\A1;70
 73
     1
 44
1.0
  0
INSERT
  5
80A
330
805
100
AcDbEntity
  8
___SHELL
 62
     0
370
    -2
100
AcDbBlockReference
  2
_OPEN
 10
34.4146126761
 20
114.6803989458662
 30
0.0
 41
2.0
 42
2.0
 43
2.0
 50
180.0
  0
INSERT
  5
80B
330
805
100
AcDbEntity
  8
___SHELL
 62
     0
370
    -2
100
AcDbBlockReference
  2
_OPEN
 10
104.4146126761
 20
114.6803989458662
 30
0.0
 41
2.0
 42
2.0
 43
2.0
  0
POINT
  5
80C
330
805
100
AcDbEntity
  8
Defpoints
 62
     0
100
AcDbPoint
 10
34.4146126761
 20
151.1371758833661
 30
0.0
  0
POINT
  5
80D
330
805
100
AcDbEntity
  8
Defpoints
 62
     0
100
AcDbPoint
 10
104.4146126761
 20
151.1371758833661
 30
0.0
  0
POINT
  5
80E
330
805
100
AcDbEntity
  8
Defpoints
 62
     0
100
AcDbPoint
 10
104.4146126761
 20
114.6803989458662
 30
0.0
  0
ENDBLK
  5
810
330
805
100
AcDbEntity
  8
0
100
AcDbBlockEnd
  0
BLOCK
  5
81B
330
811
100
AcDbEntity
  8
0
100
AcDbBlockBegin
  2
*D18
 70
     1
 10
0.0
 20
0.0
 30
0.0
  3
*D18
  1

  0
LINE
  5
812
330
811
100
AcDbEntity
  8
___SHELL
 62
     0
370
    -2
100
AcDbLine
 10
36.0923743106
 20
127.6459034158662
 30
0.0
 11
24.62705220860001
 21
127.6459034158662
 31
0.0
  0
LINE
  5
813
330
811
100
AcDbEntity
  8
___SHELL
 62
     0
370
    -2
100
AcDbLine
 10
51.8635772428
 20
184.6371758833662
 30
0.0
 11
24.62705220860003
 21
184.6371758833662
 31
0.0
  0
LINE
  5
814
330
811
100
AcDbEntity
  8
___SHELL
 62
     0
370
    -2
100
AcDbLine
 10
25.62705220860001
 20
129.645903415866
 30
0.0
 11
25.62705220860002
 21
182.6371758833662
 31
0.0
  0
MTEXT
  5
815
330
811
100
AcDbEntity
  8
___SHELL
 62
     0
100
AcDbMText
 10
23.18922288102998
 20
156.1482933330333
 30
0.0
 40
2.5
 41
0.0
 71
     5
 72
     1
  1
\A1;57
 11
0.0000000000000001
 21
1.0
 31
0.0
 73
     1
 44
1.0
  0
INSERT
  5
816
330
811
100
AcDbEntity
  8
___SHELL
 62
     0
370
    -2
100
AcDbBlockReference
  2
_OPEN
 10
25.62705220860001
 20
127.6459034158662
 30
0.0
 41
2.0
 42
2.0
 43
2.0
 50
270.0
  0
INSERT
  5
817
330
811
100
AcDbEntity
  8
___SHELL
 62
     0
370
    -2
100
AcDbBlockReference
  2
_OPEN
 10
25.62705220860003
 20
184.6371758833662
 30
0.0
 41
2.0
 42
2.0
 43
2.0
 50
90.0
  0
POINT
  5
818
330
811
100
AcDbEntity
  8
Defpoints
 62
     0
100
AcDbPoint
 10
36.0923743106
 20
127.6459034158662
 30
0.0
  0
POINT
  5
819
330
811
100
AcDbEntity
  8
Defpoints
 62
     0
100
AcDbPoint
 10
51.8635772428
 20
184.6371758833662
 30
0.0
  0
POINT
  5
81A
330
811
100
AcDbEntity
  8
Defpoints
 62
     0
100
AcDbPoint
 10
25.62705220860003
 20
184.6371758833662
 30
0.0
  0
ENDBLK
  5
81C
330
811
100
AcDbEntity
  8
0
100
AcDbBlockEnd
  0
BLOCK
  5
82C
330
81D
100
AcDbEntity
  8
0
100
AcDbBlockBegin
  2
A$C5F064851
 70
     0
 10
0.0
 20
0.0
 30
0.0
  3
A$C5F064851
  1

  0
LINE
  5
81E
330
81D
100
AcDbEntity
  8
非表示
100
AcDbLine
 10
0.0000004526051498
 20
-0.0000003389222911
 30
0.0
 11
420.0000004526051
 21
-0.0000003389222911
 31
0.0
  0
LINE
  5
81F
330
81D
100
AcDbEntity
  8
非表示
100
AcDbLine
 10
420.0000004526051
 20
-0.0000003389222911
 30
0.0
 11
420.0000004526051
 21
296.9999996610777
 31
0.0
  0
LINE
  5
820
330
81D
100
AcDbEntity
  8
0
100
AcDbLine
 10
410.0000004526051
 20
9.999999661077707
 30
0.0
 11
320.0000004526051
 21
9.999999661077707
 31
0.0
  0
LINE
  5
821
330
81D
100
AcDbEntity
  8
0
100
AcDbLine
 10
410.0000004526051
 20
17.99999966107771
 30
0.0
 11
320.0000004526051
 21
17.99999966107771
 31
0.0
  0
LINE
  5
822
330
81D
100
AcDbEntity
  8
0
100
AcDbLine
 10
410.0000004526051
 20
25.99999966107771
 30
0.0
 11
320.0000004526051
 21
25.99999966107771
 31
0.0
  0
LINE
  5
823
330
81D
100
AcDbEntity
  8
0
100
AcDbLine
 10
320.0000004526051
 20
25.99999966107771
 30
0.0
 11
320.0000004526051
 21
9.999999661077707
 31
0.0
  0
LINE
  5
824
330
81D
100
AcDbEntity
  8
0
100
AcDbLine
 10
340.0000004526051
 20
25.99999966107771
 30
0.0
 11
340.0000004526051
 21
9.999999661077707
 31
0.0
  0
TEXT
  5
825
330
81D
100
AcDbEntity
  8
0
100
AcDbText
 10
325.9352904526051
 20
19.67168566107769
 30
0.0
 40
4.0
  1
品名
  7
STANDARD1
100
AcDbText
  0
TEXT
  5
826
330
81D
100
AcDbEntity
  8
0
100
AcDbText
 10
325.9352904526051
 20
11.67168566107769
 30
0.0
 40
4.0
  1
型名
  7
STANDARD1
100
AcDbText
  0
TEXT
  5
827
330
81D
100
AcDbEntity
  8
0
100
AcDbText
 10
341.9352904526051
 20
19.67168566107769
 30
0.0
 40
4.0
  1
固定カラーカメラ
  7
STANDARD1
100
AcDbText
  0
TEXT
  5
828
330
81D
100
AcDbEntity
  8
0
100
AcDbText
 10
341.9352904526051
 20
11.67168566107769
 30
0.0
 40
4.0
  1
C-2911
  7
STANDARD1
100
AcDbText
  0
LINE
  5
829
330
81D
100
AcDbEntity
  8
0
100
AcDbLine
 10
410.0000004526051
 20
25.99999966107771
 30
0.0
 11
410.0000004526051
 21
9.999999661077707
 31
0.0
  0
LINE
  5
82A
330
81D
100
AcDbEntity
  8
非表示
100
AcDbLine
 10
0.0000004526051498
 20
296.9999996610777
 30
0.0
 11
420.0000004526051
 21
296.9999996610777
 31
0.0
  0
LINE
  5
82B
330
81D
100
AcDbEntity
  8
非表示
100
AcDbLine
 10
0.0000004526051498
 20
-0.0000003389222911
 30
0.0
 11
0.0000004526051498
 21
296.9999996610777
 31
0.0
  0
ENDBLK
  5
82D
330
81D
100
AcDbEntity
  8
0
100
AcDbBlockEnd
  0
BLOCK
  5
A52
330
896
100
AcDbEntity
  8
0
100
AcDbBlockBegin
  2
B-9360_外形図
 70
     0
 10
0.0
 20
0.0
 30
0.0
  3
B-9360_外形図
  1

  0
LINE
  5
897
330
896
100
AcDbEntity
  8
非表示
  6
Continuous
100
AcDbLine
 10
0.0
 20
0.0
 30
0.0
 11
0.0
 21
297.0
 31
0.0
  0
LINE
  5
898
330
896
100
AcDbEntity
  8
非表示
  6
Continuous
100
AcDbLine
 10
0.0
 20
0.0
 30
0.0
 11
420.0
 21
0.0
 31
0.0
  0
LINE
  5
899
330
896
100
AcDbEntity
  8
非表示
  6
Continuous
100
AcDbLine
 10
0.0
 20
297.0
 30
0.0
 11
420.0
 21
297.0
 31
0.0
  0
LINE
  5
89A
330
896
100
AcDbEntity
  8
非表示
  6
Continuous
100
AcDbLine
 10
420.0
 20
0.0
 30
0.0
 11
420.0
 21
297.0
 31
0.0
  0
LINE
  5
89B
330
896
100
AcDbEntity
  8
非表示
100
AcDbLine
 10
420.0
 20
0.0
 30
0.0
 11
420.0
 21
297.0
 31
0.0
  0
LINE
  5
89C
330
896
100
AcDbEntity
  8
0
100
AcDbLine
 10
410.0
 20
10.0
 30
0.0
 11
320.0
 21
10.0
 31
0.0
  0
LINE
  5
89D
330
896
100
AcDbEntity
  8
0
100
AcDbLine
 10
410.0
 20
18.0
 30
0.0
 11
320.0
 21
18.0
 31
0.0
  0
LINE
  5
89E
330
896
100
AcDbEntity
  8
0
100
AcDbLine
 10
410.0
 20
26.0
 30
0.0
 11
320.0
 21
26.0
 31
0.0
  0
LINE
  5
89F
330
896
100
AcDbEntity
  8
0
100
AcDbLine
 10
320.0
 20
26.0
 30
0.0
 11
320.0
 21
10.0
 31
0.0
  0
LINE
  5
8A0
330
896
100
AcDbEntity
  8
0
100
AcDbLine
 10
340.0
 20
26.0
 30
0.0
 11
340.0
 21
10.0
 31
0.0
  0
TEXT
  5
8A1
330
896
100
AcDbEntity
  8
0
100
AcDbText
 10
325.93529
 20
19.67168600000039
 30
0.0
 40
4.0
  1
品名
  7
STANDARD1
100
AcDbText
  0
TEXT
  5
8A2
330
896
100
AcDbEntity
  8
0
100
AcDbText
 10
325.93529
 20
11.6716860000003
 30
0.0
 40
4.0
  1
型名
  7
STANDARD1
100
AcDbText
  0
TEXT
  5
8A3
330
896
100
AcDbEntity
  8
0
100
AcDbText
 10
341.9352899999998
 20
19.67168600000039
 30
0.0
 40
4.0
  1
屋外ドーム型カメラケース
  7
STANDARD1
100
AcDbText
  0
TEXT
  5
8A4
330
896
100
AcDbEntity
  8
0
100
AcDbText
 10
341.9352899999998
 20
11.6716860000003
 30
0.0
 40
4.0
  1
B-9360
  7
STANDARD1
100
AcDbText
  0
LINE
  5
8A5
330
896
100
AcDbEntity
  8
0
100
AcDbLine
 10
410.0
 20
26.0
 30
0.0
 11
410.0
 21
10.0
 31
0.0
  0
TEXT
  5
8A6
330
896
100
AcDbEntity
  8
文字
100
AcDbText
 10
162.5677538568456
 20
130.9081752794094
 30
0.0
 40
2.799999999999998
  1
LANケーブル引き込み用防水ブッシュ
 41
0.8
  7
STANDARD1
100
AcDbText
  0
LINE
  5
8A7
330
896
100
AcDbEntity
  8
文字
100
AcDbLine
 10
154.3169826589455
 20
128.1828268283094
 30
0.0
 11
160.5677538568456
 21
132.3081752794095
 31
0.0
  0
LINE
  5
8A8
330
896
100
AcDbEntity
  8
文字
100
AcDbLine
 10
160.5677538568456
 20
132.3081752794095
 30
0.0
 11
162.5677538568456
 21
132.3081752794095
 31
0.0
  0
LWPOLYLINE
  5
8A9
330
896
100
AcDbEntity
  8
文字
100
AcDbPolyline
 90
        3
 70
     0
 43
0.0
 10
155.6419541333456
 20
129.8061184200095
 10
154.3169826589455
 20
128.1828268283094
 10
156.3304882293454
 20
128.7628443435095
  0
LINE
  5
8AA
330
896
100
AcDbEntity
  8
文字
100
AcDbLine
 10
126.8433856985454
 20
111.9328268283094
 30
0.0
 11
126.7342333410454
 21
114.4328268283095
 31
0.0
  0
LINE
  5
8AB
330
896
100
AcDbEntity
  8
文字
100
AcDbLine
 10
126.7192376805455
 20
114.4328268283095
 30
0.0
 11
126.7192376805455
 21
114.9328268283094
 31
0.0
  0
LINE
  5
8AC
330
896
100
AcDbEntity
  8
文字
100
AcDbLine
 10
127.7864317230454
 20
111.6828268283095
 30
0.0
 11
127.7864317230454
 21
111.9328268283094
 31
0.0
  0
LINE
  5
8AD
330
896
100
AcDbEntity
  8
文字
100
AcDbLine
 10
128.8942294570454
 20
81.00421849530951
 30
0.0
 11
127.2864317230455
 21
111.6828268283095
 31
0.0
  0
LINE
  5
8AE
330
896
100
AcDbEntity
  8
文字
100
AcDbLine
 10
131.1469114554456
 20
111.9328268283094
 30
0.0
 11
131.2014876338456
 21
114.4328268283095
 31
0.0
  0
LINE
  5
8AF
330
896
100
AcDbEntity
  8
文字
100
AcDbLine
 10
151.2518299680456
 20
124.4328268283094
 30
0.0
 11
150.0417709985454
 21
123.2227678588095
 31
0.0
  0
LWPOLYLINE
  5
8B0
330
896
100
AcDbEntity
  8
文字
100
AcDbPolyline
 90
        7
 70
     0
 43
0.0
 10
150.0817120290455
 20
123.1828268285094
 10
150.3360179458455
 20
123.3234575449094
 10
150.5852330447455
 20
123.4066728323095
 10
150.8294112035455
 20
123.4327951514095
 10
151.0702868205455
 20
123.4037076346095
 10
151.3121540825455
 20
123.3208937150095
 10
151.5607319750456
 20
123.1828268285094
  0
LINE
  5
8B1
330
896
100
AcDbEntity
  8
文字
100
AcDbLine
 10
134.5878519007456
 20
114.4328268283095
 30
0.0
 11
134.6198657585454
 21
111.9328268283094
 31
0.0
  0
LINE
  5
8B2
330
896
100
AcDbEntity
  8
文字
100
AcDbLine
 10
132.6648730684454
 20
111.9328268283094
 30
0.0
 11
132.6350832387456
 21
114.4328268270094
 31
0.0
  0
LINE
  5
8B3
330
896
100
AcDbEntity
  8
文字
100
AcDbLine
 10
132.7055680584454
 20
114.4328268283095
 30
0.0
 11
132.7055680584454
 21
114.9328268283094
 31
0.0
  0
LWPOLYLINE
  5
8B4
330
896
100
AcDbEntity
  8
文字
100
AcDbPolyline
 90
        7
 70
     0
 43
0.0
 10
157.4429279610454
 20
123.1828268285094
 10
157.6972338765455
 20
123.3234575446095
 10
157.9464489756453
 20
123.4066728322094
 10
158.1906271353455
 20
123.4327951514095
 10
158.4315027523456
 20
123.4037076345094
 10
158.6733700142454
 20
123.3208937147095
 10
158.9219479070455
 20
123.1828268285094
  0
LINE
  5
8B5
330
896
100
AcDbEntity
  8
文字
100
AcDbLine
 10
132.1704063190455
 20
78.84981412630948
 30
0.0
 11
129.1435442245455
 21
80.5973737713095
 31
0.0
  0
LINE
  5
8B6
330
896
100
AcDbEntity
  8
文字
100
AcDbLine
 10
152.5018299680455
 20
127.4328268283094
 30
0.0
 11
152.0018299680456
 21
124.4328268283094
 31
0.0
  0
LINE
  5
8B7
330
896
100
AcDbEntity
  8
文字
100
AcDbLine
 10
150.0018299680456
 20
123.1828268283094
 30
0.0
 11
150.0018299680456
 21
119.9328268283095
 31
0.0
  0
LINE
  5
8B8
330
896
100
AcDbEntity
  8
文字
100
AcDbLine
 10
150.0018299680456
 20
115.4328268277095
 30
0.0
 11
150.0018299680456
 21
114.4328268283095
 31
0.0
  0
LINE
  5
8B9
330
896
100
AcDbEntity
  8
文字
100
AcDbLine
 10
150.0817120290455
 20
120.9328268283095
 30
0.0
 11
150.0817120290455
 21
123.1828268285094
 31
0.0
  0
LINE
  5
8BA
330
896
100
AcDbEntity
  8
文字
100
AcDbLine
 10
150.2518299680455
 20
119.9328268283095
 30
0.0
 11
150.2518299680455
 21
119.4328268283095
 31
0.0
  0
LINE
  5
8BB
330
896
100
AcDbEntity
  8
文字
100
AcDbLine
 10
150.2518299680455
 20
117.3328268283094
 30
0.0
 11
150.2518299680455
 21
115.4328268283095
 31
0.0
  0
LWPOLYLINE
  5
8BC
330
896
100
AcDbEntity
  8
文字
100
AcDbPolyline
 90
        5
 70
     0
 43
0.0
 10
151.0959611231455
 20
117.3328268283094
 10
151.1007097028454
 20
117.3706032708095
 10
151.1146330815456
 20
117.4031218411095
 10
151.1351133235454
 20
117.4247055150094
 10
151.1606842416456
 20
117.4328268279094
  0
LINE
  5
8BD
330
896
100
AcDbEntity
  8
文字
100
AcDbLine
 10
151.0018299680456
 20
119.4328268283095
 30
0.0
 11
151.0018299680456
 21
117.4328268283095
 31
0.0
  0
LINE
  5
8BE
330
896
100
AcDbEntity
  8
文字
100
AcDbLine
 10
151.0959611225455
 20
115.4328268283095
 30
0.0
 11
151.0959611225455
 21
117.3328268283094
 31
0.0
  0
LINE
  5
8BF
330
896
100
AcDbEntity
  8
文字
100
AcDbLine
 10
151.5607319750456
 20
123.1828268285094
 30
0.0
 11
151.5607319750456
 21
120.9328268283095
 31
0.0
  0
LINE
  5
8C0
330
896
100
AcDbEntity
  8
文字
100
AcDbLine
 10
152.5018299680455
 20
128.1828268283094
 30
0.0
 11
152.5018299680455
 21
127.4328268283094
 31
0.0
  0
LINE
  5
8C1
330
896
100
AcDbEntity
  8
文字
100
AcDbLine
 10
153.0228100220456
 20
120.9328268283095
 30
0.0
 11
153.0228100220456
 21
123.1828268271095
 31
0.0
  0
LINE
  5
8C2
330
896
100
AcDbEntity
  8
文字
100
AcDbLine
 10
153.6576988135454
 20
117.3328268283094
 30
0.0
 11
153.6576988135454
 21
115.4328268283095
 31
0.0
  0
LWPOLYLINE
  5
8C3
330
896
100
AcDbEntity
  8
文字
100
AcDbPolyline
 90
        5
 70
     0
 43
0.0
 10
153.6576988135454
 20
117.3328268283094
 10
153.6604304340455
 20
117.3714835274094
 10
153.6683242785455
 20
117.4043099562094
 10
153.6796438951455
 20
117.4254516405095
 10
153.6929756947456
 20
117.4328268279094
  0
LWPOLYLINE
  5
8C4
330
896
100
AcDbEntity
  8
文字
100
AcDbPolyline
 90
        5
 70
     0
 43
0.0
 10
155.3459611225455
 20
117.3328268283094
 10
155.3432998759454
 20
117.3706032709094
 10
155.3357569940455
 20
117.4031218411095
 10
155.3245887183454
 20
117.4247055150094
 10
155.3106842413455
 20
117.4328268279094
  0
LINE
  5
8C5
330
896
100
AcDbEntity
  8
文字
100
AcDbLine
 10
155.3459611225455
 20
115.4328268283095
 30
0.0
 11
155.3459611225455
 21
117.3328268283094
 31
0.0
  0
LINE
  5
8C6
330
896
100
AcDbEntity
  8
文字
100
AcDbLine
 10
155.9808499140455
 20
123.1828268271095
 30
0.0
 11
155.9808499140455
 21
120.9328268283095
 31
0.0
  0
LINE
  5
8C7
330
896
100
AcDbEntity
  8
文字
100
AcDbLine
 10
156.5018299680455
 20
128.1828268283094
 30
0.0
 11
156.5018299680455
 21
127.4328268283094
 31
0.0
  0
LINE
  5
8C8
330
896
100
AcDbEntity
  8
文字
100
AcDbLine
 10
157.4429279610454
 20
120.9328268283095
 30
0.0
 11
157.4429279610454
 21
123.1828268285094
 31
0.0
  0
LINE
  5
8C9
330
896
100
AcDbEntity
  8
文字
100
AcDbLine
 10
164.1301514268453
 20
108.0705149911094
 30
0.0
 11
164.1332659178456
 21
108.0767616939094
 31
0.0
  0
LINE
  5
8CA
330
896
100
AcDbEntity
  8
文字
100
AcDbLine
 10
197.1524571267456
 20
78.7828268284095
 30
0.0
 11
132.4204063354455
 21
78.7828268284095
 31
0.0
  0
LINE
  5
8CB
330
896
100
AcDbEntity
  8
文字
100
AcDbLine
 10
197.4024563181453
 20
78.84981412630948
 30
0.0
 11
132.1704071278454
 21
78.84981412630948
 31
0.0
  0
LINE
  5
8CC
330
896
100
AcDbEntity
  8
文字
100
AcDbLine
 10
129.1435442245455
 20
80.5973737713095
 30
0.0
 11
200.4293183375454
 21
80.5973737713095
 31
0.0
  0
LINE
  5
8CD
330
896
100
AcDbEntity
  8
文字
100
AcDbLine
 10
128.8942294570454
 20
81.00421849530951
 30
0.0
 11
200.6786330988456
 21
81.00421849530951
 31
0.0
  0
LINE
  5
8CE
330
896
100
AcDbEntity
  8
文字
100
AcDbLine
 10
157.9076988135454
 20
117.3328268283094
 30
0.0
 11
157.9076988135454
 21
115.4328268283095
 31
0.0
  0
LINE
  5
8CF
330
896
100
AcDbEntity
  8
文字
100
AcDbLine
 10
158.0018299680455
 20
119.4328268283095
 30
0.0
 11
158.0018299680455
 21
117.4328268283095
 31
0.0
  0
LINE
  5
8D0
330
896
100
AcDbEntity
  8
文字
100
AcDbLine
 10
158.7518299680455
 20
119.9328268283095
 30
0.0
 11
158.7518299680455
 21
119.4328268283095
 31
0.0
  0
LINE
  5
8D1
330
896
100
AcDbEntity
  8
文字
100
AcDbLine
 10
158.7518299680455
 20
115.4328268283095
 30
0.0
 11
158.7518299680455
 21
117.3328268283094
 31
0.0
  0
LINE
  5
8D2
330
896
100
AcDbEntity
  8
文字
100
AcDbLine
 10
158.9219479070455
 20
123.1828268285094
 30
0.0
 11
158.9219479070455
 21
120.9328268283095
 31
0.0
  0
LINE
  5
8D3
330
896
100
AcDbEntity
  8
文字
100
AcDbLine
 10
159.0018299680455
 20
123.1828268283094
 30
0.0
 11
159.0018299680455
 21
119.9328268283095
 31
0.0
  0
LINE
  5
8D4
330
896
100
AcDbEntity
  8
文字
100
AcDbLine
 10
159.0018299680455
 20
115.4328268277095
 30
0.0
 11
159.0018299680455
 21
114.4328268283095
 31
0.0
  0
LINE
  5
8D5
330
896
100
AcDbEntity
  8
文字
100
AcDbLine
 10
162.2864317230455
 20
111.6828268283095
 30
0.0
 11
162.4050349290455
 21
109.4197428393094
 31
0.0
  0
LINE
  5
8D6
330
896
100
AcDbEntity
  8
文字
100
AcDbLine
 10
161.0565539903456
 20
109.4197428335094
 30
0.0
 11
160.9420518741455
 21
111.6828268283095
 31
0.0
  0
LINE
  5
8D7
330
896
100
AcDbEntity
  8
文字
100
AcDbLine
 10
161.7932665340456
 20
114.4328268283095
 30
0.0
 11
161.7932665340456
 21
114.9328268283094
 31
0.0
  0
LINE
  5
8D8
330
896
100
AcDbEntity
  8
文字
100
AcDbLine
 10
162.2864317230455
 20
114.4328268283095
 30
0.0
 11
162.2864317230455
 21
111.6828268283095
 31
0.0
  0
LINE
  5
8D9
330
896
100
AcDbEntity
  8
文字
100
AcDbLine
 10
163.3864317230455
 20
109.1828268283095
 30
0.0
 11
163.3864317230455
 21
108.4845775948094
 31
0.0
  0
LINE
  5
8DA
330
896
100
AcDbEntity
  8
文字
100
AcDbLine
 10
164.6014317230456
 20
108.0057243887095
 30
0.0
 11
164.6014317230456
 21
108.0767616939094
 31
0.0
  0
LINE
  5
8DB
330
896
100
AcDbEntity
  8
一点鎖線
100
AcDbLine
 10
164.7864317230455
 20
45.8798611855095
 30
0.0
 11
164.7864317230455
 21
127.8258303225095
 31
0.0
  0
LINE
  5
8DC
330
896
100
AcDbEntity
  8
文字
100
AcDbLine
 10
164.9714317230454
 20
108.0767616939094
 30
0.0
 11
164.9714317230454
 21
108.0057243887095
 31
0.0
  0
LINE
  5
8DD
330
896
100
AcDbEntity
  8
文字
100
AcDbLine
 10
156.5018299680455
 20
127.4328268283094
 30
0.0
 11
157.0018299680455
 21
124.4328268283094
 31
0.0
  0
LWPOLYLINE
  5
8DE
330
896
100
AcDbEntity
  8
文字
100
AcDbPolyline
 90
        5
 70
     0
 43
0.0
 10
157.9076988128455
 20
117.3328268283094
 10
157.9026565663456
 20
117.3714835274094
 10
157.8882539739456
 20
117.4043099562094
 10
157.8673353274456
 20
117.4254516405095
 10
157.8429756944454
 20
117.4328268279094
  0
LINE
  5
8DF
330
896
100
AcDbEntity
  8
文字
100
AcDbLine
 10
166.1864317230454
 20
109.1828268283095
 30
0.0
 11
166.1864317230454
 21
108.4845775948094
 31
0.0
  0
LINE
  5
8E0
330
896
100
AcDbEntity
  8
文字
100
AcDbLine
 10
167.2864317230454
 20
111.6828268283095
 30
0.0
 11
167.2864317230454
 21
114.4328268283095
 31
0.0
  0
LINE
  5
8E1
330
896
100
AcDbEntity
  8
文字
100
AcDbLine
 10
167.7795969119455
 20
114.4328268283095
 30
0.0
 11
167.7795969119455
 21
114.9328268283094
 31
0.0
  0
LINE
  5
8E2
330
896
100
AcDbEntity
  8
文字
100
AcDbLine
 10
168.6308115652455
 20
111.6828268283095
 30
0.0
 11
168.5163094489453
 21
109.4197428335094
 31
0.0
  0
LINE
  5
8E3
330
896
100
AcDbEntity
  8
文字
100
AcDbLine
 10
167.1678285170455
 20
109.4197428393094
 30
0.0
 11
167.2864317230454
 21
111.6828268283095
 31
0.0
  0
LINE
  5
8E4
330
896
100
AcDbEntity
  8
文字
100
AcDbLine
 10
165.4395975281456
 20
108.0767616939094
 30
0.0
 11
165.4427120191455
 21
108.0705149911094
 31
0.0
  0
LWPOLYLINE
  5
8E5
330
896
100
AcDbEntity
  8
文字
100
AcDbPolyline
 90
        4
 70
     0
 43
0.0
 10
164.7864317230455
 20
108.0705062723094
 10
164.8484375741455
 20
108.0712131495095
 10
164.9096052909456
 20
108.0732819482095
 10
164.9714317230454
 20
108.0767616939094
  0
LINE
  5
8E6
330
896
100
AcDbEntity
  8
文字
100
AcDbLine
 10
164.5040516565455
 20
108.0057243883095
 30
0.0
 11
164.6014317229455
 21
108.0057243883095
 31
0.0
  0
LINE
  5
8E7
330
896
100
AcDbEntity
  8
文字
100
AcDbLine
 10
164.9714317230454
 20
108.0057243883095
 30
0.0
 11
165.0688117894453
 21
108.0057243883095
 31
0.0
  0
LINE
  5
8E8
330
896
100
AcDbEntity
  8
文字
100
AcDbLine
 10
163.4492224211455
 20
108.3705126287095
 30
0.0
 11
166.1236410249456
 21
108.3705126287095
 31
0.0
  0
LINE
  5
8E9
330
896
100
AcDbEntity
  8
文字
100
AcDbLine
 10
166.1864317230454
 20
108.4845775948094
 30
0.0
 11
163.3864317230455
 21
108.4845775948094
 31
0.0
  0
LWPOLYLINE
  5
8EA
330
896
100
AcDbEntity
  8
文字
100
AcDbPolyline
 90
        4
 70
     0
 43
0.0
 10
164.6014317230456
 20
108.0767616939094
 10
164.6635136098456
 20
108.0732704809095
 10
164.7247238263455
 20
108.0712063961094
 10
164.7864317230455
 20
108.0705062723094
  0
LWPOLYLINE
  5
8EB
330
896
100
AcDbEntity
  8
文字
100
AcDbPolyline
 90
        5
 70
     0
 43
0.0
 10
161.0565539903456
 20
109.4197428335094
 10
161.2948367633455
 20
109.3149194599094
 10
161.5233730152454
 20
109.2472039968094
 10
161.7298395834454
 20
109.2027725599094
 10
161.9168052369454
 20
109.1828268205094
  0
LWPOLYLINE
  5
8EC
330
896
100
AcDbEntity
  8
文字
100
AcDbPolyline
 90
        5
 70
     0
 43
0.0
 10
167.6560582023455
 20
109.1828268205094
 10
167.8452889471456
 20
109.2031662240094
 10
168.0523266136455
 20
109.2479228321094
 10
168.2774648571454
 20
109.3147601132095
 10
168.5163094489453
 20
109.4197428335094
  0
LWPOLYLINE
  5
8ED
330
896
100
AcDbEntity
  8
文字
100
AcDbPolyline
 90
        6
 70
     0
 43
0.0
 10
162.4050349418454
 20
109.4197425965095
 10
162.3384585688455
 20
109.4190162299095
 10
162.1455156844454
 20
109.4157383126094
 10
161.8471801218454
 20
109.4158913893094
 10
161.4706635933455
 20
109.4191666330095
 10
161.0565542879454
 20
109.4197427486095
  0
LWPOLYLINE
  5
8EE
330
896
100
AcDbEntity
  8
文字
100
AcDbPolyline
 90
        6
 70
     0
 43
0.0
 10
168.5163091795456
 20
109.4197431728095
 10
168.0830425437456
 20
109.4190075478095
 10
167.7028302268454
 20
109.4157366629094
 10
167.4109662339455
 20
109.4158892706095
 10
167.2284530056456
 20
109.4191569715095
 10
167.1678285264455
 20
109.4197430207094
  0
LINE
  5
8EF
330
896
100
AcDbEntity
  8
文字
100
AcDbLine
 10
167.6560581904456
 20
109.1828268283095
 30
0.0
 11
161.9168052555455
 21
109.1828268283095
 31
0.0
  0
LINE
  5
8F0
330
896
100
AcDbEntity
  8
文字
100
AcDbLine
 10
162.4050349290455
 20
109.4197428393094
 30
0.0
 11
167.1678285170455
 21
109.4197428393094
 31
0.0
  0
LINE
  5
8F1
330
896
100
AcDbEntity
  8
文字
100
AcDbLine
 10
202.2860788639456
 20
111.6828268283095
 30
0.0
 11
127.2867849746454
 21
111.6828268283095
 31
0.0
  0
LINE
  5
8F2
330
896
100
AcDbEntity
  8
文字
100
AcDbLine
 10
202.7294685243455
 20
111.9328268283094
 30
0.0
 11
167.2864317230454
 21
111.9328268283094
 31
0.0
  0
LINE
  5
8F3
330
896
100
AcDbEntity
  8
文字
100
AcDbLine
 10
162.2864317230455
 20
111.9328268283094
 30
0.0
 11
126.8433856985454
 21
111.9328268283094
 31
0.0
  0
LINE
  5
8F4
330
896
100
AcDbEntity
  8
文字
100
AcDbLine
 10
157.7518299680455
 20
124.4328268283094
 30
0.0
 11
158.9618889374455
 21
123.2227678589093
 31
0.0
  0
LINE
  5
8F5
330
896
100
AcDbEntity
  8
文字
100
AcDbLine
 10
197.4024571270455
 20
78.84981412630948
 30
0.0
 11
200.4293192215456
 21
80.5973737713095
 31
0.0
  0
LINE
  5
8F6
330
896
100
AcDbEntity
  8
文字
100
AcDbLine
 10
126.7192376805455
 20
114.4328268283095
 30
0.0
 11
131.4606363945455
 21
114.4328268283095
 31
0.0
  0
LINE
  5
8F7
330
896
100
AcDbEntity
  8
文字
100
AcDbLine
 10
131.5035059945456
 20
114.4328268283095
 30
0.0
 11
198.0693576095456
 21
114.4328268283095
 31
0.0
  0
LINE
  5
8F8
330
896
100
AcDbEntity
  8
文字
100
AcDbLine
 10
198.1122270514456
 20
114.4328268283095
 30
0.0
 11
202.8536257654454
 21
114.4328268283095
 31
0.0
  0
LINE
  5
8F9
330
896
100
AcDbEntity
  8
文字
100
AcDbLine
 10
126.7192376805455
 20
114.9328268283094
 30
0.0
 11
132.7055680584454
 21
114.9328268283094
 31
0.0
  0
LINE
  5
8FA
330
896
100
AcDbEntity
  8
文字
100
AcDbLine
 10
161.7932665340456
 20
114.9328268283094
 30
0.0
 11
167.7795969119455
 21
114.9328268283094
 31
0.0
  0
LINE
  5
8FB
330
896
100
AcDbEntity
  8
文字
100
AcDbLine
 10
196.8672953875455
 20
114.9328268283094
 30
0.0
 11
202.8536257654454
 21
114.9328268283094
 31
0.0
  0
LINE
  5
8FC
330
896
100
AcDbEntity
  8
文字
100
AcDbLine
 10
150.0018299680456
 20
115.4328268283095
 30
0.0
 11
150.2518299680455
 21
115.4328268283095
 31
0.0
  0
LINE
  5
8FD
330
896
100
AcDbEntity
  8
文字
100
AcDbLine
 10
151.0959611228454
 20
115.4328268283095
 30
0.0
 11
153.6576988132456
 21
115.4328268283095
 31
0.0
  0
LINE
  5
8FE
330
896
100
AcDbEntity
  8
文字
100
AcDbLine
 10
155.3459611228454
 20
115.4328268283095
 30
0.0
 11
157.9076988132456
 21
115.4328268283095
 31
0.0
  0
LINE
  5
8FF
330
896
100
AcDbEntity
  8
文字
100
AcDbLine
 10
158.7518299680455
 20
115.4328268283095
 30
0.0
 11
159.0018299679455
 21
115.4328268283095
 31
0.0
  0
LINE
  5
900
330
896
100
AcDbEntity
  8
文字
100
AcDbLine
 10
194.9529976965454
 20
111.9328268283094
 30
0.0
 11
194.9850115544455
 21
114.4328268283095
 31
0.0
  0
LINE
  5
901
330
896
100
AcDbEntity
  8
文字
100
AcDbLine
 10
150.2518299676455
 20
117.3328268283094
 30
0.0
 11
158.7518299680455
 21
117.3328268283094
 31
0.0
  0
LINE
  5
902
330
896
100
AcDbEntity
  8
文字
100
AcDbLine
 10
158.6518299680456
 20
117.4328268283095
 30
0.0
 11
150.3518299680455
 21
117.4328268283095
 31
0.0
  0
LINE
  5
903
330
896
100
AcDbEntity
  8
文字
100
AcDbLine
 10
150.2518299701454
 20
119.4328268283095
 30
0.0
 11
158.7518299659454
 21
119.4328268283095
 31
0.0
  0
LINE
  5
904
330
896
100
AcDbEntity
  8
文字
100
AcDbLine
 10
198.3713758121455
 20
114.4328268283095
 30
0.0
 11
198.4259519905455
 21
111.9328268283094
 31
0.0
  0
LINE
  5
905
330
896
100
AcDbEntity
  8
文字
100
AcDbLine
 10
196.8672953875455
 20
114.4328268283095
 30
0.0
 11
196.8672953875455
 21
114.9328268283094
 31
0.0
  0
LINE
  5
906
330
896
100
AcDbEntity
  8
文字
100
AcDbLine
 10
196.9377802072454
 20
114.4328268270094
 30
0.0
 11
196.9079903775455
 21
111.9328268283094
 31
0.0
  0
LINE
  5
907
330
896
100
AcDbEntity
  8
文字
100
AcDbLine
 10
159.0018299657456
 20
119.9328268283095
 30
0.0
 11
150.0018299702453
 21
119.9328268283095
 31
0.0
  0
LINE
  5
908
330
896
100
AcDbEntity
  8
文字
100
AcDbLine
 10
150.0817120295456
 20
120.9328268283095
 30
0.0
 11
151.5607319744455
 21
120.9328268283095
 31
0.0
  0
LINE
  5
909
330
896
100
AcDbEntity
  8
文字
100
AcDbLine
 10
153.0228100231456
 20
120.9328268283095
 30
0.0
 11
155.9808499129454
 21
120.9328268283095
 31
0.0
  0
LINE
  5
90A
330
896
100
AcDbEntity
  8
文字
100
AcDbLine
 10
157.4429279615455
 20
120.9328268283095
 30
0.0
 11
158.9219479064456
 21
120.9328268283095
 31
0.0
  0
LINE
  5
90B
330
896
100
AcDbEntity
  8
文字
100
AcDbLine
 10
150.0018299680456
 20
123.1828268283094
 30
0.0
 11
150.0817120290455
 21
123.1828268283094
 31
0.0
  0
LINE
  5
90C
330
896
100
AcDbEntity
  8
文字
100
AcDbLine
 10
151.5607319753453
 20
123.1828268283094
 30
0.0
 11
153.0228100215456
 21
123.1828268283094
 31
0.0
  0
LINE
  5
90D
330
896
100
AcDbEntity
  8
文字
100
AcDbLine
 10
155.9808499135454
 20
123.1828268283094
 30
0.0
 11
157.4429279599455
 21
123.1828268283094
 31
0.0
  0
LINE
  5
90E
330
896
100
AcDbEntity
  8
文字
100
AcDbLine
 10
158.9219479067454
 20
123.1828268283094
 30
0.0
 11
159.0018299680455
 21
123.1828268283094
 31
0.0
  0
LINE
  5
90F
330
896
100
AcDbEntity
  8
文字
100
AcDbLine
 10
201.7864317230455
 20
111.6828268283095
 30
0.0
 11
201.7864317230455
 21
111.9328268283094
 31
0.0
  0
LINE
  5
910
330
896
100
AcDbEntity
  8
文字
100
AcDbLine
 10
202.7294777480455
 20
111.9328268283094
 30
0.0
 11
202.8386301054455
 21
114.4328268283095
 31
0.0
  0
LINE
  5
911
330
896
100
AcDbEntity
  8
文字
100
AcDbLine
 10
200.6786339890456
 20
81.00421849530951
 30
0.0
 11
202.2864317230455
 21
111.6828268283095
 31
0.0
  0
LWPOLYLINE
  5
912
330
896
100
AcDbEntity
  8
文字
100
AcDbPolyline
 90
        7
 70
     0
 43
0.0
 10
153.0228100220456
 20
123.1828268271095
 10
153.5314525587456
 20
123.3234644176095
 10
154.0298236463454
 20
123.4066694102095
 10
154.5182299122456
 20
123.4327950228095
 10
154.9999439165454
 20
123.4037096949095
 10
155.4837085642454
 20
123.3208902020095
 10
155.9808499140455
 20
123.1828268271095
  0
LINE
  5
913
330
896
100
AcDbEntity
  8
文字
100
AcDbLine
 10
157.7518299664456
 20
124.4328268283094
 30
0.0
 11
151.2518299696456
 21
124.4328268283094
 31
0.0
  0
LINE
  5
914
330
896
100
AcDbEntity
  8
文字
100
AcDbLine
 10
202.8536257654454
 20
114.4328268283095
 30
0.0
 11
202.8536257654454
 21
114.9328268283094
 31
0.0
  0
LINE
  5
915
330
896
100
AcDbEntity
  8
文字
100
AcDbLine
 10
156.5018299680455
 20
127.4328268283094
 30
0.0
 11
152.5018299680455
 21
127.4328268283094
 31
0.0
  0
LINE
  5
916
330
896
100
AcDbEntity
  8
文字
100
AcDbLine
 10
156.5018299670454
 20
128.1828268283094
 30
0.0
 11
152.5018299690455
 21
128.1828268283094
 31
0.0
  0
LINE
  5
917
330
896
100
AcDbEntity
  8
文字
100
AcDbLine
 10
131.3030979814456
 20
197.8469544688094
 30
0.0
 11
131.3351931068456
 21
197.7956165651094
 31
0.0
  0
LINE
  5
918
330
896
100
AcDbEntity
  8
文字
100
AcDbLine
 10
131.3421394138454
 20
197.7844819933095
 30
0.0
 11
131.3541325815456
 21
197.7651769096095
 31
0.0
  0
LWPOLYLINE
  5
919
330
896
100
AcDbEntity
  8
文字
100
AcDbPolyline
 90
        6
 70
     0
 43
0.0
 10
132.1334554520454
 20
238.9952550097095
 10
132.1801662988455
 20
239.1188377703094
 10
132.2098207683455
 20
239.5560543928095
 10
132.1116435308455
 20
239.9828973363093
 10
131.8939675420456
 20
240.3631969712094
 10
131.5755556180455
 20
240.6643047586095
  0
LWPOLYLINE
  5
91A
330
896
100
AcDbEntity
  8
文字
100
AcDbPolyline
 90
        6
 70
     0
 43
0.0
 10
168.2808193070455
 20
183.0701346427093
 10
168.2056138929455
 20
183.0509723057095
 10
167.8304578294454
 20
182.8244865693093
 10
167.5371205495455
 20
182.4992373607095
 10
167.3504511246455
 20
182.1027965668092
 10
167.2864316914455
 20
181.6692606541095
  0
LWPOLYLINE
  5
91B
330
896
100
AcDbEntity
  8
文字
100
AcDbPolyline
 90
        6
 70
     0
 43
0.0
 10
130.2826809157455
 20
205.5121688996095
 10
130.3959387618456
 20
205.0919211001093
 10
130.3837707520455
 20
204.6572322963093
 10
130.2473011002454
 20
204.2445033682095
 10
129.9979440204454
 20
203.8882467640095
 10
129.6569137050455
 20
203.6185927145095
  0
LINE
  5
91C
330
896
100
AcDbEntity
  8
文字
100
AcDbLine
 10
151.5607319750456
 20
236.1243153818095
 30
0.0
 11
150.0817120290455
 21
233.5625776908095
 31
0.0
  0
LINE
  5
91D
330
896
100
AcDbEntity
  8
文字
100
AcDbLine
 10
154.5018299680456
 20
232.7184465363093
 30
0.0
 11
154.5018299680456
 21
226.4684465363093
 31
0.0
  0
LINE
  5
91E
330
896
100
AcDbEntity
  8
文字
100
AcDbLine
 10
154.5018299680456
 20
232.7184465363093
 30
0.0
 11
154.5018299680456
 21
238.9684465363093
 31
0.0
  0
LWPOLYLINE
  5
91F
330
896
100
AcDbEntity
  8
文字
100
AcDbPolyline
 90
        6
 70
     0
 43
0.0
 10
161.8082622019455
 20
259.3063618098095
 10
161.7451105687455
 20
258.8757259025094
 10
161.5611299509454
 20
258.4817034890094
 10
161.2718237123456
 20
258.1572485656095
 10
160.9013858829456
 20
257.9294909137095
 10
160.4812607910456
 20
257.8176434716094
  0
LINE
  5
920
330
896
100
AcDbEntity
  8
文字
100
AcDbLine
 10
157.4429279610454
 20
229.3125776908095
 30
0.0
 11
158.9219479070455
 21
231.8743153818095
 31
0.0
  0
LINE
  5
921
330
896
100
AcDbEntity
  8
文字
100
AcDbLine
 10
150.0817120290455
 20
231.8743153818095
 30
0.0
 11
151.5607319750456
 21
229.3125776908095
 31
0.0
  0
LWPOLYLINE
  5
922
330
896
100
AcDbEntity
  8
文字
100
AcDbPolyline
 90
        6
 70
     0
 43
0.0
 10
162.2864317546456
 20
181.6692606541095
 10
162.2222521102455
 20
182.1033245597092
 10
162.0354194567455
 20
182.4997228028092
 10
161.7419558591456
 20
182.8248581423094
 10
161.3667403283455
 20
183.0511859288094
 10
161.2927975266455
 20
183.0700119491094
  0
LINE
  5
923
330
896
100
AcDbEntity
  8
文字
100
AcDbLine
 10
196.9377802199455
 20
198.4602517735094
 30
0.0
 11
198.0693576095456
 21
197.8093616028094
 31
0.0
  0
LINE
  5
924
330
896
100
AcDbEntity
  8
文字
100
AcDbLine
 10
162.2864317230455
 20
180.9617354464094
 30
0.0
 11
162.2864317230455
 21
182.9417626506094
 31
0.0
  0
LINE
  5
925
330
896
100
AcDbEntity
  8
文字
100
AcDbLine
 10
164.7864317230455
 20
260.9617354464095
 30
0.0
 11
164.7864317230455
 21
258.4616854464095
 31
0.0
  0
LINE
  5
926
330
896
100
AcDbEntity
  8
一点鎖線
100
AcDbLine
 10
164.7864317230455
 20
220.4617354464095
 30
0.0
 11
164.7864317230455
 21
176.7682339598094
 31
0.0
  0
LINE
  5
927
330
896
100
AcDbEntity
  8
一点鎖線
100
AcDbLine
 10
164.7864317230455
 20
220.4617354464095
 30
0.0
 11
164.7864317230455
 21
258.4616854464095
 31
0.0
  0
LINE
  5
928
330
896
100
AcDbEntity
  8
文字
100
AcDbLine
 10
164.7864317230455
 20
260.9617354464095
 30
0.0
 11
164.7864317230455
 21
263.4617854464094
 31
0.0
  0
LINE
  5
929
330
896
100
AcDbEntity
  8
文字
100
AcDbLine
 10
161.8103358089456
 20
260.6117783829095
 30
0.0
 11
161.8082622019455
 21
259.3063618098095
 31
0.0
  0
LINE
  5
92A
330
896
100
AcDbEntity
  8
文字
100
AcDbLine
 10
195.7089963977455
 20
245.1658848220095
 30
0.0
 11
194.0870530832455
 21
244.0301878664095
 31
0.0
  0
LINE
  5
92B
330
896
100
AcDbEntity
  8
文字
100
AcDbLine
 10
129.6569137050455
 20
203.6185927145095
 30
0.0
 11
128.5274211912456
 21
202.9641013614094
 31
0.0
  0
LINE
  5
92C
330
896
100
AcDbEntity
  8
一点鎖線
100
AcDbLine
 10
164.7864317230455
 20
220.4617354464095
 30
0.0
 11
123.4509804288455
 21
220.4617354464095
 31
0.0
  0
LINE
  5
92D
330
896
100
AcDbEntity
  8
一点鎖線
100
AcDbLine
 10
164.7864317230455
 20
220.4617354464095
 30
0.0
 11
206.2650980759455
 21
220.4617354464095
 31
0.0
  0
LINE
  5
92E
330
896
100
AcDbEntity
  8
一点鎖線
100
AcDbLine
 10
164.7864317230455
 20
220.4617354464095
 30
0.0
 11
212.4178289311901
 21
192.9617354464095
 31
0.0
  0
LINE
  5
92F
330
896
100
AcDbEntity
  8
文字
100
AcDbLine
 10
130.9959849085454
 20
241.0701246069094
 30
0.0
 11
132.6179282230455
 21
239.9344276513093
 31
0.0
  0
LINE
  5
930
330
896
100
AcDbEntity
  8
文字
100
AcDbLine
 10
167.7646012440455
 20
259.3063618098095
 30
0.0
 11
167.7625276370456
 21
260.6117783833094
 31
0.0
  0
LINE
  5
931
330
896
100
AcDbEntity
  8
文字
100
AcDbLine
 10
167.2864317230454
 20
182.9417626506094
 30
0.0
 11
167.2864317230454
 21
180.9617354464094
 31
0.0
  0
LINE
  5
932
330
896
100
AcDbEntity
  8
文字
100
AcDbLine
 10
196.9549352229456
 20
239.9344276513093
 30
0.0
 11
198.5768785375455
 21
241.0701246069094
 31
0.0
  0
LINE
  5
933
330
896
100
AcDbEntity
  8
文字
100
AcDbLine
 10
131.3454990562455
 20
197.8734525235094
 30
0.0
 11
131.3030981516456
 21
197.8469545767094
 31
0.0
  0
LINE
  5
934
330
896
100
AcDbEntity
  8
一点鎖線
100
AcDbLine
 10
164.7864317230455
 20
220.4617354464095
 30
0.0
 11
118.0210599186857
 21
193.4617354464094
 31
0.0
  0
LINE
  5
935
330
896
100
AcDbEntity
  8
文字
100
AcDbLine
 10
131.5035059945456
 20
197.8093614235094
 30
0.0
 11
132.6350832260456
 21
198.4602517735094
 31
0.0
  0
LINE
  5
936
330
896
100
AcDbEntity
  8
文字
100
AcDbLine
 10
201.0454422925455
 20
202.9641014838095
 30
0.0
 11
199.9159497409456
 21
203.6185927145095
 31
0.0
  0
LINE
  5
937
330
896
100
AcDbEntity
  8
文字
100
AcDbLine
 10
135.4858103627454
 20
244.0301878664095
 30
0.0
 11
133.8638670482455
 21
245.1658848220095
 31
0.0
  0
LINE
  5
938
330
896
100
AcDbEntity
  8
文字
100
AcDbLine
 10
158.9219479070455
 20
233.5625776908095
 30
0.0
 11
157.4429279610454
 21
236.1243153818095
 31
0.0
  0
LINE
  5
939
330
896
100
AcDbEntity
  8
文字
100
AcDbLine
 10
153.0228100220456
 20
228.4684465363093
 30
0.0
 11
155.9808499140455
 21
228.4684465363093
 31
0.0
  0
LWPOLYLINE
  5
93A
330
896
100
AcDbEntity
  8
文字
100
AcDbPolyline
 90
        6
 70
     0
 43
0.0
 10
134.4434378011456
 20
244.7600650360093
 10
134.8358140191455
 20
244.5636690327094
 10
135.2676869515454
 20
244.4893486861094
 10
135.7023458966456
 20
244.5432499076094
 10
136.1029574797455
 20
244.7207919740093
 10
136.1804532159455
 20
244.7874860537095
  0
LWPOLYLINE
  5
93B
330
896
100
AcDbEntity
  8
文字
100
AcDbPolyline
 90
        6
 70
     0
 43
0.0
 10
199.9159497409456
 20
203.6185927145095
 10
199.5745842737455
 20
203.8886012036094
 10
199.3253408844456
 20
204.2449443814094
 10
199.1890077497454
 20
204.6577185064094
 10
199.1769827041455
 20
205.0924060352095
 10
199.2901825302455
 20
205.5121688996095
  0
LWPOLYLINE
  5
93C
330
896
100
AcDbEntity
  8
文字
100
AcDbPolyline
 90
        6
 70
     0
 43
0.0
 10
197.9973078280455
 20
240.6643047586095
 10
197.6785551779455
 20
240.3627627561095
 10
197.4610078043456
 20
239.9823540716095
 10
197.3629963167456
 20
239.5554728526093
 10
197.3928141487455
 20
239.1182983414094
 10
197.4390793623456
 20
238.9959631981092
  0
LWPOLYLINE
  5
93D
330
896
100
AcDbEntity
  8
文字
100
AcDbPolyline
 90
        6
 70
     0
 43
0.0
 10
132.6350832260456
 20
198.4602517735094
 10
133.0396006217456
 20
198.6208787925095
 10
133.4728243190455
 20
198.6585582115095
 10
133.8984637667455
 20
198.5702390739095
 10
134.2809264700455
 20
198.3633093930095
 10
134.5878519238455
 20
198.0553940098095
  0
LINE
  5
93E
330
896
100
AcDbEntity
  8
文字
100
AcDbLine
 10
154.5018299680456
 20
232.7184465363093
 30
0.0
 11
148.2518299680456
 21
232.7184465363093
 31
0.0
  0
LINE
  5
93F
330
896
100
AcDbEntity
  8
文字
100
AcDbLine
 10
154.5018299680456
 20
232.7184465363093
 30
0.0
 11
160.7518299680456
 21
232.7184465363093
 31
0.0
  0
LINE
  5
940
330
896
100
AcDbEntity
  8
文字
100
AcDbLine
 10
155.9808499140455
 20
236.9684465363093
 30
0.0
 11
153.0228100220456
 21
236.9684465363093
 31
0.0
  0
LWPOLYLINE
  5
941
330
896
100
AcDbEntity
  8
文字
100
AcDbPolyline
 90
        6
 70
     0
 43
0.0
 10
194.9850115221455
 20
198.0553940098095
 10
195.2923278695456
 20
198.3636021028095
 10
195.6748636568454
 20
198.5704086831093
 10
196.1005320903456
 20
198.6585869480094
 10
196.5337376716455
 20
198.6207657135093
 10
196.9377802199455
 20
198.4602517735094
  0
LINE
  5
942
330
896
100
AcDbEntity
  8
文字
100
AcDbLine
 10
164.7864317230455
 20
260.9617354464095
 30
0.0
 11
162.2863817230455
 21
260.9617354464095
 31
0.0
  0
LINE
  5
943
330
896
100
AcDbEntity
  8
文字
100
AcDbLine
 10
164.7864317230455
 20
260.9617354464095
 30
0.0
 11
167.2864817230456
 21
260.9617354464095
 31
0.0
  0
LWPOLYLINE
  5
944
330
896
100
AcDbEntity
  8
文字
100
AcDbPolyline
 90
        6
 70
     0
 43
0.0
 10
169.0916026549456
 20
257.8176434716094
 10
168.6710289387455
 20
257.9296829825095
 10
168.3006611466455
 20
258.1575653149093
 10
168.0114622758456
 20
258.4821157970095
 10
167.8276133860455
 20
258.8761937997093
 10
167.7646012440455
 20
259.3063618098095
  0
LWPOLYLINE
  5
945
330
896
100
AcDbEntity
  8
文字
100
AcDbPolyline
 90
        6
 70
     0
 43
0.0
 10
193.3919202615456
 20
244.7879897457095
 10
193.4703727951456
 20
244.7204975454094
 10
193.8710796086455
 20
244.5430946800094
 10
194.3057594630454
 20
244.4893621878093
 10
194.7375738990454
 20
244.5638407285094
 10
195.1294256449456
 20
244.7600650360093
  0
LINE
  5
946
330
896
100
AcDbEntity
  8
文字
100
AcDbLine
 10
244.2063543116455
 20
111.6828268283095
 30
0.0
 11
244.2063543116455
 21
114.4328268283095
 31
0.0
  0
LINE
  5
947
330
896
100
AcDbEntity
  8
文字
100
AcDbLine
 10
246.0500696685453
 20
108.0705062723094
 30
0.0
 11
246.0531885065456
 21
108.0767616939094
 31
0.0
  0
LWPOLYLINE
  5
948
330
896
100
AcDbEntity
  8
文字
100
AcDbPolyline
 90
        5
 70
     0
 43
0.0
 10
248.9477183822454
 20
109.1828268205094
 10
248.9617068106455
 20
109.2031662240094
 10
248.9769355544456
 20
109.2479228321094
 10
248.9938536444455
 20
109.3147601132095
 10
249.0115046899456
 20
109.4197428335094
  0
LINE
  5
949
330
896
100
AcDbEntity
  8
文字
100
AcDbLine
 10
244.3249575176455
 20
109.4197428393094
 30
0.0
 11
244.2063543116455
 21
111.6828268283095
 31
0.0
  0
LINE
  5
94A
330
896
100
AcDbEntity
  8
文字
100
AcDbLine
 10
247.5210356916455
 20
109.4197428393094
 30
0.0
 11
247.4138795112455
 21
111.6828268283095
 31
0.0
  0
LINE
  5
94B
330
896
100
AcDbEntity
  8
文字
100
AcDbLine
 10
245.3063543116456
 20
109.1828268283095
 30
0.0
 11
245.3063543116456
 21
108.4845775948094
 31
0.0
  0
LINE
  5
94C
330
896
100
AcDbEntity
  8
文字
100
AcDbLine
 10
246.5213543116454
 20
108.0057243887095
 30
0.0
 11
246.5213543116454
 21
108.0767616939094
 31
0.0
  0
LINE
  5
94D
330
896
100
AcDbEntity
  8
文字
100
AcDbLine
 10
246.7063543116454
 20
109.1828268283095
 30
0.0
 11
246.7063543116454
 21
114.4328268283095
 31
0.0
  0
LINE
  5
94E
330
896
100
AcDbEntity
  8
文字
100
AcDbLine
 10
246.8913543116455
 20
108.0767616939094
 30
0.0
 11
246.8913543116455
 21
108.0057243887095
 31
0.0
  0
LINE
  5
94F
330
896
100
AcDbEntity
  8
文字
100
AcDbLine
 10
247.5210356916455
 20
109.4197428392094
 30
0.0
 11
247.5210356916455
 21
109.1828268283095
 31
0.0
  0
LINE
  5
950
330
896
100
AcDbEntity
  8
文字
100
AcDbLine
 10
248.1063543116456
 20
109.1828268283095
 30
0.0
 11
248.1063543116456
 21
108.4845775948094
 31
0.0
  0
LINE
  5
951
330
896
100
AcDbEntity
  8
文字
100
AcDbLine
 10
249.1421909426454
 20
111.6828268283095
 30
0.0
 11
249.1465646240456
 21
111.9328268285094
 31
0.0
  0
LINE
  5
952
330
896
100
AcDbEntity
  8
文字
100
AcDbLine
 10
250.3141520456454
 20
81.00421849530951
 30
0.0
 11
248.8373737602455
 21
109.1828268205094
 31
0.0
  0
LINE
  5
953
330
896
100
AcDbEntity
  8
文字
100
AcDbLine
 10
248.9039315535455
 20
111.6828268283095
 30
0.0
 11
249.0115046899456
 21
109.4197428335094
 31
0.0
  0
LINE
  5
954
330
896
100
AcDbEntity
  8
文字
100
AcDbLine
 10
248.7957766149456
 20
111.9328268285094
 30
0.0
 11
248.6863815158455
 21
114.4328268283095
 31
0.0
  0
LINE
  5
955
330
896
100
AcDbEntity
  8
文字
100
AcDbLine
 10
249.2063543116453
 20
111.6828268283095
 30
0.0
 11
249.2063543116453
 21
111.9328268283094
 31
0.0
  0
LWPOLYLINE
  5
956
330
896
100
AcDbEntity
  8
文字
100
AcDbPolyline
 90
        7
 70
     0
 43
0.0
 10
295.0571965560456
 20
123.1828268285094
 10
295.4976673223455
 20
123.3234575446095
 10
295.9293205358453
 20
123.4066728322094
 10
296.3522495144453
 20
123.4327951514095
 10
296.7694583211456
 20
123.4037076345094
 10
297.1883847073456
 20
123.3208937147095
 10
297.6189342470456
 20
123.1828268285094
  0
LWPOLYLINE
  5
957
330
896
100
AcDbEntity
  8
文字
100
AcDbPolyline
 90
        7
 70
     0
 43
0.0
 10
299.3071965560456
 20
123.1828268285094
 10
299.7476673157456
 20
123.3234575430095
 10
300.1793205271453
 20
123.4066728312095
 10
300.6022495070455
 20
123.4327951514095
 10
301.0194583160453
 20
123.4037076351095
 10
301.4383847042456
 20
123.3208937153094
 10
301.8689342470456
 20
123.1828268285094
  0
LINE
  5
958
330
896
100
AcDbEntity
  8
文字
100
AcDbLine
 10
247.3595201168456
 20
108.0767616939094
 30
0.0
 11
247.3626389548456
 21
108.0705062723094
 31
0.0
  0
LINE
  5
959
330
896
100
AcDbEntity
  8
文字
100
AcDbLine
 10
263.0873371401455
 20
111.9328268283094
 30
0.0
 11
262.9781847826456
 21
114.4328268283095
 31
0.0
  0
LINE
  5
95A
330
896
100
AcDbEntity
  8
文字
100
AcDbLine
 10
262.9631891227455
 20
114.4328268283095
 30
0.0
 11
262.9631891227455
 21
114.9328268283094
 31
0.0
  0
LINE
  5
95B
330
896
100
AcDbEntity
  8
文字
100
AcDbLine
 10
253.5903289076455
 20
78.84981412630948
 30
0.0
 11
250.5634668131456
 21
80.5973737713095
 31
0.0
  0
LINE
  5
95C
330
896
100
AcDbEntity
  8
文字
100
AcDbLine
 10
268.4409960656454
 20
111.9328268283094
 30
0.0
 11
268.5355247802454
 21
114.4328268283095
 31
0.0
  0
LINE
  5
95D
330
896
100
AcDbEntity
  8
文字
100
AcDbLine
 10
295.2130654015456
 20
124.4328268283094
 30
0.0
 11
294.2121528624456
 21
123.4319142892094
 31
0.0
  0
LINE
  5
95E
330
896
100
AcDbEntity
  8
文字
100
AcDbLine
 10
268.9495195006457
 20
114.4328268283095
 30
0.0
 11
268.9495195006457
 21
114.9328268283094
 31
0.0
  0
LINE
  5
95F
330
896
100
AcDbEntity
  8
文字
100
AcDbLine
 10
271.2567877180455
 20
114.4328268283095
 30
0.0
 11
271.2143964579456
 21
111.9328268283094
 31
0.0
  0
LINE
  5
960
330
896
100
AcDbEntity
  8
文字
100
AcDbLine
 10
269.3173916116455
 20
111.9328268283094
 30
0.0
 11
269.3632115885455
 21
114.4328268270094
 31
0.0
  0
LINE
  5
961
330
896
100
AcDbEntity
  8
文字
100
AcDbLine
 10
253.8403289240454
 20
78.78282682830948
 30
0.0
 11
318.5723796992456
 21
78.78282682830948
 31
0.0
  0
LINE
  5
962
330
896
100
AcDbEntity
  8
文字
100
AcDbLine
 10
318.8223797156456
 20
78.84981412630948
 30
0.0
 11
253.5903289076455
 21
78.84981412630948
 31
0.0
  0
LINE
  5
963
330
896
100
AcDbEntity
  8
文字
100
AcDbLine
 10
250.5634668131456
 20
80.5973737713095
 30
0.0
 11
321.8492418101456
 21
80.5973737713095
 31
0.0
  0
LINE
  5
964
330
896
100
AcDbEntity
  8
文字
100
AcDbLine
 10
322.0985565776453
 20
81.00421849530951
 30
0.0
 11
250.3141520456454
 21
81.00421849530951
 31
0.0
  0
LWPOLYLINE
  5
965
330
896
100
AcDbEntity
  8
文字
100
AcDbPolyline
 90
        5
 70
     0
 43
0.0
 10
295.5219674084455
 20
117.3328268283094
 10
295.5280327544455
 20
117.3714835274094
 10
295.5454631215456
 20
117.4043099562094
 10
295.5706112751456
 20
117.4254516405095
 10
295.6000695520456
 20
117.4328268279094
  0
LINE
  5
966
330
896
100
AcDbEntity
  8
文字
100
AcDbLine
 10
296.4630654015456
 20
127.4328268283094
 30
0.0
 11
295.9630654015457
 21
124.4328268283094
 31
0.0
  0
LWPOLYLINE
  5
967
330
896
100
AcDbEntity
  8
文字
100
AcDbPolyline
 90
        5
 70
     0
 43
0.0
 10
294.0429474633456
 20
117.3328268283094
 10
294.0499671216456
 20
117.3706032709094
 10
294.0703993390456
 20
117.4031218411095
 10
294.1004958929456
 20
117.4247055150094
 10
294.1380503998455
 20
117.4328268279094
  0
LINE
  5
968
330
896
100
AcDbEntity
  8
文字
100
AcDbLine
 10
293.9630654015457
 20
120.9328268293094
 30
0.0
 11
293.9630654015457
 21
119.9328268283095
 31
0.0
  0
LINE
  5
969
330
896
100
AcDbEntity
  8
文字
100
AcDbLine
 10
293.9630654015457
 20
117.3328268283094
 30
0.0
 11
293.9630654015457
 21
114.4328268283095
 31
0.0
  0
LINE
  5
96A
330
896
100
AcDbEntity
  8
文字
100
AcDbLine
 10
294.0429474625456
 20
115.4328268283095
 30
0.0
 11
294.0429474625456
 21
117.3328268283094
 31
0.0
  0
LINE
  5
96B
330
896
100
AcDbEntity
  8
文字
100
AcDbLine
 10
294.2130654015457
 20
123.4328145643095
 30
0.0
 11
294.2130654015457
 21
120.9328268283095
 31
0.0
  0
LINE
  5
96C
330
896
100
AcDbEntity
  8
文字
100
AcDbLine
 10
294.2130654015457
 20
119.9328268283095
 30
0.0
 11
294.2130654015457
 21
119.4328268283095
 31
0.0
  0
LINE
  5
96D
330
896
100
AcDbEntity
  8
文字
100
AcDbLine
 10
294.9630654015456
 20
119.4328268283095
 30
0.0
 11
294.9630654015456
 21
117.4328268283095
 31
0.0
  0
LINE
  5
96E
330
896
100
AcDbEntity
  8
文字
100
AcDbLine
 10
295.0571965560456
 20
120.9328268283095
 30
0.0
 11
295.0571965560456
 21
123.1828268285094
 31
0.0
  0
LINE
  5
96F
330
896
100
AcDbEntity
  8
文字
100
AcDbLine
 10
295.5219674085455
 20
117.3328268283094
 30
0.0
 11
295.5219674085455
 21
115.4328268283095
 31
0.0
  0
LINE
  5
970
330
896
100
AcDbEntity
  8
文字
100
AcDbLine
 10
296.4630654015456
 20
128.1828268283094
 30
0.0
 11
296.4630654015456
 21
127.4328268283094
 31
0.0
  0
LINE
  5
971
330
896
100
AcDbEntity
  8
文字
100
AcDbLine
 10
296.9840454555455
 20
115.4328268283095
 30
0.0
 11
296.9840454555455
 21
117.3328268283094
 31
0.0
  0
LINE
  5
972
330
896
100
AcDbEntity
  8
文字
100
AcDbLine
 10
297.6189342470456
 20
123.1828268285094
 30
0.0
 11
297.6189342470456
 21
120.9328268283095
 31
0.0
  0
LWPOLYLINE
  5
973
330
896
100
AcDbEntity
  8
文字
100
AcDbPolyline
 90
        5
 70
     0
 43
0.0
 10
296.9840454566456
 20
117.3328268283094
 10
296.9852505774456
 20
117.3706032710094
 10
296.9889343585455
 20
117.4031218416095
 10
296.9943106254456
 20
117.4247055155094
 10
297.0010462496455
 20
117.4328268283095
  0
LINE
  5
974
330
896
100
AcDbEntity
  8
文字
100
AcDbLine
 10
308.2063389043455
 20
108.0705062723094
 30
0.0
 11
308.2094577424456
 21
108.0767616939094
 31
0.0
  0
LWPOLYLINE
  5
975
330
896
100
AcDbEntity
  8
文字
100
AcDbPolyline
 90
        5
 70
     0
 43
0.0
 10
299.9420853464453
 20
117.3328268283094
 10
299.9407513059456
 20
117.3714835275095
 10
299.9369934786455
 20
117.4043099564094
 10
299.9314514761456
 20
117.4254516408095
 10
299.9250845535456
 20
117.4328268283095
  0
LINE
  5
976
330
896
100
AcDbEntity
  8
文字
100
AcDbLine
 10
299.3071965560456
 20
120.9328268283095
 30
0.0
 11
299.3071965560456
 21
123.1828268285094
 31
0.0
  0
LINE
  5
977
330
896
100
AcDbEntity
  8
文字
100
AcDbLine
 10
299.9420853475455
 20
117.3328268283094
 30
0.0
 11
299.9420853475455
 21
115.4328268283095
 31
0.0
  0
LINE
  5
978
330
896
100
AcDbEntity
  8
文字
100
AcDbLine
 10
300.4630654015457
 20
128.1828268283094
 30
0.0
 11
300.4630654015457
 21
127.4328268283094
 31
0.0
  0
LINE
  5
979
330
896
100
AcDbEntity
  8
文字
100
AcDbLine
 10
301.4041633945453
 20
115.4328268283095
 30
0.0
 11
301.4041633945453
 21
117.3328268283094
 31
0.0
  0
LINE
  5
97A
330
896
100
AcDbEntity
  8
文字
100
AcDbLine
 10
301.8689342470456
 20
123.1828268285094
 30
0.0
 11
301.8689342470456
 21
120.9328268283095
 31
0.0
  0
LINE
  5
97B
330
896
100
AcDbEntity
  8
文字
100
AcDbLine
 10
301.9630654015457
 20
119.4328268283095
 30
0.0
 11
301.9630654015457
 21
117.4328268283095
 31
0.0
  0
LINE
  5
97C
330
896
100
AcDbEntity
  8
文字
100
AcDbLine
 10
302.7130654015457
 20
119.9328268283095
 30
0.0
 11
302.7130654015457
 21
119.4328268283095
 31
0.0
  0
LINE
  5
97D
330
896
100
AcDbEntity
  8
文字
100
AcDbLine
 10
302.7130654015457
 20
120.9328268283095
 30
0.0
 11
302.7130654015457
 21
123.4328144436094
 31
0.0
  0
LINE
  5
97E
330
896
100
AcDbEntity
  8
文字
100
AcDbLine
 10
304.4851066385456
 20
109.4197428335094
 30
0.0
 11
304.4530134121453
 21
111.6828268283095
 31
0.0
  0
LINE
  5
97F
330
896
100
AcDbEntity
  8
文字
100
AcDbLine
 10
305.4150963018455
 20
111.9328268285094
 30
0.0
 11
305.4176049424456
 21
111.6828268283095
 31
0.0
  0
LINE
  5
980
330
896
100
AcDbEntity
  8
文字
100
AcDbLine
 10
302.8831833405456
 20
117.3328268283094
 30
0.0
 11
302.8831833405456
 21
115.4328268283095
 31
0.0
  0
LINE
  5
981
330
896
100
AcDbEntity
  8
文字
100
AcDbLine
 10
302.9630654015456
 20
120.9328268293094
 30
0.0
 11
302.9630654015456
 21
119.9328268283095
 31
0.0
  0
LINE
  5
982
330
896
100
AcDbEntity
  8
文字
100
AcDbLine
 10
302.9630654015456
 20
117.3328268283094
 30
0.0
 11
302.9630654015456
 21
114.4328268283095
 31
0.0
  0
LINE
  5
983
330
896
100
AcDbEntity
  8
文字
100
AcDbLine
 10
305.6790464891455
 20
114.4328268283095
 30
0.0
 11
305.6163000380456
 21
111.9328268285094
 31
0.0
  0
LINE
  5
984
330
896
100
AcDbEntity
  8
文字
100
AcDbLine
 10
246.4239742452456
 20
108.0057243883095
 30
0.0
 11
246.5213543116454
 21
108.0057243883095
 31
0.0
  0
LINE
  5
985
330
896
100
AcDbEntity
  8
文字
100
AcDbLine
 10
246.8913543117456
 20
108.0057243883095
 30
0.0
 11
246.9887343781456
 21
108.0057243883095
 31
0.0
  0
LINE
  5
986
330
896
100
AcDbEntity
  8
文字
100
AcDbLine
 10
308.5802434811453
 20
108.0057243883095
 30
0.0
 11
308.6776235475456
 21
108.0057243883095
 31
0.0
  0
LINE
  5
987
330
896
100
AcDbEntity
  8
文字
100
AcDbLine
 10
309.0476235475456
 20
108.0057243883095
 30
0.0
 11
309.1450036140456
 21
108.0057243883095
 31
0.0
  0
LINE
  5
988
330
896
100
AcDbEntity
  8
文字
100
AcDbLine
 10
245.3691450087454
 20
108.3705126266095
 30
0.0
 11
248.0435636349456
 21
108.3705126410094
 31
0.0
  0
LINE
  5
989
330
896
100
AcDbEntity
  8
文字
100
AcDbLine
 10
307.5254142445455
 20
108.3705126266095
 30
0.0
 11
310.1998328708456
 21
108.3705126410094
 31
0.0
  0
LINE
  5
98A
330
896
100
AcDbEntity
  8
文字
100
AcDbLine
 10
245.3063543420455
 20
108.4845775948094
 30
0.0
 11
248.1063543116456
 21
108.4845775948094
 31
0.0
  0
LINE
  5
98B
330
896
100
AcDbEntity
  8
文字
100
AcDbLine
 10
307.4626235779455
 20
108.4845775948094
 30
0.0
 11
310.2626235475456
 21
108.4845775948094
 31
0.0
  0
LWPOLYLINE
  5
98C
330
896
100
AcDbEntity
  8
文字
100
AcDbPolyline
 90
        4
 70
     0
 43
0.0
 10
246.5213543116454
 20
108.0767616939094
 10
246.6449079355453
 20
108.0712006149095
 10
246.7685505357454
 20
108.0712176039094
 10
246.8913543116455
 20
108.0767616939094
  0
LWPOLYLINE
  5
98D
330
896
100
AcDbEntity
  8
文字
100
AcDbPolyline
 90
        4
 70
     0
 43
0.0
 10
308.6776235475456
 20
108.0767616939094
 10
308.8011771714456
 20
108.0712006149095
 10
308.9248197716456
 20
108.0712176039094
 10
309.0476235475456
 20
108.0767616939094
  0
LINE
  5
98E
330
896
100
AcDbEntity
  8
文字
100
AcDbLine
 10
300.4630654015457
 20
127.4328268283094
 30
0.0
 11
300.9630654015456
 21
124.4328268283094
 31
0.0
  0
LINE
  5
98F
330
896
100
AcDbEntity
  8
文字
100
AcDbLine
 10
306.8147434367456
 20
111.6828268283095
 30
0.0
 11
306.9118974956456
 21
109.4197428393094
 31
0.0
  0
LINE
  5
990
330
896
100
AcDbEntity
  8
文字
100
AcDbLine
 10
306.4089236541456
 20
111.6828268283095
 30
0.0
 11
306.4446154531456
 21
109.4197428393094
 31
0.0
  0
LINE
  5
991
330
896
100
AcDbEntity
  8
文字
100
AcDbLine
 10
306.8147434366455
 20
114.4328268283095
 30
0.0
 11
306.8147434366455
 21
111.6828268283095
 31
0.0
  0
LINE
  5
992
330
896
100
AcDbEntity
  8
文字
100
AcDbLine
 10
307.4626235475456
 20
109.1828268283095
 30
0.0
 11
307.4626235475456
 21
108.4845775948094
 31
0.0
  0
LINE
  5
993
330
896
100
AcDbEntity
  8
文字
100
AcDbLine
 10
308.6776235475456
 20
108.0057243887095
 30
0.0
 11
308.6776235475456
 21
108.0767616939094
 31
0.0
  0
LINE
  5
994
330
896
100
AcDbEntity
  8
文字
100
AcDbLine
 10
309.0476235475456
 20
108.0767616939094
 30
0.0
 11
309.0476235475456
 21
108.0057243887095
 31
0.0
  0
LINE
  5
995
330
896
100
AcDbEntity
  8
文字
100
AcDbLine
 10
310.2626235475456
 20
109.1828268283095
 30
0.0
 11
310.2626235475456
 21
108.4845775948094
 31
0.0
  0
LINE
  5
996
330
896
100
AcDbEntity
  8
文字
100
AcDbLine
 10
311.2440203416456
 20
109.4197428393094
 30
0.0
 11
311.3626235476456
 21
111.6828268283095
 31
0.0
  0
LWPOLYLINE
  5
997
330
896
100
AcDbEntity
  8
文字
100
AcDbPolyline
 90
        6
 70
     0
 43
0.0
 10
249.0115075740454
 20
109.4197431728095
 10
248.9011488869456
 20
109.4190075478095
 10
248.6691271385456
 20
109.4157366629094
 10
248.3400483964455
 20
109.4158892706095
 10
247.9433442587454
 20
109.4191569715095
 10
247.5210356831456
 20
109.4197430207094
  0
LWPOLYLINE
  5
998
330
896
100
AcDbEntity
  8
文字
100
AcDbPolyline
 90
        6
 70
     0
 43
0.0
 10
306.4446154567456
 20
109.4197425965095
 10
306.1364911893456
 20
109.4190162299095
 10
305.7481559419453
 20
109.4157383126094
 10
305.3183663254456
 20
109.4158913893094
 10
304.8830834704456
 20
109.4191666330095
 10
304.4851052162453
 20
109.4197427486095
  0
LINE
  5
999
330
896
100
AcDbEntity
  8
文字
100
AcDbLine
 10
310.9942898977456
 20
109.1828268283095
 30
0.0
 11
305.2263695450456
 21
109.1828268283095
 31
0.0
  0
LINE
  5
99A
330
896
100
AcDbEntity
  8
文字
100
AcDbLine
 10
244.5746149026456
 20
109.1828268283095
 30
0.0
 11
248.9477183802454
 21
109.1828268283095
 31
0.0
  0
LINE
  5
99B
330
896
100
AcDbEntity
  8
文字
100
AcDbLine
 10
311.2440178300455
 20
109.4197428393094
 30
0.0
 11
306.4446154531456
 21
109.4197428393094
 31
0.0
  0
LINE
  5
99C
330
896
100
AcDbEntity
  8
文字
100
AcDbLine
 10
244.3249575176455
 20
109.4197428393094
 30
0.0
 11
247.5210356916455
 21
109.4197428393094
 31
0.0
  0
LINE
  5
99D
330
896
100
AcDbEntity
  8
文字
100
AcDbLine
 10
323.7063542919456
 20
111.6828268283095
 30
0.0
 11
244.2063543313456
 21
111.6828268283095
 31
0.0
  0
LINE
  5
99E
330
896
100
AcDbEntity
  8
文字
100
AcDbLine
 10
329.5753714761456
 20
111.9328268283094
 30
0.0
 11
311.3626235476456
 21
111.9328268283094
 31
0.0
  0
LINE
  5
99F
330
896
100
AcDbEntity
  8
文字
100
AcDbLine
 10
305.6163000240453
 20
111.9328268283094
 30
0.0
 11
248.7957766283455
 21
111.9328268283094
 31
0.0
  0
LWPOLYLINE
  5
9A0
330
896
100
AcDbEntity
  8
文字
100
AcDbPolyline
 90
        5
 70
     0
 43
0.0
 10
306.9118974960454
 20
109.4197428392094
 10
306.9299566250456
 20
109.3294193079095
 10
306.9733256300455
 20
109.2539657876092
 10
307.0384501187457
 20
109.2016481253095
 10
307.1164048521456
 20
109.1828268284094
  0
LINE
  5
9A1
330
896
100
AcDbEntity
  8
文字
100
AcDbLine
 10
311.3626235476456
 20
111.6828268283095
 30
0.0
 11
311.3626235476456
 21
114.4328268283095
 31
0.0
  0
LINE
  5
9A2
330
896
100
AcDbEntity
  8
文字
100
AcDbLine
 10
318.8223797156456
 20
78.84981412630948
 30
0.0
 11
321.8492418101456
 21
80.5973737713095
 31
0.0
  0
LINE
  5
9A3
330
896
100
AcDbEntity
  8
文字
100
AcDbLine
 10
244.2063543335456
 20
114.4328268283095
 30
0.0
 11
268.6851443874457
 21
114.4328268283095
 31
0.0
  0
LINE
  5
9A4
330
896
100
AcDbEntity
  8
文字
100
AcDbLine
 10
268.7087203491453
 20
114.4328268283095
 30
0.0
 11
311.3624078284455
 21
114.4328268283095
 31
0.0
  0
LINE
  5
9A5
330
896
100
AcDbEntity
  8
文字
100
AcDbLine
 10
311.3626235476456
 20
114.4328268283095
 30
0.0
 11
326.3563972485456
 21
114.4328268283095
 31
0.0
  0
LINE
  5
9A6
330
896
100
AcDbEntity
  8
文字
100
AcDbLine
 10
326.4071150971456
 20
114.4328268283095
 30
0.0
 11
329.6990559272453
 21
114.4328268283095
 31
0.0
  0
LINE
  5
9A7
330
896
100
AcDbEntity
  8
文字
100
AcDbLine
 10
262.9636526960454
 20
114.9328268283094
 30
0.0
 11
268.9490559272456
 21
114.9328268283094
 31
0.0
  0
LINE
  5
9A8
330
896
100
AcDbEntity
  8
文字
100
AcDbLine
 10
323.7136526960453
 20
114.9328268283094
 30
0.0
 11
329.6990559272453
 21
114.9328268283094
 31
0.0
  0
LINE
  5
9A9
330
896
100
AcDbEntity
  8
文字
100
AcDbLine
 10
294.0429474631456
 20
115.4328268283095
 30
0.0
 11
295.5219674080456
 21
115.4328268283095
 31
0.0
  0
LINE
  5
9AA
330
896
100
AcDbEntity
  8
文字
100
AcDbLine
 10
296.9840454566456
 20
115.4328268283095
 30
0.0
 11
299.9420853464453
 21
115.4328268283095
 31
0.0
  0
LINE
  5
9AB
330
896
100
AcDbEntity
  8
文字
100
AcDbLine
 10
301.4041633951453
 20
115.4328268283095
 30
0.0
 11
302.8831833400456
 21
115.4328268283095
 31
0.0
  0
LWPOLYLINE
  5
9AC
330
896
100
AcDbEntity
  8
文字
100
AcDbPolyline
 90
        5
 70
     0
 43
0.0
 10
306.6491228092456
 20
109.1828268284094
 10
306.5754649689456
 20
109.1995577521094
 10
306.5072358376454
 20
109.2525559218094
 10
306.4618307706456
 20
109.3317173443095
 10
306.4446154531456
 20
109.4197428392094
  0
LWPOLYLINE
  5
9AD
330
896
100
AcDbEntity
  8
文字
100
AcDbPolyline
 90
        5
 70
     0
 43
0.0
 10
304.4851066385456
 20
109.4197428335094
 10
304.6903952594456
 20
109.3149194602095
 10
304.8874513907455
 20
109.2472039968094
 10
305.0652875872456
 20
109.2027725599094
 10
305.2263695289456
 20
109.1828268205094
  0
LINE
  5
9AE
330
896
100
AcDbEntity
  8
文字
100
AcDbLine
 10
293.9630654024456
 20
117.3328268283094
 30
0.0
 11
302.9630654006456
 21
117.3328268283094
 31
0.0
  0
LINE
  5
9AF
330
896
100
AcDbEntity
  8
文字
100
AcDbLine
 10
302.8630267924456
 20
117.4328268283095
 30
0.0
 11
294.0631040107456
 21
117.4328268283095
 31
0.0
  0
LINE
  5
9B0
330
896
100
AcDbEntity
  8
文字
100
AcDbLine
 10
294.2130654048455
 20
119.4328268283095
 30
0.0
 11
302.7130653983456
 21
119.4328268283095
 31
0.0
  0
LINE
  5
9B1
330
896
100
AcDbEntity
  8
文字
100
AcDbLine
 10
302.9630653981453
 20
119.9328268283095
 30
0.0
 11
293.9630654050456
 21
119.9328268283095
 31
0.0
  0
LWPOLYLINE
  5
9B2
330
896
100
AcDbEntity
  8
文字
100
AcDbPolyline
 90
        5
 70
     0
 43
0.0
 10
302.7880804032456
 20
117.4328268280095
 10
302.8238081613455
 20
117.4255069308092
 10
302.8544864308455
 20
117.4044217111094
 10
302.8755637789456
 20
117.3721362219094
 10
302.8831833398455
 20
117.3328268283094
  0
LWPOLYLINE
  5
9B3
330
896
100
AcDbEntity
  8
文字
100
AcDbPolyline
 90
        5
 70
     0
 43
0.0
 10
301.3260612511455
 20
117.4328268280095
 10
301.3564856044455
 20
117.4249387572094
 10
301.3821479911456
 20
117.4024055467092
 10
301.3984666590456
 20
117.3703383020094
 10
301.4041633947456
 20
117.3328268283094
  0
LINE
  5
9B4
330
896
100
AcDbEntity
  8
文字
100
AcDbLine
 10
309.5157893526453
 20
108.0767616939094
 30
0.0
 11
309.5189081907456
 21
108.0705062723094
 31
0.0
  0
LINE
  5
9B5
330
896
100
AcDbEntity
  8
文字
100
AcDbLine
 10
293.9630718974456
 20
120.9328268283095
 30
0.0
 11
294.2130654015457
 21
120.9328268283095
 31
0.0
  0
LINE
  5
9B6
330
896
100
AcDbEntity
  8
文字
100
AcDbLine
 10
295.0571965563456
 20
120.9328268283095
 30
0.0
 11
297.6189342467456
 21
120.9328268283095
 31
0.0
  0
LINE
  5
9B7
330
896
100
AcDbEntity
  8
文字
100
AcDbLine
 10
299.3071965563456
 20
120.9328268283095
 30
0.0
 11
301.8689342467456
 21
120.9328268283095
 31
0.0
  0
LINE
  5
9B8
330
896
100
AcDbEntity
  8
文字
100
AcDbLine
 10
302.7130654015457
 20
120.9328268283095
 30
0.0
 11
302.9630589057455
 21
120.9328268283095
 31
0.0
  0
LINE
  5
9B9
330
896
100
AcDbEntity
  8
文字
100
AcDbLine
 10
294.2130654014454
 20
123.1828268283094
 30
0.0
 11
295.0571965547455
 21
123.1828268283094
 31
0.0
  0
LINE
  5
9BA
330
896
100
AcDbEntity
  8
文字
100
AcDbLine
 10
297.6189342462453
 20
123.1828268283094
 30
0.0
 11
299.3071965577454
 21
123.1828268283094
 31
0.0
  0
LINE
  5
9BB
330
896
100
AcDbEntity
  8
文字
100
AcDbLine
 10
301.8689342460457
 20
123.1828268283094
 30
0.0
 11
302.7130654019456
 21
123.1828268283094
 31
0.0
  0
LINE
  5
9BC
330
896
100
AcDbEntity
  8
文字
100
AcDbLine
 10
301.7129958443456
 20
124.4328268283094
 30
0.0
 11
295.2131349587456
 21
124.4328268283094
 31
0.0
  0
LINE
  5
9BD
330
896
100
AcDbEntity
  8
文字
100
AcDbLine
 10
323.2063543116455
 20
111.6828268283095
 30
0.0
 11
323.2063543116455
 21
111.9328268283094
 31
0.0
  0
LINE
  5
9BE
330
896
100
AcDbEntity
  8
文字
100
AcDbLine
 10
323.7131891227456
 20
114.4328268283095
 30
0.0
 11
323.7131891227456
 21
114.9328268283094
 31
0.0
  0
LINE
  5
9BF
330
896
100
AcDbEntity
  8
文字
100
AcDbLine
 10
325.0509806949455
 20
114.4328268270094
 30
0.0
 11
324.9535632197455
 21
111.9328268283094
 31
0.0
  0
LINE
  5
9C0
330
896
100
AcDbEntity
  8
文字
100
AcDbLine
 10
323.4644214117456
 20
111.9328268283094
 30
0.0
 11
323.5622623002456
 21
114.4328268283095
 31
0.0
  0
LINE
  5
9C1
330
896
100
AcDbEntity
  8
文字
100
AcDbLine
 10
322.0985565776453
 20
81.00421849530951
 30
0.0
 11
323.7063543116454
 21
111.6828268283095
 31
0.0
  0
LINE
  5
9C2
330
896
100
AcDbEntity
  8
文字
100
AcDbLine
 10
300.4630654015457
 20
127.4328268283094
 30
0.0
 11
296.4630654015456
 21
127.4328268283094
 31
0.0
  0
LINE
  5
9C3
330
896
100
AcDbEntity
  8
文字
100
AcDbLine
 10
300.4630029769455
 20
128.1828268283094
 30
0.0
 11
296.4631278261456
 21
128.1828268283094
 31
0.0
  0
LINE
  5
9C4
330
896
100
AcDbEntity
  8
文字
100
AcDbLine
 10
301.7130654015456
 20
124.4328268283094
 30
0.0
 11
302.7139785643455
 21
123.4319136655094
 31
0.0
  0
LINE
  5
9C5
330
896
100
AcDbEntity
  8
文字
100
AcDbLine
 10
326.7063543116455
 20
114.4328268283095
 30
0.0
 11
326.7063543116455
 21
111.9328268283094
 31
0.0
  0
LINE
  5
9C6
330
896
100
AcDbEntity
  8
文字
100
AcDbLine
 10
329.6995195006457
 20
114.4328268283095
 30
0.0
 11
329.6995195006457
 21
114.9328268283094
 31
0.0
  0
LINE
  5
9C7
330
896
100
AcDbEntity
  8
文字
100
AcDbLine
 10
329.5753714831453
 20
111.9328268283094
 30
0.0
 11
329.6845238402456
 21
114.4328268283095
 31
0.0
  0
ARC
  5
9C8
330
896
100
AcDbEntity
  8
文字
100
AcDbCircle
 10
164.7864317230455
 20
110.4828268283094
 30
0.0
 40
2.5
100
AcDbArc
 50
237.6639734339984
 51
254.7206079149988
  0
ARC
  5
9C9
330
896
100
AcDbEntity
  8
文字
100
AcDbCircle
 10
164.7864317230455
 20
110.4828268283094
 30
0.0
 40
2.493145603399999
100
AcDbArc
 50
276.5034226030024
 51
285.1878551629025
  0
ARC
  5
9CA
330
896
100
AcDbEntity
  8
文字
100
AcDbCircle
 10
163.5214317232455
 20
108.4845775960095
 30
0.0
 40
0.1350000003
100
AcDbArc
 50
180.0
 51
237.6639741510005
  0
ARC
  5
9CB
330
896
100
AcDbEntity
  8
文字
100
AcDbCircle
 10
166.0514317227455
 20
108.4845775960095
 30
0.0
 40
0.1350000003
100
AcDbArc
 50
302.3360258489994
 51
359.9999994874
  0
ARC
  5
9CC
330
896
100
AcDbEntity
  8
文字
100
AcDbCircle
 10
164.7864317230455
 20
110.4828268283094
 30
0.0
 40
2.5
100
AcDbArc
 50
285.2793920850011
 51
302.3360265660016
  0
ARC
  5
9CD
330
896
100
AcDbEntity
  8
文字
100
AcDbCircle
 10
164.7864317230455
 20
110.4828268283094
 30
0.0
 40
2.493145603399999
100
AcDbArc
 50
254.8121448370974
 51
263.4965773969975
  0
ARC
  5
9CE
330
896
100
AcDbEntity
  8
文字
100
AcDbCircle
 10
158.6518299680456
 20
117.3328268283094
 30
0.0
 40
0.1
100
AcDbArc
 50
0.0000000235000753
 51
89.999999978003
  0
ARC
  5
9CF
330
896
100
AcDbEntity
  8
文字
100
AcDbCircle
 10
150.3518299680455
 20
117.3328268283094
 30
0.0
 40
0.1
100
AcDbArc
 50
90.00000002199705
 51
179.9999999764999
  0
ARC
  5
9D0
330
896
100
AcDbEntity
  8
文字
100
AcDbCircle
 10
164.7864317230455
 20
80.53282682830952
 30
0.0
 40
30.0
100
AcDbArc
 50
183.3476287809993
 51
356.6523712190005
  0
ARC
  5
9D1
330
896
100
AcDbEntity
  8
文字
100
AcDbCircle
 10
166.9181711332455
 20
109.4328268281095
 30
0.0
 40
0.2499999998
100
AcDbArc
 50
269.9999999644999
 51
357.0000000300006
  0
ARC
  5
9D2
330
896
100
AcDbEntity
  8
文字
100
AcDbCircle
 10
162.6546923128455
 20
109.4328268281095
 30
0.0
 40
0.2499999998
100
AcDbArc
 50
182.9999999464004
 51
270.0000000326014
  0
ARC
  5
9D3
330
896
100
AcDbEntity
  8
文字
100
AcDbCircle
 10
200.1793192216454
 20
81.03038648270951
 30
0.0
 40
0.4999999999000001
100
AcDbArc
 50
299.9999994814027
 51
356.9999988975004
  0
ARC
  5
9D4
330
896
100
AcDbEntity
  8
文字
100
AcDbCircle
 10
129.3935442243455
 20
81.03038648270951
 30
0.0
 40
0.4999999999000001
100
AcDbArc
 50
183.0000004044999
 51
240.0000001727979
  0
ARC
  5
9D5
330
896
100
AcDbEntity
  8
文字
100
AcDbCircle
 10
197.1524571267456
 20
79.28282682980951
 30
0.0
 40
0.5000000014000002
100
AcDbArc
 50
270.0000000229024
 51
299.9999999054023
  0
ARC
  5
9D6
330
896
100
AcDbEntity
  8
文字
100
AcDbCircle
 10
132.4204063193453
 20
79.28282682980951
 30
0.0
 40
0.5000000014000002
100
AcDbArc
 50
240.0000000945976
 51
269.9999999770974
  0
CIRCLE
  5
9D7
330
896
100
AcDbEntity
  8
文字
100
AcDbCircle
 10
154.5018299680456
 20
232.7184465363093
 30
0.0
 40
2.0
  0
CIRCLE
  5
9D8
330
896
100
AcDbEntity
  8
文字
100
AcDbCircle
 10
154.5018299680456
 20
232.7184465363093
 30
0.0
 40
4.5
  0
CIRCLE
  5
9D9
330
896
100
AcDbEntity
  8
文字
100
AcDbCircle
 10
154.5018299680456
 20
232.7184465363093
 30
0.0
 40
2.5
  0
CIRCLE
  5
9DA
330
896
100
AcDbEntity
  8
文字
100
AcDbCircle
 10
154.5018299680456
 20
232.7184465363093
 30
0.0
 40
3.25
  0
CIRCLE
  5
9DB
330
896
100
AcDbEntity
  8
文字
100
AcDbCircle
 10
164.7864317230455
 20
260.9617354464095
 30
0.0
 40
1.199999999999999
  0
CIRCLE
  5
9DC
330
896
100
AcDbEntity
  8
文字
100
AcDbCircle
 10
164.7864317230455
 20
260.9617354464095
 30
0.0
 40
2.993165188899998
  0
CIRCLE
  5
9DD
330
896
100
AcDbEntity
  8
文字
100
AcDbCircle
 10
129.7124028695453
 20
200.2117354464095
 30
0.0
 40
1.199999999999999
  0
CIRCLE
  5
9DE
330
896
100
AcDbEntity
  8
文字
100
AcDbCircle
 10
129.7124028695453
 20
200.2117354464095
 30
0.0
 40
2.993165188899998
  0
CIRCLE
  5
9DF
330
896
100
AcDbEntity
  8
文字
100
AcDbCircle
 10
199.8604605765456
 20
200.2117354464095
 30
0.0
 40
1.199999999999999
  0
CIRCLE
  5
9E0
330
896
100
AcDbEntity
  8
文字
100
AcDbCircle
 10
199.8604605765456
 20
200.2117354464095
 30
0.0
 40
2.993165188899998
  0
CIRCLE
  5
9E1
330
896
100
AcDbEntity
  8
文字
100
AcDbCircle
 10
197.1429374725453
 20
243.1180046824095
 30
0.0
 40
0.75
  0
CIRCLE
  5
9E2
330
896
100
AcDbEntity
  8
文字
100
AcDbCircle
 10
132.4299259735455
 20
243.1180046824095
 30
0.0
 40
0.75
  0
CIRCLE
  5
9E3
330
896
100
AcDbEntity
  8
文字
100
AcDbCircle
 10
164.7864317230455
 20
180.9617354464094
 30
0.0
 40
0.75
  0
ARC
  5
9E4
330
896
100
AcDbEntity
  8
文字
100
AcDbCircle
 10
164.7864317230455
 20
220.4617354464095
 30
0.0
 40
37.60316952849999
100
AcDbArc
 50
273.8120504681968
 51
323.4258144566013
  0
ARC
  5
9E5
330
896
100
AcDbEntity
  8
文字
100
AcDbCircle
 10
164.7864317230455
 20
180.9617354464094
 30
0.0
 40
2.5
100
AcDbArc
 50
179.9999995495005
 51
0.0000004504992611
  0
ARC
  5
9E6
330
896
100
AcDbEntity
  8
文字
100
AcDbCircle
 10
164.7864317230455
 20
220.4617354464095
 30
0.0
 40
37.60316952849999
100
AcDbArc
 50
216.5741855433985
 51
266.187949531803
  0
ARC
  5
9E7
330
896
100
AcDbEntity
  8
文字
100
AcDbCircle
 10
132.4299259735455
 20
243.1180046824095
 30
0.0
 40
2.5
100
AcDbArc
 50
55.00000068320182
 51
235.000000021902
  0
ARC
  5
9E8
330
896
100
AcDbEntity
  8
文字
100
AcDbCircle
 10
164.7864317230455
 20
220.4617354464095
 30
0.0
 40
37.60316952849999
100
AcDbArc
 50
96.57418544759757
 51
141.1879495098981
  0
ARC
  5
9E9
330
896
100
AcDbEntity
  8
文字
100
AcDbCircle
 10
164.7864317230455
 20
220.4617354464095
 30
0.0
 40
37.60316952849999
100
AcDbArc
 50
38.8120504901019
 51
83.42581455240248
  0
ARC
  5
9EA
330
896
100
AcDbEntity
  8
文字
100
AcDbCircle
 10
164.7864317230455
 20
220.4617354464095
 30
0.0
 40
37.60316952849999
100
AcDbArc
 50
336.5741855531008
 51
31.18794954510131
  0
ARC
  5
9EB
330
896
100
AcDbEntity
  8
文字
100
AcDbCircle
 10
164.7864317230455
 20
220.4617354464095
 30
0.0
 40
37.60316952849999
100
AcDbArc
 50
148.8120504548984
 51
203.425814446899
  0
ARC
  5
9EC
330
896
100
AcDbEntity
  8
文字
100
AcDbCircle
 10
197.1429374725453
 20
243.1180046824095
 30
0.0
 40
2.5
100
AcDbArc
 50
304.9999999780979
 51
124.999999316798
  0
CIRCLE
  5
9ED
330
896
100
AcDbEntity
  8
一点鎖線
100
AcDbCircle
 10
164.7864317230455
 20
220.4617354464095
 30
0.0
 40
40.49999999999999
  0
ARC
  5
9EE
330
896
100
AcDbEntity
  8
文字
100
AcDbCircle
 10
245.4413543119454
 20
108.4845775932093
 30
0.0
 40
0.1350000003
100
AcDbArc
 50
180.0000001256002
 51
237.6639736111965
  0
ARC
  5
9EF
330
896
100
AcDbEntity
  8
文字
100
AcDbCircle
 10
247.9713543113456
 20
108.4845775932093
 30
0.0
 40
0.1350000003
100
AcDbArc
 50
302.3360263888033
 51
359.9999998743996
  0
ARC
  5
9F0
330
896
100
AcDbEntity
  8
文字
100
AcDbCircle
 10
246.7063543116454
 20
110.4828268283094
 30
0.0
 40
2.5
100
AcDbArc
 50
285.2192785565017
 51
302.3360265660016
  0
ARC
  5
9F1
330
896
100
AcDbEntity
  8
文字
100
AcDbCircle
 10
246.7063543116454
 20
110.4828268283094
 30
0.0
 40
2.493145603399999
100
AcDbArc
 50
254.8121448370974
 51
263.4965773969975
  0
ARC
  5
9F2
330
896
100
AcDbEntity
  8
文字
100
AcDbCircle
 10
246.7063543116454
 20
110.4828268283094
 30
0.0
 40
2.5
100
AcDbArc
 50
237.6639734339984
 51
254.7807214432011
  0
ARC
  5
9F3
330
896
100
AcDbEntity
  8
文字
100
AcDbCircle
 10
246.7063543116454
 20
110.4828268283094
 30
0.0
 40
2.493145603399999
100
AcDbArc
 50
276.5034226030024
 51
285.1878551629025
  0
ARC
  5
9F4
330
896
100
AcDbEntity
  8
文字
100
AcDbCircle
 10
307.5976235478456
 20
108.4845775932093
 30
0.0
 40
0.1350000003
100
AcDbArc
 50
180.0000001256002
 51
237.6639736111965
  0
ARC
  5
9F5
330
896
100
AcDbEntity
  8
文字
100
AcDbCircle
 10
310.1276235472453
 20
108.4845775932093
 30
0.0
 40
0.1350000003
100
AcDbArc
 50
302.3360263888033
 51
359.9999998743996
  0
ARC
  5
9F6
330
896
100
AcDbEntity
  8
文字
100
AcDbCircle
 10
308.8626235475455
 20
110.4828268283094
 30
0.0
 40
2.5
100
AcDbArc
 50
285.2192785565017
 51
302.3360265660016
  0
ARC
  5
9F7
330
896
100
AcDbEntity
  8
文字
100
AcDbCircle
 10
308.8626235475455
 20
110.4828268283094
 30
0.0
 40
2.493145603399999
100
AcDbArc
 50
254.8121448370974
 51
263.4965773969975
  0
ARC
  5
9F8
330
896
100
AcDbEntity
  8
文字
100
AcDbCircle
 10
308.8626235475455
 20
110.4828268283094
 30
0.0
 40
2.5
100
AcDbArc
 50
237.6639734339984
 51
254.7807214432011
  0
ARC
  5
9F9
330
896
100
AcDbEntity
  8
文字
100
AcDbCircle
 10
308.8626235475455
 20
110.4828268283094
 30
0.0
 40
2.493145603399999
100
AcDbArc
 50
276.5034226030024
 51
285.1878551629025
  0
ARC
  5
9FA
330
896
100
AcDbEntity
  8
文字
100
AcDbCircle
 10
302.8630654018456
 20
117.3328268296095
 30
0.0
 40
0.0999999999
100
AcDbArc
 50
0.0000016952004301
 51
90.00000011849861
  0
ARC
  5
9FB
330
896
100
AcDbEntity
  8
文字
100
AcDbCircle
 10
294.0630654013456
 20
117.3328268296095
 30
0.0
 40
0.0999999999
100
AcDbArc
 50
89.99999988150138
 51
179.9999983047995
  0
ARC
  5
9FC
330
896
100
AcDbEntity
  8
文字
100
AcDbCircle
 10
286.2063543116454
 20
80.53282682830952
 30
0.0
 40
30.0
100
AcDbArc
 50
183.3476287809993
 51
356.6523712190005
  0
ARC
  5
9FD
330
896
100
AcDbEntity
  8
文字
100
AcDbCircle
 10
310.9943629573456
 20
109.4328268290094
 30
0.0
 40
0.2500000002
100
AcDbArc
 50
270.000000020603
 51
356.9999998533996
  0
ARC
  5
9FE
330
896
100
AcDbEntity
  8
文字
100
AcDbCircle
 10
244.5746149014455
 20
109.4328268281095
 30
0.0
 40
0.2499999998
100
AcDbArc
 50
182.9999999464004
 51
270.0000000326014
  0
ARC
  5
9FF
330
896
100
AcDbEntity
  8
文字
100
AcDbCircle
 10
250.8134668130455
 20
81.03038646430951
 30
0.0
 40
0.4999999999000001
100
AcDbArc
 50
182.9999989956997
 51
239.9999994815984
  0
ARC
  5
A00
330
896
100
AcDbEntity
  8
文字
100
AcDbCircle
 10
321.5992418102456
 20
81.03038646430951
 30
0.0
 40
0.4999999999000001
100
AcDbArc
 50
300.0000005184013
 51
357.0000010043003
  0
ARC
  5
A01
330
896
100
AcDbEntity
  8
文字
100
AcDbCircle
 10
318.5723797153456
 20
79.28282682980951
 30
0.0
 40
0.5000000014000002
100
AcDbArc
 50
270.0000000182972
 51
299.9999999041991
  0
ARC
  5
A02
330
896
100
AcDbEntity
  8
文字
100
AcDbCircle
 10
253.8403289079456
 20
79.28282682980951
 30
0.0
 40
0.5000000014000002
100
AcDbArc
 50
240.0000000959966
 51
269.9999999815986
  0
LINE
  5
A03
330
896
100
AcDbEntity
  8
文字
100
AcDbLine
 10
200.6970114644435
 20
51.78512670057386
 30
0.0
 11
189.7677045866203
 21
60.53442673945507
 31
0.0
  0
MTEXT
  5
A04
330
896
100
AcDbEntity
  8
文字
100
AcDbMText
 10
198.552939661218
 20
56.3836916483023
 30
0.0
 40
2.5
 41
0.0
 71
     5
 72
     1
  1
SR60
 11
0.7771459614569706
 21
-0.6293203910498379
 31
0.0
 73
     1
 44
1.0
  0
INSERT
  5
A05
330
896
100
AcDbEntity
  8
文字
100
AcDbBlockReference
  2
_Open30
 10
188.2063750326456
 20
61.78432674500953
 30
0.0
 41
1.999999999999968
 42
2.0
 43
2.0
 50
141.3214821155448
  0
LINE
  5
A06
330
896
100
AcDbEntity
  8
文字
100
AcDbLine
 10
125.3691440973456
 20
114.9328268283094
 30
0.0
 11
100.0680748160456
 21
114.9328268283094
 31
0.0
  0
LINE
  5
A07
330
896
100
AcDbEntity
  8
文字
100
AcDbLine
 10
163.2864317230454
 20
50.53282682830951
 30
0.0
 11
100.0680748160456
 21
50.53282682830952
 31
0.0
  0
LINE
  5
A08
330
896
100
AcDbEntity
  8
文字
100
AcDbLine
 10
101.0680748160456
 20
112.9328268283094
 30
0.0
 11
101.0680748160456
 21
52.53282682830954
 31
0.0
  0
INSERT
  5
A09
330
896
100
AcDbEntity
  8
文字
100
AcDbBlockReference
  2
_Open30
 10
101.0680748160456
 20
114.9328268283094
 30
0.0
 41
2.0
 42
2.0
 43
2.0
 50
90.0
  0
INSERT
  5
A0A
330
896
100
AcDbEntity
  8
文字
100
AcDbBlockReference
  2
_Open30
 10
101.0680748160456
 20
50.53282682830952
 30
0.0
 41
2.0
 42
2.0
 43
2.0
 50
270.0
  0
MTEXT
  5
A0B
330
896
100
AcDbEntity
  8
文字
100
AcDbMText
 10
98.81807481604562
 20
81.6236328918095
 30
0.0
 40
2.5
 41
0.0
 71
     5
 72
     1
  1
129
 11
-0.0056108919616789
 21
0.9999842588218049
 31
0.0
 73
     1
 44
1.0
  0
LINE
  5
A0C
330
896
100
AcDbEntity
  8
文字
100
AcDbLine
 10
125.2192376805455
 20
114.9328268283094
 30
0.0
 11
105.8813363262455
 21
114.9328268283094
 31
0.0
  0
LINE
  5
A0D
330
896
100
AcDbEntity
  8
文字
100
AcDbLine
 10
130.9204063191456
 20
78.7828268284095
 30
0.0
 11
105.8813363262455
 21
78.7828268284095
 31
0.0
  0
LINE
  5
A0E
330
896
100
AcDbEntity
  8
文字
100
AcDbLine
 10
106.8813363262455
 20
112.9328268283094
 30
0.0
 11
106.8813363262455
 21
80.78282682840947
 31
0.0
  0
INSERT
  5
A0F
330
896
100
AcDbEntity
  8
文字
100
AcDbBlockReference
  2
_Open30
 10
106.8813363262455
 20
114.9328268283094
 30
0.0
 41
2.0
 42
2.0
 43
2.0
 50
90.0
  0
INSERT
  5
A10
330
896
100
AcDbEntity
  8
文字
100
AcDbBlockReference
  2
_Open30
 10
106.8813363262455
 20
78.7828268284095
 30
0.0
 41
2.0
 42
2.0
 43
2.0
 50
270.0
  0
MTEXT
  5
A11
330
896
100
AcDbEntity
  8
文字
100
AcDbMText
 10
104.6313363262455
 20
95.14825166490949
 30
0.0
 40
2.5
 41
0.0
 71
     5
 72
     1
  1
72
 11
-0.0056108919616789
 21
0.9999842588218049
 31
0.0
 73
     1
 44
1.0
  0
LINE
  5
A12
330
896
100
AcDbEntity
  8
文字
100
AcDbLine
 10
125.3334157162454
 20
114.9328268283094
 30
0.0
 11
100.0680748160456
 21
114.9328268283094
 31
0.0
  0
LINE
  5
A13
330
896
100
AcDbEntity
  8
文字
100
AcDbLine
 10
151.0018299680456
 20
128.1828268283094
 30
0.0
 11
100.0680748160456
 21
128.1828268283094
 31
0.0
  0
LINE
  5
A14
330
896
100
AcDbEntity
  8
文字
100
AcDbLine
 10
101.0680748160456
 20
116.9328268283094
 30
0.0
 11
101.0680748160456
 21
126.1828268283095
 31
0.0
  0
INSERT
  5
A15
330
896
100
AcDbEntity
  8
文字
100
AcDbBlockReference
  2
_Open30
 10
101.0680748160456
 20
114.9328268283094
 30
0.0
 41
2.0
 42
2.0
 43
2.0
 50
270.0
  0
INSERT
  5
A16
330
896
100
AcDbEntity
  8
文字
100
AcDbBlockReference
  2
_Open30
 10
101.0680748160456
 20
128.1828268283094
 30
0.0
 41
2.0
 42
2.0
 43
2.0
 50
90.0
  0
MTEXT
  5
A17
330
896
100
AcDbEntity
  8
文字
100
AcDbMText
 10
98.81807481604562
 20
121.7852185362094
 30
0.0
 40
2.5
 41
0.0
 71
     5
 72
     1
  1
(27)
 11
-0.0056108919616789
 21
0.9999842588218049
 31
0.0
 73
     1
 44
1.0
  0
LINE
  5
A18
330
896
100
AcDbEntity
  8
文字
100
AcDbLine
 10
125.2192376805455
 20
114.9328268283094
 30
0.0
 11
110.9193530808455
 21
114.9328268283094
 31
0.0
  0
LINE
  5
A19
330
896
100
AcDbEntity
  8
文字
100
AcDbLine
 10
125.3433856985454
 20
111.9328268283094
 30
0.0
 11
110.9193530808455
 21
111.9328268283094
 31
0.0
  0
LINE
  5
A1A
330
896
100
AcDbEntity
  8
文字
100
AcDbLine
 10
111.9193530808455
 20
109.9328268283094
 30
0.0
 11
111.9193530808455
 21
107.9328268283095
 31
0.0
  0
LINE
  5
A1B
330
896
100
AcDbEntity
  8
文字
100
AcDbLine
 10
111.9193530808455
 20
116.9328268283094
 30
0.0
 11
111.9193530808455
 21
122.2661601616429
 31
0.0
  0
LINE
  5
A1C
330
896
100
AcDbEntity
  8
文字
100
AcDbLine
 10
111.9193530808455
 20
111.9328268283094
 30
0.0
 11
111.9193530808455
 21
114.9328268283094
 31
0.0
  0
INSERT
  5
A1D
330
896
100
AcDbEntity
  8
文字
100
AcDbBlockReference
  2
_Open30
 10
111.9193530808455
 20
111.9328268283094
 30
0.0
 41
2.0
 42
2.0
 43
2.0
 50
90.0
  0
INSERT
  5
A1E
330
896
100
AcDbEntity
  8
文字
100
AcDbBlockReference
  2
_Open30
 10
111.9193530808455
 20
114.9328268283094
 30
0.0
 41
2.0
 42
2.0
 43
2.0
 50
270.0
  0
MTEXT
  5
A1F
330
896
100
AcDbEntity
  8
文字
100
AcDbMText
 10
109.6693530808455
 20
120.5994934949762
 30
0.0
 40
2.5
 41
0.0
 71
     5
 72
     1
  1
6
 11
-0.0056108919616789
 21
0.9999842588218049
 31
0.0
 73
     1
 44
1.0
  0
LINE
  5
A20
330
896
100
AcDbEntity
  8
文字
100
AcDbLine
 10
125.3691440973456
 20
114.9328268283094
 30
0.0
 11
117.8711065268456
 21
114.9328268283094
 31
0.0
  0
LINE
  5
A21
330
896
100
AcDbEntity
  8
文字
100
AcDbLine
 10
125.4331498183455
 20
114.4328268283095
 30
0.0
 11
117.8711065268456
 21
114.4328268283095
 31
0.0
  0
LINE
  5
A22
330
896
100
AcDbEntity
  8
文字
100
AcDbLine
 10
118.8711065268456
 20
112.4328268283095
 30
0.0
 11
118.8711065268456
 21
110.4328268283095
 31
0.0
  0
LINE
  5
A23
330
896
100
AcDbEntity
  8
文字
100
AcDbLine
 10
118.8711065268456
 20
116.9328268283094
 30
0.0
 11
118.8711065268456
 21
121.6585763050427
 31
0.0
  0
LINE
  5
A24
330
896
100
AcDbEntity
  8
文字
100
AcDbLine
 10
118.8711065268456
 20
114.4328268283095
 30
0.0
 11
118.8711065268456
 21
114.9328268283094
 31
0.0
  0
INSERT
  5
A25
330
896
100
AcDbEntity
  8
文字
100
AcDbBlockReference
  2
_Open30
 10
118.8711065268456
 20
114.4328268283095
 30
0.0
 41
2.0
 42
2.0
 43
2.0
 50
90.0
  0
INSERT
  5
A26
330
896
100
AcDbEntity
  8
文字
100
AcDbBlockReference
  2
_Open30
 10
118.8711065268456
 20
114.9328268283094
 30
0.0
 41
2.0
 42
2.0
 43
2.0
 50
270.0
  0
MTEXT
  5
A27
330
896
100
AcDbEntity
  8
文字
100
AcDbMText
 10
116.6211065268454
 20
120.3252429717094
 30
0.0
 40
2.5
 41
0.0
 71
     5
 72
     1
  1
\A1;1
 11
0.0000000000000001
 21
1.0
 31
0.0
 73
     1
 44
1.0
  0
LINE
  5
A28
330
896
100
AcDbEntity
  8
文字
100
AcDbLine
 10
150.0018299680456
 20
124.6828268283095
 30
0.0
 11
150.0018299680456
 21
139.5575187393095
 31
0.0
  0
LINE
  5
A29
330
896
100
AcDbEntity
  8
文字
100
AcDbLine
 10
159.0018299680455
 20
124.6828268283095
 30
0.0
 11
159.0018299680455
 21
139.5575187393095
 31
0.0
  0
LINE
  5
A2A
330
896
100
AcDbEntity
  8
文字
100
AcDbLine
 10
152.0018299680456
 20
138.5575187393095
 30
0.0
 11
157.0018299680455
 21
138.5575187393095
 31
0.0
  0
LINE
  5
A2B
330
896
100
AcDbEntity
  8
文字
100
AcDbLine
 10
159.0018299680455
 20
138.5575187393095
 30
0.0
 11
175.0
 21
138.5575187393095
 31
0.0
  0
INSERT
  5
A2C
330
896
100
AcDbEntity
  8
文字
100
AcDbBlockReference
  2
_Open30
 10
150.0018299680456
 20
138.5575187393095
 30
0.0
 41
2.0
 42
2.0
 43
2.0
 50
180.0
  0
INSERT
  5
A2D
330
896
100
AcDbEntity
  8
文字
100
AcDbBlockReference
  2
_Open30
 10
159.0018299680455
 20
138.5575187393095
 30
0.0
 41
2.0
 42
2.0
 43
2.0
  0
MTEXT
  5
A2E
330
896
100
AcDbEntity
  8
文字
100
AcDbMText
 10
169.0681115889456
 20
140.8075187393095
 30
0.0
 40
2.5
 41
0.0
 71
     5
 72
     1
  1
(φ18）
  7
STANDARD1
 11
0.9999842588218049
 21
0.0056108919616789
 31
0.0
 73
     1
 44
1.0
  0
ARC
  5
A2F
330
896
100
AcDbEntity
  8
文字
100
AcDbCircle
 10
164.7864317230456
 20
220.461735446091
 30
0.0
 40
52.66652575699868
100
AcDbArc
 50
332.1759256748749
 51
87.82407432535839
  0
INSERT
  5
A30
330
896
100
AcDbEntity
  8
文字
100
AcDbBlockReference
  2
_Open30
 10
210.3969809577811
 20
194.1284725677776
 30
0.0
 41
1.999999999999974
 42
2.0
 43
2.0
 50
241.0879628375557
  0
INSERT
  5
A31
330
896
100
AcDbEntity
  8
文字
100
AcDbBlockReference
  2
_Open30
 10
164.7864317230455
 20
273.1282612030895
 30
0.0
 41
1.99999999999998
 42
2.0
 43
2.0
 50
178.9120371626789
  0
MTEXT
  5
A32
330
896
100
AcDbEntity
  8
文字
100
AcDbMText
 10
209.9957270018711
 20
251.6377586307605
 30
0.0
 40
2.5
 41
0.0
 71
     5
 72
     1
  1
\A1;120°
 11
0.5676983886894284
 21
-0.8232366242335352
 31
0.0
 73
     1
 44
1.0
  0
LINE
  5
A33
330
896
100
AcDbEntity
  8
文字
100
AcDbLine
 10
164.7864317230455
 20
260.2917633716094
 30
0.0
 11
164.7864317230455
 21
273.0
 31
0.0
  0
LINE
  5
A34
330
896
100
AcDbEntity
  8
文字
100
AcDbLine
 10
154.5018299680456
 20
240.4684465363093
 30
0.0
 11
154.5018299680456
 21
269.5869121649095
 31
0.0
  0
LINE
  5
A35
330
896
100
AcDbEntity
  8
文字
100
AcDbLine
 10
156.5018299680455
 20
267.5869121649095
 30
0.0
 11
162.7864317230454
 21
267.5869121649095
 31
0.0
  0
LINE
  5
A36
330
896
100
AcDbEntity
  8
文字
100
AcDbLine
 10
164.7864317230455
 20
267.5869121649095
 30
0.0
 11
178.0
 21
267.5869121649095
 31
0.0
  0
INSERT
  5
A37
330
896
100
AcDbEntity
  8
文字
100
AcDbBlockReference
  2
_Open30
 10
154.5018299680456
 20
267.5869121649095
 30
0.0
 41
2.0
 42
2.0
 43
2.0
 50
180.0
  0
INSERT
  5
A38
330
896
100
AcDbEntity
  8
文字
100
AcDbBlockReference
  2
_Open30
 10
164.7864317230455
 20
267.5869121649095
 30
0.0
 41
2.0
 42
2.0
 43
2.0
  0
MTEXT
  5
A39
330
896
100
AcDbEntity
  8
文字
100
AcDbMText
 10
172.8586791183456
 20
269.8369121649095
 30
0.0
 40
2.5
 41
0.0
 71
     5
 72
     1
  1
(20.5)
 73
     1
 44
1.0
  0
ARC
  5
A3A
330
896
100
AcDbEntity
  8
文字
100
AcDbCircle
 10
164.7864317230456
 20
220.461735445913
 30
0.0
 40
52.55945984444821
100
AcDbArc
 50
92.18035866459739
 51
207.8196413349135
  0
INSERT
  5
A3B
330
896
100
AcDbEntity
  8
文字
100
AcDbBlockReference
  2
_Open30
 10
164.7864317230455
 20
273.0211952903613
 30
0.0
 41
1.999999999999992
 42
2.0
 43
2.0
 50
1.09017933229916
  0
INSERT
  5
A3C
330
896
100
AcDbEntity
  8
文字
100
AcDbBlockReference
  2
_Open30
 10
119.268604288342
 20
194.1820055240755
 30
0.0
 41
2.000000000000003
 42
2.0
 43
2.0
 50
298.9098206672143
  0
MTEXT
  5
A3D
330
896
100
AcDbEntity
  8
文字
100
AcDbMText
 10
119.1553097211359
 20
250.8241726551855
 30
0.0
 40
2.5
 41
0.0
 71
     5
 72
     1
  1
\A1;120°
 11
0.5539634452782889
 21
0.8325409907598594
 31
0.0
 73
     1
 44
1.0
  0
LINE
  5
A3E
330
896
100
AcDbEntity
  8
文字
100
AcDbLine
 10
121.9509804288454
 20
220.4617354464095
 30
0.0
 11
118.8001443418454
 21
220.4617354464095
 31
0.0
  0
LINE
  5
A3F
330
896
100
AcDbEntity
  8
文字
100
AcDbLine
 10
146.7518299680456
 20
232.7184465363093
 30
0.0
 11
118.8001443418454
 21
232.7184465363093
 31
0.0
  0
LINE
  5
A40
330
896
100
AcDbEntity
  8
文字
100
AcDbLine
 10
119.8001443418454
 20
222.4617354464095
 30
0.0
 11
119.8001443418454
 21
230.7184465363093
 31
0.0
  0
INSERT
  5
A41
330
896
100
AcDbEntity
  8
文字
100
AcDbBlockReference
  2
_Open30
 10
119.8001443418454
 20
220.4617354464095
 30
0.0
 41
2.0
 42
2.0
 43
2.0
 50
270.0
  0
INSERT
  5
A42
330
896
100
AcDbEntity
  8
文字
100
AcDbBlockReference
  2
_Open30
 10
119.8001443418454
 20
232.7184465363093
 30
0.0
 41
2.0
 42
2.0
 43
2.0
 50
90.0
  0
MTEXT
  5
A43
330
896
100
AcDbEntity
  8
文字
100
AcDbMText
 10
117.5501443418454
 20
226.9074087296095
 30
0.0
 40
2.5
 41
0.0
 71
     5
 72
     1
  1
(24.5)
 11
0.0000000000000001
 21
1.0
 31
0.0
 73
     1
 44
1.0
  0
LINE
  5
A44
330
896
100
AcDbEntity
  8
文字
100
AcDbLine
 10
115.8153551531023
 20
205.6234478364693
 30
0.0
 11
125.0595762493577
 21
202.0236137663979
 31
0.0
  0
MTEXT
  5
A45
330
896
100
AcDbEntity
  8
文字
100
AcDbMText
 10
120.9803989957024
 20
206.0266845929738
 30
0.0
 40
2.5
 41
0.0
 71
     5
 72
     1
  1
3-R6
 11
0.9335804264972015
 21
-0.3583679495453008
 31
0.0
 73
     1
 44
1.0
  0
LINE
  5
A46
330
896
100
AcDbEntity
  8
文字
100
AcDbLine
 10
129.7124028695457
 20
200.2117354464094
 30
0.0
 11
126.9232544751454
 21
201.2978703746095
 31
0.0
  0
INSERT
  5
A47
330
896
100
AcDbEntity
  8
文字
100
AcDbBlockReference
  2
_Open30
 10
126.9232544751454
 20
201.2978703746095
 30
0.0
 41
2.0
 42
2.0
 43
2.0
 50
338.7233382078771
  0
LINE
  5
A48
330
896
100
AcDbEntity
  8
文字
100
AcDbLine
 10
120.2745742448872
 20
179.4567989046042
 30
0.0
 11
129.3812509879324
 21
199.4834920589339
 31
0.0
  0
MTEXT
  5
A49
330
896
100
AcDbEntity
  8
文字
100
AcDbMText
 10
121.0983869144502
 20
186.7040357849944
 30
0.0
 40
2.5
 41
0.0
 71
     5
 72
     1
  1
3-φ4.8穴
  7
STANDARD1
 11
0.4067366430758004
 21
0.913545457642601
 31
0.0
 73
     1
 44
1.0
  0
INSERT
  5
A4A
330
896
100
AcDbEntity
  8
文字
100
AcDbBlockReference
  2
_Open30
 10
130.2091306918454
 20
201.3041005275094
 30
0.0
 41
2.000000000000019
 42
2.0
 43
2.0
 50
65.54742836121994
  0
LINE
  5
A4B
330
896
100
AcDbEntity
  8
文字
100
AcDbLine
 10
131.6839939286061
 20
171.4928927583416
 30
0.0
 11
186.3478202456015
 21
252.3577622361949
 31
0.0
  0
MTEXT
  5
A4C
330
896
100
AcDbEntity
  8
文字
100
AcDbMText
 10
132.2467633655106
 20
176.3430028950978
 30
0.0
 40
2.5
 41
0.0
 71
     5
 72
     1
  1
\U+2205162
 11
0.5591929034707468
 21
0.8290375725550417
 31
0.0
 73
     1
 44
1.0
  0
INSERT
  5
A4D
330
896
100
AcDbEntity
  8
文字
100
AcDbBlockReference
  2
_Open30
 10
187.4678923766455
 20
254.0146986928094
 30
0.0
 41
2.000000000000023
 42
2.0
 43
2.0
 50
55.94170804977322
  0
LINE
  5
A4E
330
896
100
AcDbEntity
  8
文字
100
AcDbLine
 10
144.6157589581439
 20
164.7087372472628
 30
0.0
 11
176.8988472590744
 21
253.9412078190631
 31
0.0
  0
MTEXT
  5
A4F
330
896
100
AcDbEntity
  8
文字
100
AcDbMText
 10
144.0875979193209
 20
169.8625051596593
 30
0.0
 40
2.5
 41
0.0
 71
     5
 72
     1
  1
\U+2205150.4
 11
0.3420201433256689
 21
0.9396926207859085
 31
0.0
 73
     1
 44
1.0
  0
INSERT
  5
A50
330
896
100
AcDbEntity
  8
文字
100
AcDbBlockReference
  2
_Open30
 10
177.5792594637457
 20
255.8219096114092
 30
0.0
 41
2.000000000000002
 42
2.0
 43
2.0
 50
70.11056856864913
  0
MTEXT
  5
A51
330
896
100
AcDbEntity
  8
文字
100
AcDbMText
 10
125.6499080858888
 20
184.6343365252114
 30
0.0
 40
2.5
 41
0.0
 71
     5
 72
     1
  1
(天井固定用穴）
  7
STANDARD1
 11
0.4139398519566015
 21
0.910304234287717
 31
0.0
 73
     1
 44
1.0
  0
ENDBLK
  5
A53
330
896
100
AcDbEntity
  8
0
100
AcDbBlockEnd
  0
ENDSEC
  0
SECTION
  2
ENTITIES
  0
DIMENSION
  5
21C
330
74
100
AcDbEntity
  8
1_ALL_DRAFT_DIMS
  6
Continuous
100
AcDbDimension
  2
*D1
 10
564.3066872943611
 20
148.118032823061
 30
0.0
 11
580.755843981561
 21
151.3295301896872
 31
0.0
 70
   160
  1
50
 71
     5
 42
35.0
  3
Standard
100
AcDbAlignedDimension
 13
599.3066872943611
 23
140.723888277661
 33
0.0
 14
564.3066872943611
 24
133.803707790961
 34
0.0
 50
180.0
100
AcDbRotatedDimension
1001
ACAD
1000
DSTYLE
1002
{
1070
   140
1040
3.5
1070
   279
1070
     2
1070
   271
1070
     1
1070
    41
1040
3.0
1070
   343
1005
2D1
1070
   173
1070
     1
1070
   344
1005
2D1
1002
}
  0
DIMENSION
  5
21D
330
74
100
AcDbEntity
  8
1_ALL_DRAFT_DIMS
  6
Continuous
100
AcDbDimension
  2
*D2
 10
531.0566872943611
 20
155.094298828661
 30
0.0
 11
564.5717116977611
 21
157.616956865392
 31
0.0
 70
   160
  1
97.5
 71
     5
 42
68.25
  3
Standard
100
AcDbAlignedDimension
 13
599.3066872943611
 23
140.723888277661
 33
0.0
 14
531.0566872943611
 24
97.32389930276099
 34
0.0
 50
180.0
100
AcDbRotatedDimension
1001
ACAD
1000
DSTYLE
1002
{
1070
   140
1040
3.5
1070
   279
1070
     2
1070
   271
1070
     1
1070
    41
1040
3.0
1070
   343
1005
2D1
1070
   173
1070
     1
1070
   344
1005
2D1
1002
}
  0
LINE
  5
224
330
74
100
AcDbEntity
  8
0
  6
Continuous
100
AcDbLine
 10
566.5751745270613
 20
56.51411992126106
 30
0.0
 11
598.958593587061
 21
53.11048542566105
 31
0.0
  0
LINE
  5
225
330
74
100
AcDbEntity
  8
0
  6
Continuous
100
AcDbLine
 10
564.3515052393611
 20
133.475066809661
 30
0.0
 11
566.306577434161
 21
136.956955039561
 31
0.0
  0
LINE
  5
226
330
74
100
AcDbEntity
  8
0
  6
Continuous
100
AcDbLine
 10
564.3515052393611
 20
60.17273179596106
 30
0.0
 11
566.306577434161
 21
56.69084356596106
 31
0.0
  0
LINE
  5
227
330
74
100
AcDbEntity
  8
0
  6
Continuous
100
AcDbLine
 10
564.3066872943611
 20
60.34542581066105
 30
0.0
 11
564.3066872943611
 21
133.303647733161
 31
0.0
  0
LINE
  5
228
330
74
100
AcDbEntity
  8
0
  6
Continuous
100
AcDbLine
 10
564.3515052393611
 20
60.17273179596106
 30
0.0
 11
564.3515052393611
 21
133.475066809661
 31
0.0
  0
LINE
  5
229
330
74
100
AcDbEntity
  8
0
  6
Continuous
100
AcDbLine
 10
566.5751745270613
 20
56.51411992126106
 30
0.0
 11
566.575174125661
 21
137.133678642061
 31
0.0
  0
LINE
  5
22A
330
74
100
AcDbEntity
  8
0
  6
Continuous
100
AcDbLine
 10
596.1410825639611
 20
97.00441383796102
 30
0.0
 11
596.2439896949611
 21
97.01027441346099
 31
0.0
  0
LINE
  5
22B
330
74
100
AcDbEntity
  8
0
  6
Continuous
100
AcDbLine
 10
596.2439896949611
 20
97.01027441346099
 30
0.0
 11
596.3622950216611
 21
97.01599945206101
 31
0.0
  0
LWPOLYLINE
  5
22C
330
74
100
AcDbEntity
  8
0
  6
Continuous
100
AcDbPolyline
 90
        8
 70
     0
 43
0.0
 10
596.3622950216611
 20
97.01599945206101
 10
596.5014757467613
 20
97.02153628726103
 10
596.5806070618612
 20
97.02416741866102
 10
596.6670121425611
 20
97.026646248661
 10
596.7613749025612
 20
97.02890938906103
 10
596.8643776838613
 20
97.03087704956102
 10
596.9767002592611
 20
97.032450396461
 10
597.0990183810611
 20
97.03350778936101
  0
LINE
  5
22D
330
74
100
AcDbEntity
  8
0
  6
Continuous
100
AcDbLine
 10
597.0990183810611
 20
97.03350778936101
 30
0.0
 11
598.9586071786611
 21
97.03389930276102
 31
0.0
  0
LWPOLYLINE
  5
22E
330
74
100
AcDbEntity
  8
0
  6
Continuous
100
AcDbPolyline
 90
        8
 70
     0
 43
0.0
 10
598.9586071786611
 20
96.61389930276101
 10
597.098299300861
 20
96.61429506846099
 10
596.975407844861
 20
96.61536299856102
 10
596.8626436549612
 20
96.61695046696102
 10
596.7593182559612
 20
96.618933767461
 10
596.6647388457611
 20
96.62121249946103
 10
596.5782100183612
 20
96.62370571196101
 10
596.4990347836611
 20
96.62634920226103
  0
LWPOLYLINE
  5
22F
330
74
100
AcDbEntity
  8
0
  6
Continuous
100
AcDbPolyline
 90
        3
 70
     0
 43
0.0
 10
596.4990347836611
 20
96.62634920226103
 10
596.3599534083612
 20
96.63190292026101
 10
596.2986509357611
 20
96.63475367846102
  0
LWPOLYLINE
  5
230
330
74
100
AcDbEntity
  8
0
  6
Continuous
100
AcDbPolyline
 90
       29
 70
     0
 43
0.0
 10
596.2986509357611
 20
96.63475367846102
 10
596.1890329856612
 20
96.64054361066105
 10
596.1393229862611
 20
96.64349289276101
 10
596.0920835965611
 20
96.64650375616099
 10
596.0466157413612
 20
96.649610035861
 10
596.0022127612611
 20
96.652859144761
 10
595.9585079713613
 20
96.65628610606104
 10
595.9156893754611
 20
96.65988799116101
 10
595.8741474799612
 20
96.663641366261
 10
595.8342482346611
 20
96.66751765876103
 10
595.7963555013612
 20
96.67147986366103
 10
595.7608344870611
 20
96.67548013666101
 10
595.7280399827611
 20
96.679458666661
 10
595.6981299026611
 20
96.68336649826102
 10
595.670872081061
 20
96.68720072086101
 10
595.6459299107612
 20
96.69097913626103
 10
595.6229777077612
 20
96.69472789516101
 10
595.601688039961
 20
96.69848555416102
 10
595.5817676650611
 20
96.70229969096101
 10
595.5630960907611
 20
96.706199468261
 10
595.5457071694611
 20
96.71018968906103
 10
595.5296250934611
 20
96.714280690561
 10
595.514857858661
 20
96.71849396196103
 10
595.501364207861
 20
96.72288221306102
 10
595.4890986763611
 20
96.72753990436101
 10
595.4780767477611
 20
96.73262378886102
 10
595.4685296978611
 20
96.73837396726103
 10
595.4610950076612
 20
96.745276198861
 10
595.4579006454612
 20
96.753899302761
  0
LWPOLYLINE
  5
231
330
74
100
AcDbEntity
  8
0
  6
Continuous
100
AcDbPolyline
 90
        3
 70
     0
 43
0.0
 10
595.4579006454612
 20
96.89389930276101
 10
595.4584309899612
 20
96.85885525886101
 10
595.4586071786612
 20
96.823899302761
  0
LWPOLYLINE
  5
232
330
74
100
AcDbEntity
  8
0
  6
Continuous
100
AcDbPolyline
 90
        3
 70
     0
 43
0.0
 10
595.4586071786612
 20
96.823899302761
 10
595.458430635561
 20
96.78890820726103
 10
595.4579006454612
 20
96.753899302761
  0
LWPOLYLINE
  5
233
330
74
100
AcDbEntity
  8
0
  6
Continuous
100
AcDbPolyline
 90
       27
 70
     0
 43
0.0
 10
595.4579006454612
 20
96.89389930276101
 10
595.4610400997612
 20
96.90245001866101
 10
595.4685739291611
 20
96.90945633876101
 10
595.4781849904612
 20
96.91523087536104
 10
595.4892488645611
 20
96.92032096106101
 10
595.501570365861
 20
96.924988410261
 10
595.5151155191613
 20
96.92938280696104
 10
595.5299379188611
 20
96.93360192866101
 10
595.5460726990611
 20
96.93769700306104
 10
595.5635180598611
 20
96.94169131016099
 10
595.582245371561
 20
96.94559425486103
 10
595.6022351573611
 20
96.949413459661
 10
595.6235965814612
 20
96.95317564626101
 10
595.6466269825612
 20
96.956928997661
 10
595.6716540248611
 20
96.96071192666103
 10
595.6990015894611
 20
96.96455018846101
 10
595.7289992008611
 20
96.96846061696101
 10
595.7618631205613
 20
96.97243860066102
 10
595.7974552789612
 20
96.97643796306103
 10
595.8354058020611
 20
96.980397484361
 10
595.8753566345611
 20
96.98427038636101
 10
595.9169491216612
 20
96.988020297361
 10
595.9598218192611
 20
96.99161905936103
 10
596.0036074367612
 20
96.99504495896102
 10
596.0481037314612
 20
96.99829365136103
 10
596.0936937750611
 20
97.00140100196103
 10
596.1410825639611
 20
97.00441383796102
  0
LINE
  5
234
330
74
100
AcDbEntity
  8
0
  6
Continuous
100
AcDbLine
 10
598.958593587061
 20
140.537313179861
 30
0.0
 11
598.958593587061
 21
53.11048542566105
 31
0.0
  0
LINE
  5
235
330
74
100
AcDbEntity
  8
0
  6
Continuous
100
AcDbLine
 10
599.3066872943611
 20
140.223848933361
 30
0.0
 11
599.3066872943611
 21
53.42400940886105
 31
0.0
  0
LINE
  5
237
330
74
100
AcDbEntity
  8
0
  6
Continuous
100
AcDbLine
 10
566.5751741261612
 20
137.133678642161
 30
0.0
 11
598.958593587061
 21
140.537313179861
 31
0.0
  0
LINE
  5
238
330
74
100
AcDbEntity
  8
0
  6
Continuous
100
AcDbLine
 10
599.3066872943611
 20
53.42391032796107
 30
0.0
 11
598.958593587061
 21
53.11048542566105
 31
0.0
  0
LINE
  5
239
330
74
100
AcDbEntity
  8
0
  6
Continuous
100
AcDbLine
 10
599.3066872943611
 20
140.223888277661
 30
0.0
 11
598.958593587061
 21
140.537313179861
 31
0.0
  0
LWPOLYLINE
  5
23A
330
74
100
AcDbEntity
  8
0
  6
Continuous
100
AcDbPolyline
 90
        5
 70
     0
 43
0.0
 10
405.321777739639
 20
123.5994022797036
 10
405.2622406534389
 20
123.5182838819036
 10
405.204503251239
 20
123.4446350279036
 10
405.155472697639
 20
123.3873345179036
 10
405.1179271957391
 20
123.3495320876035
  0
LWPOLYLINE
  5
23F
330
74
100
AcDbEntity
  8
0
  6
Continuous
100
AcDbPolyline
 90
        5
 70
     0
 43
0.0
 10
416.441799854939
 20
134.4774707576035
 10
416.403347922639
 20
134.4405907174036
 10
416.3452004387391
 20
134.3925676632035
 10
416.270555145139
 20
134.3361244044035
 10
416.1884100366391
 20
134.2780120972036
  0
LWPOLYLINE
  5
240
330
74
100
AcDbEntity
  8
0
  6
Continuous
100
AcDbPolyline
 90
       31
 70
     0
 43
0.0
 10
440.9095656026391
 20
64.25682573960358
 10
437.403909658339
 20
64.43829829960359
 10
433.905317770639
 20
64.98607843630359
 10
430.465256884139
 20
65.90100620440361
 10
427.132720635439
 20
67.17366651840361
 10
423.954866042439
 20
68.78611210740359
 10
420.966042362639
 20
70.72145104360361
 10
418.193781185939
 20
72.96011218700359
 10
415.670215233339
 20
75.47749244480361
 10
413.424786149839
 20
78.2448134351036
 10
411.4816220132391
 20
81.2311584721036
 10
409.8617696630389
 20
84.40445592870361
 10
408.5827397117389
 20
87.73045269700361
 10
407.658776748439
 20
91.17221523960358
 10
407.100242483139
 20
94.69164167070363
 10
406.913183365039
 20
98.25008573650359
 10
407.099573444239
 20
101.8085705200036
 10
407.657455780839
 20
105.3281574130036
 10
408.580798953739
 20
108.7701599349036
 10
409.8591798308389
 20
112.0963572721036
 10
411.478386315139
 20
115.2698381020035
 10
413.4209548089391
 20
118.2565360787035
 10
415.6659491603391
 20
121.0243243600036
 10
418.189087100939
 20
123.5422706285035
 10
420.960951204839
 20
125.7814257872036
 10
423.949250338739
 20
127.7172593052036
 10
427.126863028639
 20
129.3303488958036
 10
430.460092333039
 20
130.6039227020036
 10
433.9016863581391
 20
131.5196833165036
 10
437.401820755239
 20
132.0681629158036
 10
440.9095655828391
 20
132.2497587461036
  0
LINE
  5
241
330
74
100
AcDbEntity
  8
0
  6
Continuous
100
AcDbLine
 10
484.760602648239
 20
98.04329385060363
 30
0.0
 11
484.441001033839
 21
98.04329385060363
 31
0.0
  0
LINE
  5
242
330
74
100
AcDbEntity
  8
0
  6
Continuous
100
AcDbLine
 10
484.441001033839
 20
98.46329385060361
 30
0.0
 11
484.760602648239
 21
98.46329385060361
 31
0.0
  0
LWPOLYLINE
  5
244
330
74
100
AcDbEntity
  8
0
  6
Continuous
100
AcDbPolyline
 90
       40
 70
     0
 43
0.0
 10
484.441001033839
 20
98.04329385060363
 10
484.426949878439
 20
98.04368961630359
 10
484.4140384482391
 20
98.04475754640362
 10
484.4021939006388
 20
98.04634501480359
 10
484.391343234839
 20
98.0483283153036
 10
484.3814131120389
 20
98.05060704730363
 10
484.372330022439
 20
98.05310025980361
 10
484.364020379739
 20
98.0557437501036
 10
484.356410588439
 20
98.0584881363036
 10
484.3494270885391
 20
98.06129746810359
 10
484.3429963842391
 20
98.06414822630358
 10
484.3370450615388
 20
98.0670286228036
 10
484.3314997990389
 20
98.0699381585036
 10
484.3262873760391
 20
98.07288744060361
 10
484.3213346811389
 20
98.0758983040036
 10
484.3165683606389
 20
98.07900458370362
 10
484.3119143074391
 20
98.08225369260362
 10
484.3073340843391
 20
98.0856806539036
 10
484.302847398339
 20
98.0892825390036
 10
484.2984951635391
 20
98.09303591410362
 10
484.2943157006389
 20
98.09691220660363
 10
484.290347090239
 20
98.10087441150361
 10
484.286627530039
 20
98.10487468450361
 10
484.283194100139
 20
98.1088532145036
 10
484.280063245139
 20
98.1127610461036
 10
484.2772105728389
 20
98.11659526870361
 10
484.2746007781389
 20
98.12037368410361
 10
484.2721997221389
 20
98.12412244300361
 10
484.2699731092388
 20
98.12788010200359
 10
484.2678902493389
 20
98.13169423880362
 10
484.265938542239
 20
98.1355940161036
 10
484.2641215353389
 20
98.1395842369036
 10
484.2624417724389
 20
98.1436752384036
 10
484.2609001175389
 20
98.14788850980361
 10
484.259492321439
 20
98.15227676090358
 10
484.258213762339
 20
98.15693445220361
 10
484.257066311239
 20
98.16201833670362
 10
484.256074600539
 20
98.16776851510361
 10
484.255306250739
 20
98.17467074670361
 10
484.254985292739
 20
98.1832938506036
  0
LWPOLYLINE
  5
245
330
74
100
AcDbEntity
  8
0
  6
Continuous
100
AcDbPolyline
 90
        5
 70
     0
 43
0.0
 10
484.760602648239
 20
98.46329385060361
 10
484.815528489439
 20
98.45245690860361
 10
484.8617539317388
 20
98.42181986030361
 10
484.892323974839
 20
98.37643788170362
 10
484.902980898439
 20
98.3232938506036
  0
LWPOLYLINE
  5
246
330
74
100
AcDbEntity
  8
0
  6
Continuous
100
AcDbPolyline
 90
       31
 70
     0
 43
0.0
 10
440.9095655829389
 20
132.2497619617036
 10
444.415221527339
 20
132.0682894017036
 10
447.9138134149389
 20
131.5205092650036
 10
451.353874301539
 20
130.6055814969035
 10
454.686410550139
 20
129.3329211829036
 10
457.8642651431389
 20
127.7204755938035
 10
460.8530888229389
 20
125.7851366577035
 10
463.625349999739
 20
123.5464755142036
 10
466.1489159523389
 20
121.0290952565036
 10
468.394345035839
 20
118.2617742662036
 10
470.337509172439
 20
115.2754292292036
 10
471.957361522539
 20
112.1021317726035
 10
473.2363914739391
 20
108.7761350043036
 10
474.1603544371389
 20
105.3343724616035
 10
474.718888702439
 20
101.8149460305036
 10
474.9059478206389
 20
98.25650196470361
 10
474.719557741339
 20
94.69801718120363
 10
474.161675404839
 20
91.17843028830362
 10
473.238332231839
 20
87.73642776640361
 10
471.9599513547389
 20
84.41023042920363
 10
470.340744870539
 20
81.23674959920363
 10
468.3981763767389
 20
78.25005162250363
 10
466.1531820252389
 20
75.48226334130361
 10
463.630044084739
 20
72.96431707280358
 10
460.8581799808389
 20
70.72516191400359
 10
457.869880846939
 20
68.7893283961036
 10
454.6922681570389
 20
67.1762388055036
 10
451.359038852639
 20
65.90266499930361
 10
447.917444827539
 20
64.98690438480361
 10
444.4173104303389
 20
64.43842478550362
 10
440.909565602739
 20
64.25682895520361
  0
LINE
  5
247
330
74
100
AcDbEntity
  8
0
  6
Continuous
100
AcDbLine
 10
484.902980898439
 20
98.3232938506036
 30
0.0
 11
484.902980898439
 21
98.1832938506036
 31
0.0
  0
LWPOLYLINE
  5
248
330
74
100
AcDbEntity
  8
0
  6
Continuous
100
AcDbPolyline
 90
        3
 70
     0
 43
0.0
 10
484.254985292739
 20
98.3232938506036
 10
484.2550833961389
 20
98.21830275510359
 10
484.254985292739
 20
98.1832938506036
  0
LWPOLYLINE
  5
249
330
74
100
AcDbEntity
  8
0
  6
Continuous
100
AcDbPolyline
 90
       40
 70
     0
 43
0.0
 10
484.254985292739
 20
98.3232938506036
 10
484.2553006109389
 20
98.33184456650361
 10
484.256079186839
 20
98.33885088660361
 10
484.2570775699392
 20
98.34462542320361
 10
484.2582294094389
 20
98.34971550890362
 10
484.259513821639
 20
98.3543829581036
 10
484.2609270087389
 20
98.35877735480361
 10
484.262474439339
 20
98.36299647650362
 10
484.264159723039
 20
98.36709155090359
 10
484.2659826428389
 20
98.37108585800359
 10
484.2679401910388
 20
98.37498880270359
 10
484.2700303233389
 20
98.37880800750362
 10
484.272264455939
 20
98.38257019410361
 10
484.2746737078392
 20
98.38632354550362
 10
484.2772923992391
 20
98.3901064745036
 10
484.2801544808387
 20
98.39394473630362
 10
484.2832945165389
 20
98.39785516480361
 10
484.2867352331388
 20
98.40183314850362
 10
484.2904622632389
 20
98.40583251090359
 10
484.2944369464389
 20
98.4097920322036
 10
484.2986218336388
 20
98.41366493420361
 10
484.302979389339
 20
98.41741484520362
 10
484.3074717647389
 20
98.42101360720361
 10
484.312060479039
 20
98.4244395068036
 10
484.3167243339389
 20
98.4276881992036
 10
484.321503485239
 20
98.43079554980361
 10
484.326471867339
 20
98.43380838580362
 10
484.331701182539
 20
98.43675921280363
 10
484.3372631801391
 20
98.43966896130361
 10
484.3432297163389
 20
98.44254754840358
 10
484.349672745639
 20
98.44539399990361
 10
484.3566643130389
 20
98.44819627440358
 10
484.364276542839
 20
98.45093083510358
 10
484.372581621239
 20
98.45356196650364
 10
484.3816517673389
 20
98.4560407965036
 10
484.391559189439
 20
98.45830393690361
 10
484.4023760189388
 20
98.46027159740362
 10
484.4141742171388
 20
98.4618449443036
 10
484.4270254372389
 20
98.46290233720361
 10
484.441001033839
 20
98.46329385060361
  0
LWPOLYLINE
  5
24A
330
74
100
AcDbEntity
  8
0
  6
Continuous
100
AcDbPolyline
 90
        5
 70
     0
 43
0.0
 10
484.902980898439
 20
98.1832938506036
 10
484.892323974839
 20
98.13014981960362
 10
484.8617539317388
 20
98.08476784100362
 10
484.815528489439
 20
98.05413079260359
 10
484.760602648239
 20
98.04329385060363
  0
ARC
  5
24B
330
74
100
AcDbEntity
  8
0
  6
Continuous
100
AcDbCircle
 10
564.3066872943611
 20
96.823899302761
 30
0.0
 40
33.25
100
AcDbArc
 50
90.0
 51
270.0
  0
ARC
  5
24C
330
74
100
AcDbEntity
  8
0
  6
Continuous
100
AcDbCircle
 10
564.6566872943611
 20
60.34409081466105
 30
0.0
 40
0.35
100
AcDbArc
 50
180.0
 51
209.3141098885003
  0
ARC
  5
24D
330
74
100
AcDbEntity
  8
0
  6
Continuous
100
AcDbCircle
 10
564.6566872943611
 20
133.303707790961
 30
0.0
 40
0.35
100
AcDbArc
 50
150.6858901114995
 51
180.0
  0
ARC
  5
24E
330
74
100
AcDbEntity
  8
0
  6
Continuous
100
AcDbCircle
 10
566.6117594892613
 20
136.785596020961
 30
0.0
 40
0.35
100
AcDbArc
 50
96.00006599890157
 51
150.6858901114995
  0
ARC
  5
24F
330
74
100
AcDbEntity
  8
0
  6
Continuous
100
AcDbCircle
 10
566.6117594892613
 20
56.86220258466105
 30
0.0
 40
0.35
100
AcDbArc
 50
209.3141098885003
 51
264.0000000000014
  0
CIRCLE
  5
250
330
74
100
AcDbEntity
  8
0
  6
Continuous
100
AcDbCircle
 10
440.9095655928391
 20
98.2532938506036
 30
0.0
 40
33.25
  0
CIRCLE
  5
251
330
74
100
AcDbEntity
  8
0
  6
Continuous
100
AcDbCircle
 10
440.9095655928391
 20
98.2532938506036
 30
0.0
 40
33.32
  0
ARC
  5
252
330
74
100
AcDbEntity
  8
0
  6
Continuous
100
AcDbCircle
 10
440.9095655928391
 20
98.2532938506036
 30
0.0
 40
43.69114162819999
100
AcDbArc
 50
124.4589886318
 51
144.5410113681994
  0
ARC
  5
253
330
74
100
AcDbEntity
  8
0
  6
Continuous
100
AcDbCircle
 10
440.9095655928391
 20
98.2532938506036
 30
0.0
 40
43.7134138771
100
AcDbArc
 50
144.9627829931992
 51
359.7247490226998
  0
ARC
  5
254
330
74
100
AcDbEntity
  8
0
  6
Continuous
100
AcDbCircle
 10
440.9095655928391
 20
98.2532938506036
 30
0.0
 40
43.7134138771
100
AcDbArc
 50
0.2752509725999981
 51
124.0372170068001
  0
CIRCLE
  5
255
330
74
100
AcDbEntity
  8
0
  6
Continuous
100
AcDbCircle
 10
426.045666960039
 20
131.1731802027036
 30
0.0
 40
1.05
  0
CIRCLE
  5
256
330
74
100
AcDbEntity
  8
0
  6
Continuous
100
AcDbCircle
 10
440.9095655928391
 20
98.2532938506036
 30
0.0
 40
40.13305573679999
  0
ARC
  5
257
330
74
100
AcDbEntity
  8
0
  6
Continuous
100
AcDbCircle
 10
440.9095655928391
 20
98.2532938506036
 30
0.0
 40
36.4798084882
100
AcDbArc
 50
115.8570434004005
 51
112.7429565995992
  0
MTEXT
  5
319
102
{ACAD_XDICTIONARY
360
5E2
102
}
330
74
100
AcDbEntity
  8
1_ALL_DRAFT_DIMS
  6
Continuous
100
AcDbMText
 10
409.5903268797252
 20
140.7807530860657
 30
0.0
 40
3.799999999999998
 41
0.0
 71
     5
 72
     1
  1
\A1;\U+2205125
 11
0.6427876096865393
 21
-0.7660444431189781
 31
0.0
 73
     1
 44
1.0
1001
ACAD
1000
MTEXTBEGIN
1070
    73
1070
     1
1070
    44
1040
1.0
1070
    74
1070
     0
1000
MTEXTEND
  0
LINE
  5
322
330
74
100
AcDbEntity
  8
0
100
AcDbLine
 10
469.0303685065707
 20
64.78565281814231
 30
0.0
 11
403.7939202433894
 21
142.7458888894794
 31
0.0
  0
LINE
  5
323
330
74
100
AcDbEntity
  8
0
100
AcDbLine
 10
413.0450038742656
 20
131.6844568062849
 30
0.0
 11
413.9000542325798
 21
129.3352252543201
 31
0.0
  0
LINE
  5
324
330
74
100
AcDbEntity
  8
0
100
AcDbLine
 10
413.0450038742656
 20
131.6844568062849
 30
0.0
 11
415.2516059450009
 21
130.5093366841584
 31
0.0
  0
LINE
  5
327
330
74
100
AcDbEntity
  8
0
100
AcDbLine
 10
469.0303685065707
 20
64.78565281814231
 30
0.0
 11
468.1936806538971
 21
67.1414867335931
 31
0.0
  0
LINE
  5
328
330
74
100
AcDbEntity
  8
0
100
AcDbLine
 10
469.0303685065707
 20
64.78565281814231
 30
0.0
 11
466.8372235092586
 21
65.98570074250377
 31
0.0
  0
LINE
  5
345
330
74
100
AcDbEntity
  8
1_ALL_DRAFT_DIMS
  6
Continuous
100
AcDbLine
 10
534.5203156569709
 20
147.3869711093547
 30
0.0
 11
545.9072998525417
 21
128.0572955600691
 31
0.0
  0
INSERT
  5
347
330
74
100
AcDbEntity
  8
1_ALL_DRAFT_DIMS
  6
Continuous
100
AcDbBlockReference
  2
_Open30
 10
547.4300077787612
 20
125.4724627663611
 30
0.0
 41
3.0
 42
4.0
 43
4.0
 50
300.5020578241471
  0
LINE
  5
348
330
74
100
AcDbEntity
  8
1_ALL_DRAFT_DIMS
  6
Continuous
100
AcDbLine
 10
564.2166872943611
 20
96.823899302761
 30
0.0
 11
564.3966872943612
 21
96.823899302761
 31
0.0
  0
LINE
  5
349
330
74
100
AcDbEntity
  8
1_ALL_DRAFT_DIMS
  6
Continuous
100
AcDbLine
 10
564.3066872943611
 20
96.73389930276101
 30
0.0
 11
564.3066872943611
 21
96.91389930276111
 31
0.0
  0
MTEXT
  5
4F5
330
74
100
AcDbEntity
  8
1_ALL_DRAFT_DIMS
  6
Continuous
100
AcDbMText
 10
542.2666330102557
 20
139.7062251673096
 30
0.0
 40
3.799999999999998
 41
28.59890740499577
 71
     5
 72
     1
  1
\A1;(SR47.5)
 11
0.5150380749100542
 21
-0.8571673007021123
 31
0.0
 73
     1
 44
1.0
1001
ACAD
1000
MTEXTBEGIN
1070
    73
1070
     1
1070
    44
1040
1.0
1070
    74
1070
     0
1000
MTEXTEND
  0
MULTILEADER
  5
5AD
330
74
100
AcDbEntity
  8
0
 92
        8
310
0800000000000000
100
AcDbMLeader
300
CONTEXT_DATA{
 40
1.0
 10
477.3929163179937
 20
70.94492921140809
 30
0.0
 41
3.5
140
3.0
145
1.0
174
     1
175
     1
176
     2
177
     0
290
     1
304
クリアドーム   
 11
0.0
 21
0.0
 31
1.0
340
5D
 12
497.2462496513272
 22
73.04492921140809
 32
0.0
 13
1.0
 23
0.0
 33
0.0
 42
0.0
 43
0.0
 44
0.0
 45
1.0
170
     1
 90
-1073741824
171
     3
172
     5
 91
-1073741824
141
0.0
 92
        0
291
     0
292
     0
173
     0
293
     0
142
0.0
143
0.0
294
     0
295
     0
296
     0
110
507.9800579198367
120
83.99377320763125
130
0.0
111
1.0
121
0.0
131
0.0
112
0.0
122
1.0
132
0.0
297
     0
302
LEADER{
290
     1
291
     1
 10
500.8146235884288
 20
70.94492921140809
 30
0.0
 11
-1.0
 21
0.0
 31
0.0
 90
        0
 40
2.568373937101783
304
LEADER_LINE{
 10
507.9800579198367
 20
83.99377320763125
 30
0.0
 91
        0
305
}
303
}
301
}
340
6E
 90
 33899936
170
     1
 91
-1056964608
341
62
171
    -2
290
     1
291
     1
 41
0.36
342
2D1
 42
3.0
172
     2
343
5D
173
     1
 95
        1
174
     1
175
     2
 92
-1056964608
292
     0
 93
-1056964608
 10
1.0
 20
1.0
 30
1.0
 43
0.0
176
     0
293
     0
294
     0
178
     0
179
     3
 45
1.0
1001
ACAD_MLEADERVER
1070
     2
  0
LINE
  5
C16
330
74
100
AcDbEntity
  8
0
100
AcDbLine
 10
641.6280422700411
 20
2.048735207229583
 30
0.0
 11
551.628042270041
 21
2.048735207229583
 31
0.0
  0
LINE
  5
C17
330
74
100
AcDbEntity
  8
0
100
AcDbLine
 10
641.6280422700411
 20
10.04873520722958
 30
0.0
 11
551.628042270041
 21
10.04873520722958
 31
0.0
  0
LINE
  5
C18
330
74
100
AcDbEntity
  8
0
100
AcDbLine
 10
641.6280422700411
 20
18.04873520722958
 30
0.0
 11
551.628042270041
 21
18.04873520722958
 31
0.0
  0
LINE
  5
C19
330
74
100
AcDbEntity
  8
0
100
AcDbLine
 10
551.628042270041
 20
18.04873520722958
 30
0.0
 11
551.628042270041
 21
2.048735207229583
 31
0.0
  0
LINE
  5
C1A
330
74
100
AcDbEntity
  8
0
100
AcDbLine
 10
571.628042270041
 20
18.04873520722958
 30
0.0
 11
571.628042270041
 21
2.048735207229583
 31
0.0
  0
TEXT
  5
C1B
330
74
100
AcDbEntity
  8
0
100
AcDbText
 10
557.5633322700412
 20
11.72042120722997
 30
0.0
 40
4.0
  1
品名
  7
STANDARD1
100
AcDbText
  0
TEXT
  5
C1C
330
74
100
AcDbEntity
  8
0
100
AcDbText
 10
557.5633322700412
 20
3.720421207229883
 30
0.0
 40
4.0
  1
型名
  7
STANDARD1
100
AcDbText
  0
TEXT
  5
C1D
330
74
100
AcDbEntity
  8
0
100
AcDbText
 10
573.5633322700409
 20
11.72042120722997
 30
0.0
 40
4.0
  1
ドームカバー（クリア）
  7
STANDARD1
100
AcDbText
  0
TEXT
  5
C1E
330
74
100
AcDbEntity
  8
0
100
AcDbText
 10
573.5633322700409
 20
3.720421207229883
 30
0.0
 40
4.0
  1
K-9361
  7
STANDARD1
100
AcDbText
  0
LINE
  5
C1F
330
74
100
AcDbEntity
  8
0
100
AcDbLine
 10
641.6280422700411
 20
18.04873520722958
 30
0.0
 11
641.6280422700411
 21
2.048735207229583
 31
0.0
  0
LEADER
  5
C32
330
74
100
AcDbEntity
  8
0
100
AcDbLeader
  3
Standard
 76
     3
 10
551.0
 20
66.0
 30
0.0
 10
544.0
 20
50.0
 30
0.0
 10
514.0
 20
50.0
 30
0.0
1001
ACAD
1000
DSTYLE
1002
{
1070
   147
1040
0.09
1070
    77
1070
     0
1070
    41
1040
2.0
1070
    42
1040
1.85625
1070
    43
1040
11.286
1070
    44
1040
5.346
1070
   140
1040
2.799999999999998
1070
   141
1040
2.673
1070
   341
1005
AC
1070
   342
1005
AC
1002
}
  0
TEXT
  5
C33
330
74
100
AcDbEntity
  8
0
100
AcDbText
 10
514.5633322700409
 20
50.72042120722989
 30
0.0
 40
4.0
  1
クリアドーム
  7
STANDARD1
100
AcDbText
  0
LWPOLYLINE
  5
C34
330
74
100
AcDbEntity
  8
非表示
100
AcDbPolyline
 90
        4
 70
     1
 43
0.0
 10
354.6280422700411
 20
-7.951264792770416
 10
651.628042270041
 20
-7.951264792770416
 10
651.628042270041
 20
202.0487352072295
 10
354.6280422700411
 20
202.0487352072295
  0
ENDSEC
  0
SECTION
  2
OBJECTS
  0
DICTIONARY
  5
C
330
0
100
AcDbDictionary
281
     1
  3
ACAD_COLOR
350
6A
  3
ACAD_GROUP
350
D
  3
ACAD_LAYOUT
350
69
  3
ACAD_MATERIAL
350
10
  3
ACAD_MLEADERSTYLE
350
6D
  3
ACAD_MLINESTYLE
350
66
  3
ACAD_PLOTSETTINGS
350
68
  3
ACAD_PLOTSTYLENAME
350
E
  3
ACAD_SCALELIST
350
3A
  3
ACAD_TABLESTYLE
350
6B
  3
ACAD_VISUALSTYLE
350
29
  3
ACDB_RECOMPOSE_DATA
350
52D
  3
AcDbVariableDictionary
350
52E
  3
DWGPROPS
350
5D9
  0
DICTIONARY
  5
5EA
330
2
100
AcDbDictionary
280
     1
281
     1
  3
ACAD_LAYERFILTERS
360
5EB
  3
ACAD_LAYERSTATES
360
895
  0
DICTIONARY
  5
496
330
5C
100
AcDbDictionary
280
     1
281
     1
  3
ADSK_XREC_LAYER_RECONCILED
360
497
  0
DICTIONARY
  5
498
330
7F
100
AcDbDictionary
280
     1
281
     1
  3
ADSK_XREC_LAYER_RECONCILED
360
499
  0
DICTIONARY
  5
49A
330
80
100
AcDbDictionary
280
     1
281
     1
  3
ADSK_XREC_LAYER_RECONCILED
360
49B
  0
DICTIONARY
  5
49C
330
81
100
AcDbDictionary
280
     1
281
     1
  3
ADSK_XREC_LAYER_RECONCILED
360
49D
  0
DICTIONARY
  5
49E
330
82
100
AcDbDictionary
280
     1
281
     1
  3
ADSK_XREC_LAYER_RECONCILED
360
49F
  0
DICTIONARY
  5
4A0
330
83
100
AcDbDictionary
280
     1
281
     1
  3
ADSK_XREC_LAYER_RECONCILED
360
4A1
  0
DICTIONARY
  5
4A2
330
84
100
AcDbDictionary
280
     1
281
     1
  3
ADSK_XREC_LAYER_RECONCILED
360
4A3
  0
DICTIONARY
  5
4A4
330
85
100
AcDbDictionary
280
     1
281
     1
  3
ADSK_XREC_LAYER_RECONCILED
360
4A5
  0
DICTIONARY
  5
4A6
330
86
100
AcDbDictionary
280
     1
281
     1
  3
ADSK_XREC_LAYER_RECONCILED
360
4A7
  0
DICTIONARY
  5
4A8
330
87
100
AcDbDictionary
280
     1
281
     1
  3
ADSK_XREC_LAYER_RECONCILED
360
4A9
  0
DICTIONARY
  5
4AA
330
88
100
AcDbDictionary
280
     1
281
     1
  3
ADSK_XREC_LAYER_RECONCILED
360
4AB
  0
DICTIONARY
  5
4AC
330
89
100
AcDbDictionary
280
     1
281
     1
  3
ADSK_XREC_LAYER_RECONCILED
360
4AD
  0
DICTIONARY
  5
4AE
330
8A
100
AcDbDictionary
280
     1
281
     1
  3
ADSK_XREC_LAYER_RECONCILED
360
4AF
  0
DICTIONARY
  5
4B0
330
8B
100
AcDbDictionary
280
     1
281
     1
  3
ADSK_XREC_LAYER_RECONCILED
360
4B1
  0
DICTIONARY
  5
4B2
330
8C
100
AcDbDictionary
280
     1
281
     1
  3
ADSK_XREC_LAYER_RECONCILED
360
4B3
  0
DICTIONARY
  5
4B4
330
8D
100
AcDbDictionary
280
     1
281
     1
  3
ADSK_XREC_LAYER_RECONCILED
360
4B5
  0
DICTIONARY
  5
4B6
330
8E
100
AcDbDictionary
280
     1
281
     1
  3
ADSK_XREC_LAYER_RECONCILED
360
4B7
  0
DICTIONARY
  5
4B8
330
8F
100
AcDbDictionary
280
     1
281
     1
  3
ADSK_XREC_LAYER_RECONCILED
360
4B9
  0
DICTIONARY
  5
4BA
330
90
100
AcDbDictionary
280
     1
281
     1
  3
ADSK_XREC_LAYER_RECONCILED
360
4BB
  0
DICTIONARY
  5
4BC
330
91
100
AcDbDictionary
280
     1
281
     1
  3
ADSK_XREC_LAYER_RECONCILED
360
4BD
  0
DICTIONARY
  5
4BE
330
92
100
AcDbDictionary
280
     1
281
     1
  3
ADSK_XREC_LAYER_RECONCILED
360
4BF
  0
DICTIONARY
  5
4C0
330
93
100
AcDbDictionary
280
     1
281
     1
  3
ADSK_XREC_LAYER_RECONCILED
360
4C1
  0
DICTIONARY
  5
4C2
330
94
100
AcDbDictionary
280
     1
281
     1
  3
ADSK_XREC_LAYER_RECONCILED
360
4C3
  0
DICTIONARY
  5
4C4
330
95
100
AcDbDictionary
280
     1
281
     1
  3
ADSK_XREC_LAYER_RECONCILED
360
4C5
  0
DICTIONARY
  5
4C6
330
96
100
AcDbDictionary
280
     1
281
     1
  3
ADSK_XREC_LAYER_RECONCILED
360
4C7
  0
DICTIONARY
  5
4C8
330
97
100
AcDbDictionary
280
     1
281
     1
  3
ADSK_XREC_LAYER_RECONCILED
360
4C9
  0
DICTIONARY
  5
4CA
330
98
100
AcDbDictionary
280
     1
281
     1
  3
ADSK_XREC_LAYER_RECONCILED
360
4CB
  0
DICTIONARY
  5
4CC
330
99
100
AcDbDictionary
280
     1
281
     1
  3
ADSK_XREC_LAYER_RECONCILED
360
4CD
  0
DICTIONARY
  5
4CE
330
9A
100
AcDbDictionary
280
     1
281
     1
  3
ADSK_XREC_LAYER_RECONCILED
360
4CF
  0
DICTIONARY
  5
4D0
330
9B
100
AcDbDictionary
280
     1
281
     1
  3
ADSK_XREC_LAYER_RECONCILED
360
4D1
  0
DICTIONARY
  5
4D2
330
9C
100
AcDbDictionary
280
     1
281
     1
  3
ADSK_XREC_LAYER_RECONCILED
360
4D3
  0
DICTIONARY
  5
4D4
330
9D
100
AcDbDictionary
280
     1
281
     1
  3
ADSK_XREC_LAYER_RECONCILED
360
4D5
  0
DICTIONARY
  5
4D6
330
9E
100
AcDbDictionary
280
     1
281
     1
  3
ADSK_XREC_LAYER_RECONCILED
360
4D7
  0
DICTIONARY
  5
4D8
330
9F
100
AcDbDictionary
280
     1
281
     1
  3
ADSK_XREC_LAYER_RECONCILED
360
4D9
  0
DICTIONARY
  5
4DA
330
A0
100
AcDbDictionary
280
     1
281
     1
  3
ADSK_XREC_LAYER_RECONCILED
360
4DB
  0
DICTIONARY
  5
4DC
330
A1
100
AcDbDictionary
280
     1
281
     1
  3
ADSK_XREC_LAYER_RECONCILED
360
4DD
  0
DICTIONARY
  5
4DE
330
A2
100
AcDbDictionary
280
     1
281
     1
  3
ADSK_XREC_LAYER_RECONCILED
360
4DF
  0
DICTIONARY
  5
542
330
541
100
AcDbDictionary
280
     1
281
     1
  0
DICTIONARY
  5
544
330
543
100
AcDbDictionary
280
     1
281
     1
  0
DICTIONARY
  5
34A
330
74
100
AcDbDictionary
280
     1
281
     1
  3
ACAD_SORTENTS
360
34B
  0
DICTIONARY
  5
5E2
330
319
100
AcDbDictionary
280
     1
281
     1
  3
ACAD_MTEXT_RT
360
5E3
  0
DICTIONARY
  5
6A
102
{ACAD_REACTORS
330
C
102
}
330
C
100
AcDbDictionary
281
     1
  0
DICTIONARY
  5
D
102
{ACAD_REACTORS
330
C
102
}
330
C
100
AcDbDictionary
281
     1
  0
DICTIONARY
  5
69
102
{ACAD_REACTORS
330
C
102
}
330
C
100
AcDbDictionary
281
     1
  3
Model
350
77
  3
レイアウト1
350
73
  0
DICTIONARY
  5
10
102
{ACAD_REACTORS
330
C
102
}
330
C
100
AcDbDictionary
281
     1
  3
ByBlock
350
19
  3
ByLayer
350
11
  3
Global
350
21
  0
DICTIONARY
  5
6D
102
{ACAD_REACTORS
330
C
102
}
330
C
100
AcDbDictionary
281
     1
  3
Standard
350
6E
  0
DICTIONARY
  5
66
102
{ACAD_REACTORS
330
C
102
}
330
C
100
AcDbDictionary
281
     1
  3
Standard
350
67
  0
DICTIONARY
  5
68
102
{ACAD_REACTORS
330
C
102
}
330
C
100
AcDbDictionary
281
     1
  0
ACDBDICTIONARYWDFLT
  5
E
102
{ACAD_REACTORS
330
C
102
}
330
C
100
AcDbDictionary
281
     1
  3
Normal
350
F
100
AcDbDictionaryWithDefault
340
F
  0
DICTIONARY
  5
3A
102
{ACAD_REACTORS
330
C
102
}
330
C
100
AcDbDictionary
281
     1
  3
A0
350
3B
  3
A1
350
3C
  3
A2
350
3D
  3
A3
350
3E
  3
A4
350
3F
  3
A5
350
40
  3
A6
350
41
  3
A7
350
42
  3
A8
350
43
  3
A9
350
44
  3
B0
350
45
  3
B1
350
46
  3
B2
350
47
  3
B3
350
48
  3
B4
350
49
  3
B5
350
4A
  3
B6
350
4B
  3
B7
350
4C
  3
B8
350
4D
  3
B9
350
4E
  3
C0
350
4F
  3
C1
350
50
  3
C2
350
51
  3
C3
350
52
  3
C4
350
53
  3
C5
350
54
  3
C6
350
55
  3
C7
350
56
  3
C8
350
57
  3
C9
350
58
  3
D0
350
59
  3
D1
350
5A
  3
D2
350
5B
  0
DICTIONARY
  5
6B
102
{ACAD_REACTORS
330
C
102
}
330
C
100
AcDbDictionary
281
     1
  3
Standard
350
6C
  0
DICTIONARY
  5
29
102
{ACAD_REACTORS
330
C
102
}
330
C
100
AcDbDictionary
281
     1
  3
2dWireframe
350
2F
  3
3D Hidden
350
31
  3
3dWireframe
350
30
  3
Basic
350
2E
  3
Brighten
350
35
  3
ColorChange
350
39
  3
Conceptual
350
32
  3
Dim
350
34
  3
Facepattern
350
38
  3
Flat
350
2A
  3
FlatWithEdges
350
2B
  3
Gouraud
350
2C
  3
GouraudWithEdges
350
2D
  3
Linepattern
350
37
  3
Realistic
350
33
  3
Thicken
350
36
  0
XRECORD
  5
52D
102
{ACAD_REACTORS
330
C
102
}
330
C
100
AcDbXrecord
280
     1
 90
        1
330
6C
330
21C
330
21D
  0
DICTIONARY
  5
52E
102
{ACAD_REACTORS
330
C
102
}
330
C
100
AcDbDictionary
281
     1
  3
CANNOSCALE
350
532
  3
CMLEADERSTYLE
350
530
  3
CTABLESTYLE
350
52F
  3
DIMASSOC
350
5CB
  3
INDEXCTL
350
5CA
  3
LAYEREVAL
350
534
  3
LAYERNOTIFY
350
535
  3
LIGHTINGUNITS
350
533
  3
MSLTSCALE
350
531
  3
SORTENTS
350
5C9
  0
XRECORD
  5
5D9
102
{ACAD_REACTORS
330
C
102
}
330
C
100
AcDbXrecord
280
     1
  1
DWGPROPS COOKIE
  2

  3

  4

  6

  7

  8
CK08474
  9

300
=
301
=
302
=
303
=
304
=
305
=
306
=
307
=
308
=
309
=
 40
0.0852070601851852
 41
2455912.366256204
 42
2455943.766608866
  1

 90
        0
  0
DICTIONARY
  5
5EB
102
{ACAD_REACTORS
330
5EA
102
}
330
5EA
100
AcDbDictionary
280
     1
281
     1
  3
0
360
5EC
  3
01全体計画平面図
360
5ED
  3
02現況平面図
360
5EE
  3
03撤去平面図
360
5EF
  3
04造成平面図
360
5F0
  3
05施設平面図
360
5F1
  3
06排水平面図
360
5F2
  3
07給水平面図
360
5F3
  3
08電気平面図
360
5F4
  3
09植栽平面図-1
360
5F5
  3
1
360
5F6
  3
1-交差点処理図（最新1案）
360
5F7
  3
10植栽平面図-2
360
5F8
  3
11寸法図
360
5F9
  3
1次施工
360
5FA
  3
2
360
5FB
  3
2-線形図1
360
5FC
  3
2次施工
360
5FD
  3
3
360
5FE
  3
3-線形図2
360
5FF
  3
3次施工
360
600
  3
4
360
601
  3
4次施工
360
602
  3
5
360
603
  3
50
360
604
  3
6
360
605
  3
7
360
606
  3
7-専用部北行
360
607
  3
8-ONﾗﾝﾌﾟ
360
608
  3
9-OFFﾗﾝﾌﾟ
360
609
  3
a
360
60A
  3
b
360
60B
  3
B北
360
60C
  3
c
360
60D
  3
CAR
360
60E
  3
d
360
60F
  3
DIM
360
610
  3
DIM2
360
611
  3
DIM3
360
612
  3
e
360
613
  3
E南
360
614
  3
GENKYOU
360
615
  3
HTXT
360
616
  3
HTXT2
360
617
  3
KAN
360
618
  3
LAND
360
619
  3
MASU
360
61A
  3
OFF
360
61B
  3
OFST
360
61C
  3
ON
360
61D
  3
ｼｭｳｾｲ
360
61E
  3
ｾﾒﾝﾄ注入量上半円
360
61F
  3
ﾌﾘｰｽﾞ解除
360
620
  3
ﾙｼﾞｵﾝ値下半円
360
621
  3
ｓ
360
622
  3
その他
360
623
  3
セメント注入量
360
624
  3
フリーズ以外
360
625
  3
ランプ
360
626
  3
ルジオン値
360
627
  3
ロック
360
628
  3
ロック解除
360
629
  3
案1
360
62A
  3
案2
360
62B
  3
一般
360
62C
  3
外部参照の非表示画層
360
62D
  3
形状
360
62E
  3
形状以外
360
62F
  3
計画
360
630
  3
現況
360
631
  3
暫定形
360
632
  3
縦断セット
360
633
  3
縦断計画
360
634
  3
縦断埋設
360
635
  3
数量用
360
636
  3
専北
360
637
  3
専用
360
638
  3
線形
360
639
  3
全帯
360
63A
  3
断面
360
63B
  3
東西線
360
63C
  3
道路詳細設計　平面図
360
63D
  3
南北線
360
63E
  3
非表示
360
63F
  3
非表示を表示
360
640
  3
非表示画層を表示
360
641
  3
表示レイヤ－を表示
360
642
  3
副道
360
643
  3
平面図
360
644
  3
埋設
360
645
  0
DICTIONARY
  5
895
102
{ACAD_REACTORS
330
5EA
102
}
330
5EA
100
AcDbDictionary
281
     1
  0
XRECORD
  5
497
102
{ACAD_REACTORS
330
496
102
}
330
496
100
AcDbXrecord
280
     1
290
     1
  0
XRECORD
  5
499
102
{ACAD_REACTORS
330
498
102
}
330
498
100
AcDbXrecord
280
     1
290
     1
  0
XRECORD
  5
49B
102
{ACAD_REACTORS
330
49A
102
}
330
49A
100
AcDbXrecord
280
     1
290
     1
  0
XRECORD
  5
49D
102
{ACAD_REACTORS
330
49C
102
}
330
49C
100
AcDbXrecord
280
     1
290
     1
  0
XRECORD
  5
49F
102
{ACAD_REACTORS
330
49E
102
}
330
49E
100
AcDbXrecord
280
     1
290
     1
  0
XRECORD
  5
4A1
102
{ACAD_REACTORS
330
4A0
102
}
330
4A0
100
AcDbXrecord
280
     1
290
     1
  0
XRECORD
  5
4A3
102
{ACAD_REACTORS
330
4A2
102
}
330
4A2
100
AcDbXrecord
280
     1
290
     1
  0
XRECORD
  5
4A5
102
{ACAD_REACTORS
330
4A4
102
}
330
4A4
100
AcDbXrecord
280
     1
290
     1
  0
XRECORD
  5
4A7
102
{ACAD_REACTORS
330
4A6
102
}
330
4A6
100
AcDbXrecord
280
     1
290
     1
  0
XRECORD
  5
4A9
102
{ACAD_REACTORS
330
4A8
102
}
330
4A8
100
AcDbXrecord
280
     1
290
     1
  0
XRECORD
  5
4AB
102
{ACAD_REACTORS
330
4AA
102
}
330
4AA
100
AcDbXrecord
280
     1
290
     1
  0
XRECORD
  5
4AD
102
{ACAD_REACTORS
330
4AC
102
}
330
4AC
100
AcDbXrecord
280
     1
290
     1
  0
XRECORD
  5
4AF
102
{ACAD_REACTORS
330
4AE
102
}
330
4AE
100
AcDbXrecord
280
     1
290
     1
  0
XRECORD
  5
4B1
102
{ACAD_REACTORS
330
4B0
102
}
330
4B0
100
AcDbXrecord
280
     1
290
     1
  0
XRECORD
  5
4B3
102
{ACAD_REACTORS
330
4B2
102
}
330
4B2
100
AcDbXrecord
280
     1
290
     1
  0
XRECORD
  5
4B5
102
{ACAD_REACTORS
330
4B4
102
}
330
4B4
100
AcDbXrecord
280
     1
290
     1
  0
XRECORD
  5
4B7
102
{ACAD_REACTORS
330
4B6
102
}
330
4B6
100
AcDbXrecord
280
     1
290
     1
  0
XRECORD
  5
4B9
102
{ACAD_REACTORS
330
4B8
102
}
330
4B8
100
AcDbXrecord
280
     1
290
     1
  0
XRECORD
  5
4BB
102
{ACAD_REACTORS
330
4BA
102
}
330
4BA
100
AcDbXrecord
280
     1
290
     1
  0
XRECORD
  5
4BD
102
{ACAD_REACTORS
330
4BC
102
}
330
4BC
100
AcDbXrecord
280
     1
290
     1
  0
XRECORD
  5
4BF
102
{ACAD_REACTORS
330
4BE
102
}
330
4BE
100
AcDbXrecord
280
     1
290
     1
  0
XRECORD
  5
4C1
102
{ACAD_REACTORS
330
4C0
102
}
330
4C0
100
AcDbXrecord
280
     1
290
     1
  0
XRECORD
  5
4C3
102
{ACAD_REACTORS
330
4C2
102
}
330
4C2
100
AcDbXrecord
280
     1
290
     1
  0
XRECORD
  5
4C5
102
{ACAD_REACTORS
330
4C4
102
}
330
4C4
100
AcDbXrecord
280
     1
290
     1
  0
XRECORD
  5
4C7
102
{ACAD_REACTORS
330
4C6
102
}
330
4C6
100
AcDbXrecord
280
     1
290
     1
  0
XRECORD
  5
4C9
102
{ACAD_REACTORS
330
4C8
102
}
330
4C8
100
AcDbXrecord
280
     1
290
     1
  0
XRECORD
  5
4CB
102
{ACAD_REACTORS
330
4CA
102
}
330
4CA
100
AcDbXrecord
280
     1
290
     1
  0
XRECORD
  5
4CD
102
{ACAD_REACTORS
330
4CC
102
}
330
4CC
100
AcDbXrecord
280
     1
290
     1
  0
XRECORD
  5
4CF
102
{ACAD_REACTORS
330
4CE
102
}
330
4CE
100
AcDbXrecord
280
     1
290
     1
  0
XRECORD
  5
4D1
102
{ACAD_REACTORS
330
4D0
102
}
330
4D0
100
AcDbXrecord
280
     1
290
     1
  0
XRECORD
  5
4D3
102
{ACAD_REACTORS
330
4D2
102
}
330
4D2
100
AcDbXrecord
280
     1
290
     1
  0
XRECORD
  5
4D5
102
{ACAD_REACTORS
330
4D4
102
}
330
4D4
100
AcDbXrecord
280
     1
290
     1
  0
XRECORD
  5
4D7
102
{ACAD_REACTORS
330
4D6
102
}
330
4D6
100
AcDbXrecord
280
     1
290
     1
  0
XRECORD
  5
4D9
102
{ACAD_REACTORS
330
4D8
102
}
330
4D8
100
AcDbXrecord
280
     1
290
     1
  0
XRECORD
  5
4DB
102
{ACAD_REACTORS
330
4DA
102
}
330
4DA
100
AcDbXrecord
280
     1
290
     1
  0
XRECORD
  5
4DD
102
{ACAD_REACTORS
330
4DC
102
}
330
4DC
100
AcDbXrecord
280
     1
290
     1
  0
XRECORD
  5
4DF
102
{ACAD_REACTORS
330
4DE
102
}
330
4DE
100
AcDbXrecord
280
     1
290
     1
  0
SORTENTSTABLE
  5
34B
102
{ACAD_REACTORS
330
34A
102
}
330
34A
100
AcDbSortentsTable
330
74
331
569
  5
569
331
323
  5
346
331
22F
  5
235
331
57C
  5
57C
331
242
  5
249
331
224
  5
22A
331
59C
  5
59D
331
571
  5
571
331
24D
  5
253
331
237
  5
241
331
56A
  5
56A
331
324
  5
347
331
57D
  5
57D
331
225
  5
22B
331
319
  5
327
331
59D
  5
59E
331
24E
  5
254
331
238
  5
242
331
572
  5
572
331
56B
  5
56B
331
57E
  5
57E
331
244
  5
24A
331
226
  5
22C
331
59E
  5
59C
331
573
  5
573
331
24F
  5
255
331
239
  5
244
331
56C
  5
56C
331
245
  5
24B
331
227
  5
22D
331
57F
  5
57F
331
250
  5
256
331
23A
  5
245
331
574
  5
574
331
56D
  5
56D
331
327
  5
348
331
246
  5
24C
331
228
  5
22E
331
21C
  5
21C
331
575
  5
575
331
251
  5
257
331
56E
  5
56E
331
230
  5
236
331
247
  5
24D
331
229
  5
22F
331
21D
  5
21D
331
252
  5
319
331
576
  5
576
331
56F
  5
56F
331
231
  5
237
331
22A
  5
230
331
577
  5
577
331
253
  5
320
331
232
  5
238
331
580
  5
580
331
248
  5
24E
331
22B
  5
231
331
578
  5
578
331
254
  5
321
331
249
  5
24F
331
233
  5
239
331
581
  5
581
331
22C
  5
232
331
348
  5
225
331
579
  5
579
331
255
  5
322
331
345
  5
222
331
23F
  5
246
331
328
  5
349
331
234
  5
23A
331
582
  5
582
331
24A
  5
250
331
567
  5
567
331
22D
  5
233
331
349
  5
226
331
57A
  5
57A
331
256
  5
323
331
240
  5
247
331
24B
  5
251
331
235
  5
23F
331
568
  5
568
331
322
  5
345
331
22E
  5
234
331
57B
  5
57B
331
4F5
  5
4F5
331
257
  5
324
331
347
  5
224
331
241
  5
248
331
59B
  5
59B
331
24C
  5
252
331
570
  5
570
  0
XRECORD
  5
5E3
102
{ACAD_REACTORS
330
5E2
102
}
330
5E2
100
AcDbXrecord
280
     1
 40
5769.0
  1
\A1;\U+2205125
  0
LAYOUT
  5
77
102
{ACAD_XDICTIONARY
360
5E0
102
}
102
{ACAD_REACTORS
330
69
102
}
330
69
100
AcDbPlotSettings
  1

  2
RICOH IPSiO SP 6210 RPCS
  4
A3
  6

 40
5.873749732971191
 41
5.873747825622558
 42
5.873748779296875
 43
5.873748779296875
 44
296.9259948730469
 45
419.9466552734374
 46
0.0
 47
0.0
 48
354.6280422700411
 49
-7.951264792770416
140
651.628042270041
141
202.0487352072295
142
1.0
143
0.7363809076766062
 70
 11952
 72
     1
 73
     1
 74
     4
  7
A3.ctb
 75
     0
147
1.357992839813232
148
-354.6280422700411
149
7.951264792770416
100
AcDbLayout
  1
Model
 70
     1
 71
     0
 10
0.0
 20
0.0
 11
12.0
 21
9.0
 12
0.0
 22
0.0
 32
0.0
 14
0.0
 24
0.0
 34
0.0
 15
0.0
 25
0.0
 35
0.0
146
0.0
 13
0.0
 23
0.0
 33
0.0
 16
1.0
 26
0.0
 36
0.0
 17
0.0
 27
1.0
 37
0.0
 76
     0
330
74
331
A4
1001
ACAD_PSEXT
1000
PDF Complete
1000
PDF Complete Converter
1000
PDFC
1000
PDF Document Creator
1070
     0
  0
LAYOUT
  5
73
102
{ACAD_XDICTIONARY
360
5DE
102
}
102
{ACAD_REACTORS
330
69
102
}
330
69
100
AcDbPlotSettings
  1

  2
PDF Complete
  4

  6

 40
0.0
 41
0.0
 42
0.0
 43
0.0
 44
0.0
 45
0.0
 46
0.0
 47
0.0
 48
0.0
 49
0.0
140
0.0
141
0.0
142
1.0
143
1.0
 70
   688
 72
     0
 73
     0
 74
     5
  7
A3.ctb
 75
    16
147
1.0
148
0.0
149
0.0
100
AcDbLayout
  1
レイアウト1
 70
     1
 71
     1
 10
0.0
 20
0.0
 11
12.0
 21
9.0
 12
0.0
 22
0.0
 32
0.0
 14
1.000000000000000E+20
 24
1.000000000000000E+20
 34
1.000000000000000E+20
 15
-1.000000000000000E+20
 25
-1.000000000000000E+20
 35
-1.000000000000000E+20
146
0.0
 13
0.0
 23
0.0
 33
0.0
 16
1.0
 26
0.0
 36
0.0
 17
0.0
 27
1.0
 37
0.0
 76
     0
330
70
  0
MATERIAL
  5
19
102
{ACAD_XDICTIONARY
360
1A
102
}
102
{ACAD_REACTORS
330
10
102
}
330
10
100
AcDbMaterial
  1
ByBlock
 72
     0
 43
0.0208333333333333
 43
0.0
 43
0.0
 43
0.0
 43
0.0
 43
0.0208333333333333
 43
0.0
 43
0.0
 43
0.0
 43
0.0
 43
1.0
 43
0.0
 43
0.0
 43
0.0
 43
0.0
 43
1.0
 77
     0
 47
0.0208333333333333
 47
0.0
 47
0.0
 47
0.0
 47
0.0
 47
0.0208333333333333
 47
0.0
 47
0.0
 47
0.0
 47
0.0
 47
1.0
 47
0.0
 47
0.0
 47
0.0
 47
0.0
 47
1.0
171
     0
 49
0.0208333333333333
 49
0.0
 49
0.0
 49
0.0
 49
0.0
 49
0.0208333333333333
 49
0.0
 49
0.0
 49
0.0
 49
0.0
 49
1.0
 49
0.0
 49
0.0
 49
0.0
 49
0.0
 49
1.0
175
     0
142
0.0208333333333333
142
0.0
142
0.0
142
0.0
142
0.0
142
0.0208333333333333
142
0.0
142
0.0
142
0.0
142
0.0
142
1.0
142
0.0
142
0.0
142
0.0
142
0.0
142
1.0
179
     0
144
0.0208333333333333
144
0.0
144
0.0
144
0.0
144
0.0
144
0.0208333333333333
144
0.0
144
0.0
144
0.0
144
0.0
144
1.0
144
0.0
144
0.0
144
0.0
144
0.0
144
1.0
147
0.0208333333333333
147
0.0
147
0.0
147
0.0
147
0.0
147
0.0208333333333333
147
0.0
147
0.0
147
0.0
147
0.0
147
1.0
147
0.0
147
0.0
147
0.0
147
0.0
147
1.0
  0
MATERIAL
  5
11
102
{ACAD_XDICTIONARY
360
12
102
}
102
{ACAD_REACTORS
330
10
102
}
330
10
100
AcDbMaterial
  1
ByLayer
 72
     0
 43
0.0208333333333333
 43
0.0
 43
0.0
 43
0.0
 43
0.0
 43
0.0208333333333333
 43
0.0
 43
0.0
 43
0.0
 43
0.0
 43
1.0
 43
0.0
 43
0.0
 43
0.0
 43
0.0
 43
1.0
 77
     0
 47
0.0208333333333333
 47
0.0
 47
0.0
 47
0.0
 47
0.0
 47
0.0208333333333333
 47
0.0
 47
0.0
 47
0.0
 47
0.0
 47
1.0
 47
0.0
 47
0.0
 47
0.0
 47
0.0
 47
1.0
171
     0
 49
0.0208333333333333
 49
0.0
 49
0.0
 49
0.0
 49
0.0
 49
0.0208333333333333
 49
0.0
 49
0.0
 49
0.0
 49
0.0
 49
1.0
 49
0.0
 49
0.0
 49
0.0
 49
0.0
 49
1.0
175
     0
142
0.0208333333333333
142
0.0
142
0.0
142
0.0
142
0.0
142
0.0208333333333333
142
0.0
142
0.0
142
0.0
142
0.0
142
1.0
142
0.0
142
0.0
142
0.0
142
0.0
142
1.0
179
     0
144
0.0208333333333333
144
0.0
144
0.0
144
0.0
144
0.0
144
0.0208333333333333
144
0.0
144
0.0
144
0.0
144
0.0
144
1.0
144
0.0
144
0.0
144
0.0
144
0.0
144
1.0
147
0.0208333333333333
147
0.0
147
0.0
147
0.0
147
0.0
147
0.0208333333333333
147
0.0
147
0.0
147
0.0
147
0.0
147
1.0
147
0.0
147
0.0
147
0.0
147
0.0
147
1.0
  0
MATERIAL
  5
21
102
{ACAD_XDICTIONARY
360
22
102
}
102
{ACAD_REACTORS
330
10
102
}
330
10
100
AcDbMaterial
  1
Global
 72
     0
 43
0.0208333333333333
 43
0.0
 43
0.0
 43
0.0
 43
0.0
 43
0.0208333333333333
 43
0.0
 43
0.0
 43
0.0
 43
0.0
 43
1.0
 43
0.0
 43
0.0
 43
0.0
 43
0.0
 43
1.0
 77
     0
 47
0.0208333333333333
 47
0.0
 47
0.0
 47
0.0
 47
0.0
 47
0.0208333333333333
 47
0.0
 47
0.0
 47
0.0
 47
0.0
 47
1.0
 47
0.0
 47
0.0
 47
0.0
 47
0.0
 47
1.0
171
     0
 49
0.0208333333333333
 49
0.0
 49
0.0
 49
0.0
 49
0.0
 49
0.0208333333333333
 49
0.0
 49
0.0
 49
0.0
 49
0.0
 49
1.0
 49
0.0
 49
0.0
 49
0.0
 49
0.0
 49
1.0
175
     0
142
0.0208333333333333
142
0.0
142
0.0
142
0.0
142
0.0
142
0.0208333333333333
142
0.0
142
0.0
142
0.0
142
0.0
142
1.0
142
0.0
142
0.0
142
0.0
142
0.0
142
1.0
179
     0
144
0.0208333333333333
144
0.0
144
0.0
144
0.0
144
0.0
144
0.0208333333333333
144
0.0
144
0.0
144
0.0
144
0.0
144
1.0
144
0.0
144
0.0
144
0.0
144
0.0
144
1.0
147
0.0208333333333333
147
0.0
147
0.0
147
0.0
147
0.0
147
0.0208333333333333
147
0.0
147
0.0
147
0.0
147
0.0
147
1.0
147
0.0
147
0.0
147
0.0
147
0.0
147
1.0
  0
MLEADERSTYLE
  5
6E
102
{ACAD_REACTORS
330
6D
330
5AD
102
}
330
6D
100
AcDbMLeaderStyle
170
     2
171
     1
172
     0
 90
        2
 40
0.0
 41
0.0
173
     1
 91
-1056964608
340
62
 92
       -2
290
     1
 42
0.09
291
     1
 43
0.36
  3
Standard
 44
0.18
300

342
5D
174
     1
178
     6
175
     1
176
     0
 93
-1056964608
 45
0.18
292
     0
297
     0
 46
0.18
 94
-1056964608
 47
1.0
 49
1.0
140
1.0
293
     1
141
0.0
294
     1
177
     0
142
1.0
295
     0
296
     0
143
0.125
1001
ACAD_MLEADERVER
1070
     2
  0
MLINESTYLE
  5
67
102
{ACAD_REACTORS
330
66
102
}
330
66
100
AcDbMlineStyle
  2
STANDARD
 70
     0
  3

 62
   256
 51
90.0
 52
90.0
 71
     2
 49
0.5
 62
   256
  6
BYLAYER
 49
-0.5
 62
   256
  6
BYLAYER
  0
ACDBPLACEHOLDER
  5
F
102
{ACAD_REACTORS
330
E
102
}
330
E
  0
SCALE
  5
3B
102
{ACAD_REACTORS
330
3A
102
}
330
3A
100
AcDbScale
 70
     0
300
1:1
140
1.0
141
1.0
290
     1
  0
SCALE
  5
3C
102
{ACAD_REACTORS
330
3A
102
}
330
3A
100
AcDbScale
 70
     0
300
1:2
140
1.0
141
2.0
290
     0
  0
SCALE
  5
3D
102
{ACAD_REACTORS
330
3A
102
}
330
3A
100
AcDbScale
 70
     0
300
1:4
140
1.0
141
4.0
290
     0
  0
SCALE
  5
3E
102
{ACAD_REACTORS
330
3A
102
}
330
3A
100
AcDbScale
 70
     0
300
1:5
140
1.0
141
5.0
290
     0
  0
SCALE
  5
3F
102
{ACAD_REACTORS
330
3A
102
}
330
3A
100
AcDbScale
 70
     0
300
1:8
140
1.0
141
8.0
290
     0
  0
SCALE
  5
40
102
{ACAD_REACTORS
330
3A
102
}
330
3A
100
AcDbScale
 70
     0
300
1:10
140
1.0
141
10.0
290
     0
  0
SCALE
  5
41
102
{ACAD_REACTORS
330
3A
102
}
330
3A
100
AcDbScale
 70
     0
300
1:16
140
1.0
141
16.0
290
     0
  0
SCALE
  5
42
102
{ACAD_REACTORS
330
3A
102
}
330
3A
100
AcDbScale
 70
     0
300
1:20
140
1.0
141
20.0
290
     0
  0
SCALE
  5
43
102
{ACAD_REACTORS
330
3A
102
}
330
3A
100
AcDbScale
 70
     0
300
1:30
140
1.0
141
30.0
290
     0
  0
SCALE
  5
44
102
{ACAD_REACTORS
330
3A
102
}
330
3A
100
AcDbScale
 70
     0
300
1:40
140
1.0
141
40.0
290
     0
  0
SCALE
  5
45
102
{ACAD_REACTORS
330
3A
102
}
330
3A
100
AcDbScale
 70
     0
300
1:50
140
1.0
141
50.0
290
     0
  0
SCALE
  5
46
102
{ACAD_REACTORS
330
3A
102
}
330
3A
100
AcDbScale
 70
     0
300
1:100
140
1.0
141
100.0
290
     0
  0
SCALE
  5
47
102
{ACAD_REACTORS
330
3A
102
}
330
3A
100
AcDbScale
 70
     0
300
2:1
140
2.0
141
1.0
290
     0
  0
SCALE
  5
48
102
{ACAD_REACTORS
330
3A
102
}
330
3A
100
AcDbScale
 70
     0
300
4:1
140
4.0
141
1.0
290
     0
  0
SCALE
  5
49
102
{ACAD_REACTORS
330
3A
102
}
330
3A
100
AcDbScale
 70
     0
300
8:1
140
8.0
141
1.0
290
     0
  0
SCALE
  5
4A
102
{ACAD_REACTORS
330
3A
102
}
330
3A
100
AcDbScale
 70
     0
300
10:1
140
10.0
141
1.0
290
     0
  0
SCALE
  5
4B
102
{ACAD_REACTORS
330
3A
102
}
330
3A
100
AcDbScale
 70
     0
300
100:1
140
100.0
141
1.0
290
     0
  0
SCALE
  5
4C
102
{ACAD_REACTORS
330
3A
102
}
330
3A
100
AcDbScale
 70
     0
300
1/128" = 1'-0"
140
0.0078125
141
12.0
290
     0
  0
SCALE
  5
4D
102
{ACAD_REACTORS
330
3A
102
}
330
3A
100
AcDbScale
 70
     0
300
1/64" = 1'-0"
140
0.015625
141
12.0
290
     0
  0
SCALE
  5
4E
102
{ACAD_REACTORS
330
3A
102
}
330
3A
100
AcDbScale
 70
     0
300
1/32" = 1'-0"
140
0.03125
141
12.0
290
     0
  0
SCALE
  5
4F
102
{ACAD_REACTORS
330
3A
102
}
330
3A
100
AcDbScale
 70
     0
300
1/16" = 1'-0"
140
0.0625
141
12.0
290
     0
  0
SCALE
  5
50
102
{ACAD_REACTORS
330
3A
102
}
330
3A
100
AcDbScale
 70
     0
300
3/32" = 1'-0"
140
0.09375
141
12.0
290
     0
  0
SCALE
  5
51
102
{ACAD_REACTORS
330
3A
102
}
330
3A
100
AcDbScale
 70
     0
300
1/8" = 1'-0"
140
0.125
141
12.0
290
     0
  0
SCALE
  5
52
102
{ACAD_REACTORS
330
3A
102
}
330
3A
100
AcDbScale
 70
     0
300
3/16" = 1'-0"
140
0.1875
141
12.0
290
     0
  0
SCALE
  5
53
102
{ACAD_REACTORS
330
3A
102
}
330
3A
100
AcDbScale
 70
     0
300
1/4" = 1'-0"
140
0.25
141
12.0
290
     0
  0
SCALE
  5
54
102
{ACAD_REACTORS
330
3A
102
}
330
3A
100
AcDbScale
 70
     0
300
3/8" = 1'-0"
140
0.375
141
12.0
290
     0
  0
SCALE
  5
55
102
{ACAD_REACTORS
330
3A
102
}
330
3A
100
AcDbScale
 70
     0
300
1/2" = 1'-0"
140
0.5
141
12.0
290
     0
  0
SCALE
  5
56
102
{ACAD_REACTORS
330
3A
102
}
330
3A
100
AcDbScale
 70
     0
300
3/4" = 1'-0"
140
0.75
141
12.0
290
     0
  0
SCALE
  5
57
102
{ACAD_REACTORS
330
3A
102
}
330
3A
100
AcDbScale
 70
     0
300
1" = 1'-0"
140
1.0
141
12.0
290
     0
  0
SCALE
  5
58
102
{ACAD_REACTORS
330
3A
102
}
330
3A
100
AcDbScale
 70
     0
300
1-1/2" = 1'-0"
140
1.5
141
12.0
290
     0
  0
SCALE
  5
59
102
{ACAD_REACTORS
330
3A
102
}
330
3A
100
AcDbScale
 70
     0
300
3" = 1'-0"
140
3.0
141
12.0
290
     0
  0
SCALE
  5
5A
102
{ACAD_REACTORS
330
3A
102
}
330
3A
100
AcDbScale
 70
     0
300
6" = 1'-0"
140
6.0
141
12.0
290
     0
  0
SCALE
  5
5B
102
{ACAD_REACTORS
330
3A
102
}
330
3A
100
AcDbScale
 70
     0
300
1'-0" = 1'-0"
140
12.0
141
12.0
290
     0
  0
TABLESTYLE
  5
6C
102
{ACAD_XDICTIONARY
360
528
102
}
102
{ACAD_REACTORS
330
6B
102
}
330
6B
100
AcDbTableStyle
  3
Standard
 70
     0
 71
     0
 40
0.06
 41
0.06
280
     0
281
     0
  7
STANDARD
140
0.18
170
     2
 62
     0
 63
     7
283
     0
274
    -2
284
     1
 64
     0
275
    -2
285
     1
 65
     0
276
    -2
286
     1
 66
     0
277
    -2
287
     1
 67
     0
278
    -2
288
     1
 68
     0
279
    -2
289
     1
 69
     0
  7
STANDARD
140
0.25
170
     5
 62
     0
 63
     7
283
     0
274
    -2
284
     1
 64
     0
275
    -2
285
     1
 65
     0
276
    -2
286
     1
 66
     0
277
    -2
287
     1
 67
     0
278
    -2
288
     1
 68
     0
279
    -2
289
     1
 69
     0
  7
STANDARD
140
0.18
170
     5
 62
     0
 63
     7
283
     0
274
    -2
284
     1
 64
     0
275
    -2
285
     1
 65
     0
276
    -2
286
     1
 66
     0
277
    -2
287
     1
 67
     0
278
    -2
288
     1
 68
     0
279
    -2
289
     1
 69
     0
  0
VISUALSTYLE
  5
2F
102
{ACAD_REACTORS
330
29
102
}
330
29
100
AcDbVisualStyle
  2
2dWireframe
 70
     4
 71
     0
 72
     2
 73
     0
 90
        0
 40
-0.6
 41
-30.0
 62
     5
 63
     7
 74
     1
 91
        4
 64
     7
 65
   257
 75
     1
175
     1
 42
1.0
 92
        0
 66
   257
 43
1.0
 76
     1
 77
     6
 78
     2
 67
     7
 79
     5
170
     0
171
     0
290
     0
174
     0
 93
        1
 44
0.0
173
     0
291
     0
 45
0.0
1001
ACAD
1000
AcDbSavedByObjectVersion
1070
     0
  0
VISUALSTYLE
  5
31
102
{ACAD_REACTORS
330
29
102
}
330
29
100
AcDbVisualStyle
  2
3D Hidden
 70
     6
 71
     1
 72
     2
 73
     2
 90
        0
 40
-0.6
 41
-30.0
 62
     5
 63
     7
 74
     2
 91
        2
 64
     7
 65
   257
 75
     2
175
     1
 42
40.0
 92
        0
 66
   257
 43
1.0
 76
     1
 77
     6
 78
     2
 67
     7
 79
     3
170
     0
171
     0
290
     0
174
     0
 93
        1
 44
0.0
173
     0
291
     0
 45
0.0
1001
ACAD
1000
AcDbSavedByObjectVersion
1070
     0
  0
VISUALSTYLE
  5
30
102
{ACAD_REACTORS
330
29
102
}
330
29
100
AcDbVisualStyle
  2
3dWireframe
 70
     5
 71
     0
 72
     2
 73
     0
 90
        0
 40
-0.6
 41
-30.0
 62
     5
 63
     7
 74
     1
 91
        4
 64
     7
 65
   257
 75
     1
175
     1
 42
1.0
 92
        0
 66
   257
 43
1.0
 76
     1
 77
     6
 78
     2
 67
     7
 79
     5
170
     0
171
     0
290
     0
174
     0
 93
        1
 44
0.0
173
     0
291
     0
 45
0.0
1001
ACAD
1000
AcDbSavedByObjectVersion
1070
     0
  0
VISUALSTYLE
  5
2E
102
{ACAD_REACTORS
330
29
102
}
330
29
100
AcDbVisualStyle
  2
Basic
 70
     7
 71
     1
 72
     0
 73
     1
 90
        0
 40
-0.6
 41
-30.0
 62
     5
 63
     7
 74
     0
 91
        4
 64
     7
 65
   257
 75
     1
175
     1
 42
1.0
 92
        8
 66
     7
 43
1.0
 76
     1
 77
     6
 78
     2
 67
     7
 79
     5
170
     0
171
     0
290
     0
174
     0
 93
        1
 44
0.0
173
     0
291
     1
 45
0.0
1001
ACAD
1000
AcDbSavedByObjectVersion
1070
     0
  0
VISUALSTYLE
  5
35
102
{ACAD_REACTORS
330
29
102
}
330
29
100
AcDbVisualStyle
  2
Brighten
 70
    12
 71
     2
 72
     2
 73
     0
 90
        0
 40
-0.6
 41
-30.0
 62
     5
 63
     7
 74
     1
 91
        4
 64
     7
 65
   257
 75
     1
175
     1
 42
1.0
 92
        8
 66
     7
 43
1.0
 76
     1
 77
     6
 78
     2
 67
     7
 79
     5
170
     0
171
     0
290
     0
174
     0
 93
        1
 44
50.0
173
     0
291
     1
 45
0.0
1001
ACAD
1000
AcDbSavedByObjectVersion
1070
     0
  0
VISUALSTYLE
  5
39
102
{ACAD_REACTORS
330
29
102
}
330
29
100
AcDbVisualStyle
  2
ColorChange
 70
    16
 71
     2
 72
     2
 73
     3
 90
        0
 40
-0.6
 41
-30.0
 62
     5
 63
     8
 74
     1
 91
        4
 64
     7
 65
   257
 75
     1
175
     1
 42
1.0
 92
        8
 66
     8
 43
1.0
 76
     1
 77
     6
 78
     2
 67
     7
 79
     5
170
     0
171
     0
290
     0
174
     0
 93
        1
 44
0.0
173
     0
291
     1
 45
0.0
1001
ACAD
1000
AcDbSavedByObjectVersion
1070
     0
  0
VISUALSTYLE
  5
32
102
{ACAD_REACTORS
330
29
102
}
330
29
100
AcDbVisualStyle
  2
Conceptual
 70
     9
 71
     3
 72
     2
 73
     0
 90
        0
 40
-0.6
 41
-30.0
 62
     5
 63
     7
 74
     2
 91
        2
 64
     7
 65
   257
 75
     1
175
     1
 42
40.0
 92
        8
 66
     7
 43
1.0
 76
     1
 77
     6
 78
     2
 67
     7
 79
     3
170
     0
171
     0
290
     0
174
     0
 93
        1
 44
0.0
173
     0
291
     0
 45
0.0
1001
ACAD
1000
AcDbSavedByObjectVersion
1070
     0
  0
VISUALSTYLE
  5
34
102
{ACAD_REACTORS
330
29
102
}
330
29
100
AcDbVisualStyle
  2
Dim
 70
    11
 71
     2
 72
     2
 73
     0
 90
        0
 40
-0.6
 41
-30.0
 62
     5
 63
     7
 74
     1
 91
        4
 64
     7
 65
   257
 75
     1
175
     1
 42
1.0
 92
        8
 66
     7
 43
1.0
 76
     1
 77
     6
 78
     2
 67
     7
 79
     5
170
     0
171
     0
290
     0
174
     0
 93
        1
 44
-50.0
173
     0
291
     1
 45
0.0
1001
ACAD
1000
AcDbSavedByObjectVersion
1070
     0
  0
VISUALSTYLE
  5
38
102
{ACAD_REACTORS
330
29
102
}
330
29
100
AcDbVisualStyle
  2
Facepattern
 70
    15
 71
     2
 72
     2
 73
     0
 90
        0
 40
-0.6
 41
-30.0
 62
     5
 63
     7
 74
     1
 91
        4
 64
     7
 65
   257
 75
     1
175
     1
 42
1.0
 92
        8
 66
     7
 43
1.0
 76
     1
 77
     6
 78
     2
 67
     7
 79
     5
170
     0
171
     0
290
     0
174
     0
 93
        1
 44
0.0
173
     0
291
     1
 45
0.0
1001
ACAD
1000
AcDbSavedByObjectVersion
1070
     0
  0
VISUALSTYLE
  5
2A
102
{ACAD_REACTORS
330
29
102
}
330
29
100
AcDbVisualStyle
  2
Flat
 70
     0
 71
     2
 72
     1
 73
     1
 90
        2
 40
-0.6
 41
30.0
 62
     5
 63
     7
 74
     0
 91
        4
 64
     7
 65
   257
 75
     1
175
     1
 42
1.0
 92
        8
 66
     7
 43
1.0
 76
     1
 77
     6
 78
     2
 67
     7
 79
     5
170
     0
171
     0
290
     0
174
     0
 93
       13
 44
0.0
173
     0
291
     1
 45
0.0
1001
ACAD
1000
AcDbSavedByObjectVersion
1070
     0
  0
VISUALSTYLE
  5
2B
102
{ACAD_REACTORS
330
29
102
}
330
29
100
AcDbVisualStyle
  2
FlatWithEdges
 70
     1
 71
     2
 72
     1
 73
     1
 90
        2
 40
-0.6
 41
30.0
 62
     5
 63
     7
 74
     1
 91
        4
 64
     7
 65
   257
 75
     1
175
     1
 42
1.0
 92
        0
 66
   257
 43
1.0
 76
     1
 77
     6
 78
     2
 67
     7
 79
     5
170
     0
171
     0
290
     0
174
     0
 93
       13
 44
0.0
173
     0
291
     1
 45
0.0
1001
ACAD
1000
AcDbSavedByObjectVersion
1070
     0
  0
VISUALSTYLE
  5
2C
102
{ACAD_REACTORS
330
29
102
}
330
29
100
AcDbVisualStyle
  2
Gouraud
 70
     2
 71
     2
 72
     2
 73
     1
 90
        2
 40
-0.6
 41
30.0
 62
     5
 63
     7
 74
     0
 91
        4
 64
     7
 65
   257
 75
     1
175
     1
 42
1.0
 92
        0
 66
     7
 43
1.0
 76
     1
 77
     6
 78
     2
 67
     7
 79
     5
170
     0
171
     0
290
     0
174
     0
 93
       13
 44
0.0
173
     0
291
     1
 45
0.0
1001
ACAD
1000
AcDbSavedByObjectVersion
1070
     0
  0
VISUALSTYLE
  5
2D
102
{ACAD_REACTORS
330
29
102
}
330
29
100
AcDbVisualStyle
  2
GouraudWithEdges
 70
     3
 71
     2
 72
     2
 73
     1
 90
        2
 40
-0.6
 41
30.0
 62
     5
 63
     7
 74
     1
 91
        4
 64
     7
 65
   257
 75
     1
175
     1
 42
1.0
 92
        0
 66
   257
 43
1.0
 76
     1
 77
     6
 78
     2
 67
     7
 79
     5
170
     0
171
     0
290
     0
174
     0
 93
       13
 44
0.0
173
     0
291
     1
 45
0.0
1001
ACAD
1000
AcDbSavedByObjectVersion
1070
     0
  0
VISUALSTYLE
  5
37
102
{ACAD_REACTORS
330
29
102
}
330
29
100
AcDbVisualStyle
  2
Linepattern
 70
    14
 71
     2
 72
     2
 73
     0
 90
        0
 40
-0.6
 41
-30.0
 62
     5
 63
     7
 74
     1
 91
        4
 64
     7
 65
   257
 75
     7
175
     7
 42
1.0
 92
        8
 66
     7
 43
1.0
 76
     1
 77
     6
 78
     2
 67
     7
 79
     5
170
     0
171
     0
290
     0
174
     0
 93
        1
 44
0.0
173
     0
291
     1
 45
0.0
1001
ACAD
1000
AcDbSavedByObjectVersion
1070
     0
  0
VISUALSTYLE
  5
33
102
{ACAD_REACTORS
330
29
102
}
330
29
100
AcDbVisualStyle
  2
Realistic
 70
     8
 71
     2
 72
     2
 73
     0
 90
        0
 40
-0.6
 41
-30.0
 62
     5
 63
     7
 74
     1
 91
        0
 64
     7
 65
   257
 75
     1
175
     1
 42
1.0
 92
        8
 66
     8
 43
1.0
 76
     1
 77
     6
 78
     2
 67
     7
 79
     5
170
     0
171
     0
290
     0
174
     0
 93
       13
 44
0.0
173
     0
291
     0
 45
0.0
1001
ACAD
1000
AcDbSavedByObjectVersion
1070
     0
  0
VISUALSTYLE
  5
36
102
{ACAD_REACTORS
330
29
102
}
330
29
100
AcDbVisualStyle
  2
Thicken
 70
    13
 71
     2
 72
     2
 73
     0
 90
        0
 40
-0.6
 41
-30.0
 62
     5
 63
     7
 74
     1
 91
        4
 64
     7
 65
   257
 75
     1
175
     1
 42
1.0
 92
       12
 66
     7
 43
1.0
 76
     1
 77
     6
 78
     2
 67
     7
 79
     5
170
     0
171
     0
290
     0
174
     0
 93
        1
 44
0.0
173
     0
291
     1
 45
0.0
1001
ACAD
1000
AcDbSavedByObjectVersion
1070
     0
  0
DICTIONARYVAR
  5
532
102
{ACAD_REACTORS
330
52E
102
}
330
52E
100
DictionaryVariables
280
     0
  1
1:1
  0
DICTIONARYVAR
  5
530
102
{ACAD_REACTORS
330
52E
102
}
330
52E
100
DictionaryVariables
280
     0
  1
STANDARD
  0
DICTIONARYVAR
  5
52F
102
{ACAD_REACTORS
330
52E
102
}
330
52E
100
DictionaryVariables
280
     0
  1
STANDARD
  0
DICTIONARYVAR
  5
5CB
102
{ACAD_REACTORS
330
52E
102
}
330
52E
100
DictionaryVariables
280
     0
  1
1
  0
DICTIONARYVAR
  5
5CA
102
{ACAD_REACTORS
330
52E
102
}
330
52E
100
DictionaryVariables
280
     0
  1
0
  0
DICTIONARYVAR
  5
534
102
{ACAD_REACTORS
330
52E
102
}
330
52E
100
DictionaryVariables
280
     0
  1
1
  0
DICTIONARYVAR
  5
535
102
{ACAD_REACTORS
330
52E
102
}
330
52E
100
DictionaryVariables
280
     0
  1
15
  0
DICTIONARYVAR
  5
533
102
{ACAD_REACTORS
330
52E
102
}
330
52E
100
DictionaryVariables
280
     0
  1
0
  0
DICTIONARYVAR
  5
531
102
{ACAD_REACTORS
330
52E
102
}
330
52E
100
DictionaryVariables
280
     0
  1
0
  0
DICTIONARYVAR
  5
5C9
102
{ACAD_REACTORS
330
52E
102
}
330
52E
100
DictionaryVariables
280
     0
  1
127
  0
XRECORD
  5
5EC
102
{ACAD_REACTORS
330
5EB
102
}
330
5EB
100
AcDbXrecord
280
     1
  1
0
  1
0*
  1
*
  1
*
 70
     0
  1
*
  1
*
  0
XRECORD
  5
5ED
102
{ACAD_REACTORS
330
5EB
102
}
330
5EB
100
AcDbXrecord
280
     1
  1
01全体計画平面図
  1
00*,01*,0A*,0E-2*
  1
*
  1
*
 70
     0
  1
*
  1
*
  0
XRECORD
  5
5EE
102
{ACAD_REACTORS
330
5EB
102
}
330
5EB
100
AcDbXrecord
280
     1
  1
02現況平面図
  1
00*,02*,0B*
  1
*
  1
*
 70
     0
  1
*
  1
*
  0
XRECORD
  5
5EF
102
{ACAD_REACTORS
330
5EB
102
}
330
5EB
100
AcDbXrecord
280
     1
  1
03撤去平面図
  1
00*,01*,0C*
  1
*
  1
*
 70
     0
  1
*
  1
*
  0
XRECORD
  5
5F0
102
{ACAD_REACTORS
330
5EB
102
}
330
5EB
100
AcDbXrecord
280
     1
  1
04造成平面図
  1
00*,02*,0D*,03*
  1
*
  1
*
 70
     0
  1
*
  1
*
  0
XRECORD
  5
5F1
102
{ACAD_REACTORS
330
5EB
102
}
330
5EB
100
AcDbXrecord
280
     1
  1
05施設平面図
  1
00*,02*,0E*
  1
*
  1
*
 70
     0
  1
*
  1
*
  0
XRECORD
  5
5F2
102
{ACAD_REACTORS
330
5EB
102
}
330
5EB
100
AcDbXrecord
280
     1
  1
06排水平面図
  1
00*,02*,0F*
  1
*
  1
*
 70
     0
  1
*
  1
*
  0
XRECORD
  5
5F3
102
{ACAD_REACTORS
330
5EB
102
}
330
5EB
100
AcDbXrecord
280
     1
  1
07給水平面図
  1
00*,02*,0G*
  1
*
  1
*
 70
     0
  1
*
  1
*
  0
XRECORD
  5
5F4
102
{ACAD_REACTORS
330
5EB
102
}
330
5EB
100
AcDbXrecord
280
     1
  1
08電気平面図
  1
00*,02*,0H*
  1
*
  1
*
 70
     0
  1
*
  1
*
  0
XRECORD
  5
5F5
102
{ACAD_REACTORS
330
5EB
102
}
330
5EB
100
AcDbXrecord
280
     1
  1
09植栽平面図-1
  1
00*,02*,0I*
  1
*
  1
*
 70
     0
  1
*
  1
*
  0
XRECORD
  5
5F6
102
{ACAD_REACTORS
330
5EB
102
}
330
5EB
100
AcDbXrecord
280
     1
  1
1
  1
*計画*
  1
*
  1
*
 70
     0
  1
*
  1
*
  0
XRECORD
  5
5F7
102
{ACAD_REACTORS
330
5EB
102
}
330
5EB
100
AcDbXrecord
280
     1
  1
1-交差点処理図（最新1案）
  1
*交差点処理図（最新1案）*
  1
*
  1
*
 70
     0
  1
*
  1
*
  0
XRECORD
  5
5F8
102
{ACAD_REACTORS
330
5EB
102
}
330
5EB
100
AcDbXrecord
280
     1
  1
10植栽平面図-2
  1
00*,02*,0J*
  1
*
  1
*
 70
     0
  1
*
  1
*
  0
XRECORD
  5
5F9
102
{ACAD_REACTORS
330
5EB
102
}
330
5EB
100
AcDbXrecord
280
     1
  1
11寸法図
  1
00*,02*,0K*,03*
  1
*
  1
*
 70
     0
  1
*
  1
*
  0
XRECORD
  5
5FA
102
{ACAD_REACTORS
330
5EB
102
}
330
5EB
100
AcDbXrecord
280
     1
  1
1次施工
  1
*1次*
  1
*
  1
*
 70
     0
  1
*
  1
*
  0
XRECORD
  5
5FB
102
{ACAD_REACTORS
330
5EB
102
}
330
5EB
100
AcDbXrecord
280
     1
  1
2
  1
*SOKUTENME
  1
*
  1
*
 70
     0
  1
*
  1
*
  0
XRECORD
  5
5FC
102
{ACAD_REACTORS
330
5EB
102
}
330
5EB
100
AcDbXrecord
280
     1
  1
2-線形図1
  1
*線形図1*
  1
*
  1
*
 70
     0
  1
*
  1
*
  0
XRECORD
  5
5FD
102
{ACAD_REACTORS
330
5EB
102
}
330
5EB
100
AcDbXrecord
280
     1
  1
2次施工
  1
*2次*
  1
*
  1
*
 70
     0
  1
*
  1
*
  0
XRECORD
  5
5FE
102
{ACAD_REACTORS
330
5EB
102
}
330
5EB
100
AcDbXrecord
280
     1
  1
3
  1
*下部工*
  1
*
  1
*
 70
     0
  1
*
  1
*
  0
XRECORD
  5
5FF
102
{ACAD_REACTORS
330
5EB
102
}
330
5EB
100
AcDbXrecord
280
     1
  1
3-線形図2
  1
*線形図2*
  1
*
  1
*
 70
     0
  1
*
  1
*
  0
XRECORD
  5
600
102
{ACAD_REACTORS
330
5EB
102
}
330
5EB
100
AcDbXrecord
280
     1
  1
3次施工
  1
*3次*
  1
*
  1
*
 70
     0
  1
*
  1
*
  0
XRECORD
  5
601
102
{ACAD_REACTORS
330
5EB
102
}
330
5EB
100
AcDbXrecord
280
     1
  1
4
  1
*
  1
4
  1
*
 70
     0
  1
*
  1
*
  0
XRECORD
  5
602
102
{ACAD_REACTORS
330
5EB
102
}
330
5EB
100
AcDbXrecord
280
     1
  1
4次施工
  1
*4次*
  1
*
  1
*
 70
     0
  1
*
  1
*
  0
XRECORD
  5
603
102
{ACAD_REACTORS
330
5EB
102
}
330
5EB
100
AcDbXrecord
280
     1
  1
5
  1
*
  1
5
  1
*
 70
     0
  1
*
  1
*
  0
XRECORD
  5
604
102
{ACAD_REACTORS
330
5EB
102
}
330
5EB
100
AcDbXrecord
280
     1
  1
50
  1
*-50
  1
*
  1
*
 70
     0
  1
*
  1
*
  0
XRECORD
  5
605
102
{ACAD_REACTORS
330
5EB
102
}
330
5EB
100
AcDbXrecord
280
     1
  1
6
  1
*
  1
6
  1
*
 70
     0
  1
*
  1
*
  0
XRECORD
  5
606
102
{ACAD_REACTORS
330
5EB
102
}
330
5EB
100
AcDbXrecord
280
     1
  1
7
  1
*
  1
7
  1
*
 70
     0
  1
*
  1
*
  0
XRECORD
  5
607
102
{ACAD_REACTORS
330
5EB
102
}
330
5EB
100
AcDbXrecord
280
     1
  1
7-専用部北行
  1
80*,90*,A0*,B0*,
  1
*
  1
*
 70
     0
  1
*
  1
*
  0
XRECORD
  5
608
102
{ACAD_REACTORS
330
5EB
102
}
330
5EB
100
AcDbXrecord
280
     1
  1
8-ONﾗﾝﾌﾟ
  1
70*,90*,A0*,B0*,
  1
*
  1
*
 70
     0
  1
*
  1
*
  0
XRECORD
  5
609
102
{ACAD_REACTORS
330
5EB
102
}
330
5EB
100
AcDbXrecord
280
     1
  1
9-OFFﾗﾝﾌﾟ
  1
70*,80*,A0*B0*,
  1
*
  1
*
 70
     0
  1
*
  1
*
  0
XRECORD
  5
60A
102
{ACAD_REACTORS
330
5EB
102
}
330
5EB
100
AcDbXrecord
280
     1
  1
a
  1
*A_*
  1
*
  1
*
 70
    12
  1
*
  1
*
  0
XRECORD
  5
60B
102
{ACAD_REACTORS
330
5EB
102
}
330
5EB
100
AcDbXrecord
280
     1
  1
b
  1
*b_*
  1
*
  1
*
 70
    12
  1
*
  1
*
  0
XRECORD
  5
60C
102
{ACAD_REACTORS
330
5EB
102
}
330
5EB
100
AcDbXrecord
280
     1
  1
B北
  1
*B北*
  1
*
  1
*
 70
     0
  1
*
  1
*
  0
XRECORD
  5
60D
102
{ACAD_REACTORS
330
5EB
102
}
330
5EB
100
AcDbXrecord
280
     1
  1
c
  1
*c_*
  1
*
  1
*
 70
    12
  1
*
  1
*
  0
XRECORD
  5
60E
102
{ACAD_REACTORS
330
5EB
102
}
330
5EB
100
AcDbXrecord
280
     1
  1
CAR
  1
CAR*
  1
*
  1
*
 70
     0
  1
*
  1
*
  0
XRECORD
  5
60F
102
{ACAD_REACTORS
330
5EB
102
}
330
5EB
100
AcDbXrecord
280
     1
  1
d
  1
*d_*
  1
*
  1
*
 70
    12
  1
*
  1
*
  0
XRECORD
  5
610
102
{ACAD_REACTORS
330
5EB
102
}
330
5EB
100
AcDbXrecord
280
     1
  1
DIM
  1
*DIM
  1
*
  1
*
 70
     0
  1
*
  1
*
  0
XRECORD
  5
611
102
{ACAD_REACTORS
330
5EB
102
}
330
5EB
100
AcDbXrecord
280
     1
  1
DIM2
  1
*DIM2
  1
*
  1
*
 70
     0
  1
*
  1
*
  0
XRECORD
  5
612
102
{ACAD_REACTORS
330
5EB
102
}
330
5EB
100
AcDbXrecord
280
     1
  1
DIM3
  1
*DIM3
  1
*
  1
*
 70
     0
  1
*
  1
*
  0
XRECORD
  5
613
102
{ACAD_REACTORS
330
5EB
102
}
330
5EB
100
AcDbXrecord
280
     1
  1
e
  1
*e_*
  1
*
  1
*
 70
    12
  1
*
  1
*
  0
XRECORD
  5
614
102
{ACAD_REACTORS
330
5EB
102
}
330
5EB
100
AcDbXrecord
280
     1
  1
E南
  1
*E*南*
  1
*
  1
*
 70
     0
  1
*
  1
*
  0
XRECORD
  5
615
102
{ACAD_REACTORS
330
5EB
102
}
330
5EB
100
AcDbXrecord
280
     1
  1
GENKYOU
  1
*G*
  1
*
  1
*
 70
     0
  1
*
  1
*
  0
XRECORD
  5
616
102
{ACAD_REACTORS
330
5EB
102
}
330
5EB
100
AcDbXrecord
280
     1
  1
HTXT
  1
*HTXT
  1
*
  1
*
 70
     0
  1
*
  1
*
  0
XRECORD
  5
617
102
{ACAD_REACTORS
330
5EB
102
}
330
5EB
100
AcDbXrecord
280
     1
  1
HTXT2
  1
*HTXT2
  1
*
  1
*
 70
     0
  1
*
  1
*
  0
XRECORD
  5
618
102
{ACAD_REACTORS
330
5EB
102
}
330
5EB
100
AcDbXrecord
280
     1
  1
KAN
  1
W,S,T,G,E,
  1
*
  1
*
 70
     0
  1
*
  1
*
  0
XRECORD
  5
619
102
{ACAD_REACTORS
330
5EB
102
}
330
5EB
100
AcDbXrecord
280
     1
  1
LAND
  1
*
  1
*
  1
*
 70
     0
  1
*
  1
*
  0
XRECORD
  5
61A
102
{ACAD_REACTORS
330
5EB
102
}
330
5EB
100
AcDbXrecord
280
     1
  1
MASU
  1
*MASU
  1
*
  1
*
 70
     0
  1
*
  1
*
  0
XRECORD
  5
61B
102
{ACAD_REACTORS
330
5EB
102
}
330
5EB
100
AcDbXrecord
280
     1
  1
OFF
  1
*OFF*
  1
*
  1
*
 70
     0
  1
*
  1
*
  0
XRECORD
  5
61C
102
{ACAD_REACTORS
330
5EB
102
}
330
5EB
100
AcDbXrecord
280
     1
  1
OFST
  1
*OFST
  1
*
  1
*
 70
     0
  1
*
  1
*
  0
XRECORD
  5
61D
102
{ACAD_REACTORS
330
5EB
102
}
330
5EB
100
AcDbXrecord
280
     1
  1
ON
  1
*ON*
  1
*
  1
*
 70
     0
  1
*
  1
*
  0
XRECORD
  5
61E
102
{ACAD_REACTORS
330
5EB
102
}
330
5EB
100
AcDbXrecord
280
     1
  1
ｼｭｳｾｲ
  1
*
  1
*
  1
*
 70
     0
  1
*
  1
*
  0
XRECORD
  5
61F
102
{ACAD_REACTORS
330
5EB
102
}
330
5EB
100
AcDbXrecord
280
     1
  1
ｾﾒﾝﾄ注入量上半円
  1
CE-?-T-?
  1
*
  1
*
 70
     0
  1
*
  1
*
  0
XRECORD
  5
620
102
{ACAD_REACTORS
330
5EB
102
}
330
5EB
100
AcDbXrecord
280
     1
  1
ﾌﾘｰｽﾞ解除
  1
*
  1
*
  1
*
 70
    12
  1
*
  1
*
  0
XRECORD
  5
621
102
{ACAD_REACTORS
330
5EB
102
}
330
5EB
100
AcDbXrecord
280
     1
  1
ﾙｼﾞｵﾝ値下半円
  1
LU-?-B-?
  1
*
  1
*
 70
     0
  1
*
  1
*
  0
XRECORD
  5
622
102
{ACAD_REACTORS
330
5EB
102
}
330
5EB
100
AcDbXrecord
280
     1
  1
ｓ
  1
*SOKUTENME
  1
*
  1
*
 70
     0
  1
*
  1
*
  0
XRECORD
  5
623
102
{ACAD_REACTORS
330
5EB
102
}
330
5EB
100
AcDbXrecord
280
     1
  1
その他
  1
O*
  1
*
  1
*
 70
     0
  1
*
  1
*
  0
XRECORD
  5
624
102
{ACAD_REACTORS
330
5EB
102
}
330
5EB
100
AcDbXrecord
280
     1
  1
セメント注入量
  1
CE-*
  1
*
  1
*
 70
     0
  1
*
  1
*
  0
XRECORD
  5
625
102
{ACAD_REACTORS
330
5EB
102
}
330
5EB
100
AcDbXrecord
280
     1
  1
フリーズ以外
  1
*
  1
*
  1
*
 70
    12
  1
*
  1
*
  0
XRECORD
  5
626
102
{ACAD_REACTORS
330
5EB
102
}
330
5EB
100
AcDbXrecord
280
     1
  1
ランプ
  1
*ランプ*
  1
*
  1
*
 70
     0
  1
*
  1
*
  0
XRECORD
  5
627
102
{ACAD_REACTORS
330
5EB
102
}
330
5EB
100
AcDbXrecord
280
     1
  1
ルジオン値
  1
LU-*
  1
*
  1
*
 70
     0
  1
*
  1
*
  0
XRECORD
  5
628
102
{ACAD_REACTORS
330
5EB
102
}
330
5EB
100
AcDbXrecord
280
     1
  1
ロック
  1
*
  1
*
  1
*
 70
   256
  1
*
  1
*
  0
XRECORD
  5
629
102
{ACAD_REACTORS
330
5EB
102
}
330
5EB
100
AcDbXrecord
280
     1
  1
ロック解除
  1
*
  1
*
  1
*
 70
   768
  1
*
  1
*
  0
XRECORD
  5
62A
102
{ACAD_REACTORS
330
5EB
102
}
330
5EB
100
AcDbXrecord
280
     1
  1
案1
  1
*案1
  1
*
  1
*
 70
     0
  1
*
  1
*
  0
XRECORD
  5
62B
102
{ACAD_REACTORS
330
5EB
102
}
330
5EB
100
AcDbXrecord
280
     1
  1
案2
  1
*案2
  1
*
  1
*
 70
     0
  1
*
  1
*
  0
XRECORD
  5
62C
102
{ACAD_REACTORS
330
5EB
102
}
330
5EB
100
AcDbXrecord
280
     1
  1
一般
  1
*般*
  1
*
  1
*
 70
     0
  1
*
  1
*
  0
XRECORD
  5
62D
102
{ACAD_REACTORS
330
5EB
102
}
330
5EB
100
AcDbXrecord
280
     1
  1
外部参照の非表示画層
  1
*
  1
*
  1
*
 70
     0
  1
*
  1
*
  0
XRECORD
  5
62E
102
{ACAD_REACTORS
330
5EB
102
}
330
5EB
100
AcDbXrecord
280
     1
  1
形状
  1
pen1,pen3,pen4,up,dia,low
  1
*
  1
*
 70
     0
  1
*
  1
*
  0
XRECORD
  5
62F
102
{ACAD_REACTORS
330
5EB
102
}
330
5EB
100
AcDbXrecord
280
     1
  1
形状以外
  1
dim,cen,text,sakuzu1,sakuzu2,siten,defpoints,0
  1
*
  1
*
 70
     0
  1
*
  1
*
  0
XRECORD
  5
630
102
{ACAD_REACTORS
330
5EB
102
}
330
5EB
100
AcDbXrecord
280
     1
  1
計画
  1
K*
  1
*
  1
*
 70
     0
  1
*
  1
*
  0
XRECORD
  5
631
102
{ACAD_REACTORS
330
5EB
102
}
330
5EB
100
AcDbXrecord
280
     1
  1
現況
  1
G*
  1
*
  1
*
 70
     0
  1
*
  1
*
  0
XRECORD
  5
632
102
{ACAD_REACTORS
330
5EB
102
}
330
5EB
100
AcDbXrecord
280
     1
  1
暫定形
  1
*暫*
  1
*
  1
*
 70
     0
  1
*
  1
*
  0
XRECORD
  5
633
102
{ACAD_REACTORS
330
5EB
102
}
330
5EB
100
AcDbXrecord
280
     1
  1
縦断セット
  1
JO*
  1
*
  1
*
 70
     0
  1
*
  1
*
  0
XRECORD
  5
634
102
{ACAD_REACTORS
330
5EB
102
}
330
5EB
100
AcDbXrecord
280
     1
  1
縦断計画
  1
JK*
  1
*
  1
*
 70
     0
  1
*
  1
*
  0
XRECORD
  5
635
102
{ACAD_REACTORS
330
5EB
102
}
330
5EB
100
AcDbXrecord
280
     1
  1
縦断埋設
  1
JM*
  1
*
  1
*
 70
     0
  1
*
  1
*
  0
XRECORD
  5
636
102
{ACAD_REACTORS
330
5EB
102
}
330
5EB
100
AcDbXrecord
280
     1
  1
数量用
  1
*数量用*
  1
*
  1
*
 70
     0
  1
*
  1
*
  0
XRECORD
  5
637
102
{ACAD_REACTORS
330
5EB
102
}
330
5EB
100
AcDbXrecord
280
     1
  1
専北
  1
*専北*
  1
*
  1
*
 70
     0
  1
*
  1
*
  0
XRECORD
  5
638
102
{ACAD_REACTORS
330
5EB
102
}
330
5EB
100
AcDbXrecord
280
     1
  1
専用
  1
*専*
  1
*
  1
*
 70
     0
  1
*
  1
*
  0
XRECORD
  5
639
102
{ACAD_REACTORS
330
5EB
102
}
330
5EB
100
AcDbXrecord
280
     1
  1
線形
  1
*線形*
  1
*
  1
*
 70
     0
  1
*
  1
*
  0
XRECORD
  5
63A
102
{ACAD_REACTORS
330
5EB
102
}
330
5EB
100
AcDbXrecord
280
     1
  1
全帯
  1
*帯*
  1
*
  1
*
 70
     0
  1
*
  1
*
  0
XRECORD
  5
63B
102
{ACAD_REACTORS
330
5EB
102
}
330
5EB
100
AcDbXrecord
280
     1
  1
断面
  1
*断面*
  1
*
  1
*
 70
     0
  1
*
  1
*
  0
XRECORD
  5
63C
102
{ACAD_REACTORS
330
5EB
102
}
330
5EB
100
AcDbXrecord
280
     1
  1
東西線
  1
*A
  1
*
  1
*
 70
     0
  1
*
  1
*
  0
XRECORD
  5
63D
102
{ACAD_REACTORS
330
5EB
102
}
330
5EB
100
AcDbXrecord
280
     1
  1
道路詳細設計　平面図
  1
道路中心線
  1
*
  1
*
 70
     0
  1
*
  1
*
  0
XRECORD
  5
63E
102
{ACAD_REACTORS
330
5EB
102
}
330
5EB
100
AcDbXrecord
280
     1
  1
南北線
  1
*B
  1
*
  1
*
 70
     0
  1
*
  1
*
  0
XRECORD
  5
63F
102
{ACAD_REACTORS
330
5EB
102
}
330
5EB
100
AcDbXrecord
280
     1
  1
非表示
  1
z*
  1
*
  1
*
 70
     0
  1
*
  1
*
  0
XRECORD
  5
640
102
{ACAD_REACTORS
330
5EB
102
}
330
5EB
100
AcDbXrecord
280
     1
  1
非表示を表示
  1
*
  1
*
  1
*
 70
     3
  1
*
  1
*
  0
XRECORD
  5
641
102
{ACAD_REACTORS
330
5EB
102
}
330
5EB
100
AcDbXrecord
280
     1
  1
非表示画層を表示
  1
*
  1
*
  1
*
 70
     3
  1
*
  1
*
  0
XRECORD
  5
642
102
{ACAD_REACTORS
330
5EB
102
}
330
5EB
100
AcDbXrecord
280
     1
  1
表示レイヤ－を表示
  1
*
  1
*
  1
*
 70
     1
  1
*
  1
*
  0
XRECORD
  5
643
102
{ACAD_REACTORS
330
5EB
102
}
330
5EB
100
AcDbXrecord
280
     1
  1
副道
  1
*副*
  1
*
  1
*
 70
     0
  1
*
  1
*
  0
XRECORD
  5
644
102
{ACAD_REACTORS
330
5EB
102
}
330
5EB
100
AcDbXrecord
280
     1
  1
平面図
  1
*平*
  1
*
  1
*
 70
     0
  1
*
  1
*
  0
XRECORD
  5
645
102
{ACAD_REACTORS
330
5EB
102
}
330
5EB
100
AcDbXrecord
280
     1
  1
埋設
  1
M*
  1
*
  1
*
 70
     0
  1
*
  1
*
  0
DICTIONARY
  5
5E0
330
77
100
AcDbDictionary
280
     1
281
     1
  3
ACAD_XREC_ROUNDTRIP
360
5E1
  0
DICTIONARY
  5
5DE
330
73
100
AcDbDictionary
280
     1
281
     1
  3
ACAD_XREC_ROUNDTRIP
360
5DF
  0
DICTIONARY
  5
1A
330
19
100
AcDbDictionary
280
     1
281
     1
  3
ACAD_XREC_ROUNDTRIP
360
5DB
  3
BUMPTILE
360
1C
  3
DIFFUSETILE
360
1B
  3
OPACITYTILE
360
1F
  3
REFLECTIONTILE
360
1E
  3
REFRACTIONTILE
360
20
  3
SPECULARTILE
360
1D
  0
DICTIONARY
  5
12
330
11
100
AcDbDictionary
280
     1
281
     1
  3
ACAD_XREC_ROUNDTRIP
360
5DA
  3
BUMPTILE
360
14
  3
DIFFUSETILE
360
13
  3
OPACITYTILE
360
17
  3
REFLECTIONTILE
360
16
  3
REFRACTIONTILE
360
18
  3
SPECULARTILE
360
15
  0
DICTIONARY
  5
22
330
21
100
AcDbDictionary
280
     1
281
     1
  3
ACAD_XREC_ROUNDTRIP
360
5DC
  3
BUMPTILE
360
24
  3
DIFFUSETILE
360
23
  3
OPACITYTILE
360
27
  3
REFLECTIONTILE
360
26
  3
REFRACTIONTILE
360
28
  3
SPECULARTILE
360
25
  0
DICTIONARY
  5
528
330
6C
100
AcDbDictionary
280
     1
281
     1
  3
ACAD_ROUNDTRIP_2008_TABLESTYLE_CELLSTYLEMAP
360
5D8
  3
ACAD_XREC_ROUNDTRIP
360
5DD
  0
XRECORD
  5
5E1
102
{ACAD_REACTORS
330
5E0
102
}
330
5E0
100
AcDbXrecord
280
     1
102
SHADEPLOT
 70
     0
102
SHADEPLOTRESLEVEL
 70
     2
102
SHADEPLOTCUSTOMDPI
 70
   300
  0
XRECORD
  5
5DF
102
{ACAD_REACTORS
330
5DE
102
}
330
5DE
100
AcDbXrecord
280
     1
102
SHADEPLOT
 70
     0
102
SHADEPLOTRESLEVEL
 70
     2
102
SHADEPLOTCUSTOMDPI
 70
   300
  0
XRECORD
  5
5DB
102
{ACAD_REACTORS
330
1A
102
}
330
1A
100
AcDbXrecord
280
     1
102
MATERIAL
148
0.0
149
0.0
149
0.0
 93
        0
 94
      127
282
     0
 72
     0
 77
     0
171
     0
175
     0
179
     0
273
     0
  0
XRECORD
  5
1C
102
{ACAD_REACTORS
330
1A
102
}
330
1A
100
AcDbXrecord
280
     1
270
     1
271
     1
  0
XRECORD
  5
1B
102
{ACAD_REACTORS
330
1A
102
}
330
1A
100
AcDbXrecord
280
     1
270
     1
271
     1
  0
XRECORD
  5
1F
102
{ACAD_REACTORS
330
1A
102
}
330
1A
100
AcDbXrecord
280
     1
270
     1
271
     1
  0
XRECORD
  5
1E
102
{ACAD_REACTORS
330
1A
102
}
330
1A
100
AcDbXrecord
280
     1
270
     1
271
     1
  0
XRECORD
  5
20
102
{ACAD_REACTORS
330
1A
102
}
330
1A
100
AcDbXrecord
280
     1
270
     1
271
     1
  0
XRECORD
  5
1D
102
{ACAD_REACTORS
330
1A
102
}
330
1A
100
AcDbXrecord
280
     1
270
     1
271
     1
  0
XRECORD
  5
5DA
102
{ACAD_REACTORS
330
12
102
}
330
12
100
AcDbXrecord
280
     1
102
MATERIAL
148
0.0
149
0.0
149
0.0
 93
        0
 94
      127
282
     0
 72
     0
 77
     0
171
     0
175
     0
179
     0
273
     0
  0
XRECORD
  5
14
102
{ACAD_REACTORS
330
12
102
}
330
12
100
AcDbXrecord
280
     1
270
     1
271
     1
  0
XRECORD
  5
13
102
{ACAD_REACTORS
330
12
102
}
330
12
100
AcDbXrecord
280
     1
270
     1
271
     1
  0
XRECORD
  5
17
102
{ACAD_REACTORS
330
12
102
}
330
12
100
AcDbXrecord
280
     1
270
     1
271
     1
  0
XRECORD
  5
16
102
{ACAD_REACTORS
330
12
102
}
330
12
100
AcDbXrecord
280
     1
270
     1
271
     1
  0
XRECORD
  5
18
102
{ACAD_REACTORS
330
12
102
}
330
12
100
AcDbXrecord
280
     1
270
     1
271
     1
  0
XRECORD
  5
15
102
{ACAD_REACTORS
330
12
102
}
330
12
100
AcDbXrecord
280
     1
270
     1
271
     1
  0
XRECORD
  5
5DC
102
{ACAD_REACTORS
330
22
102
}
330
22
100
AcDbXrecord
280
     1
102
MATERIAL
148
0.0
149
0.0
149
0.0
 93
        0
 94
      127
282
     0
 72
     0
 77
     0
171
     0
175
     0
179
     0
273
     0
  0
XRECORD
  5
24
102
{ACAD_REACTORS
330
22
102
}
330
22
100
AcDbXrecord
280
     1
270
     1
271
     1
  0
XRECORD
  5
23
102
{ACAD_REACTORS
330
22
102
}
330
22
100
AcDbXrecord
280
     1
270
     1
271
     1
  0
XRECORD
  5
27
102
{ACAD_REACTORS
330
22
102
}
330
22
100
AcDbXrecord
280
     1
270
     1
271
     1
  0
XRECORD
  5
26
102
{ACAD_REACTORS
330
22
102
}
330
22
100
AcDbXrecord
280
     1
270
     1
271
     1
  0
XRECORD
  5
28
102
{ACAD_REACTORS
330
22
102
}
330
22
100
AcDbXrecord
280
     1
270
     1
271
     1
  0
XRECORD
  5
25
102
{ACAD_REACTORS
330
22
102
}
330
22
100
AcDbXrecord
280
     1
270
     1
271
     1
  0
CELLSTYLEMAP
  5
5D8
102
{ACAD_REACTORS
330
528
102
}
330
528
100
AcDbCellStyleMap
 90
        3
300
CELLSTYLE
  1
TABLEFORMAT_BEGIN
 90
        5
170
     1
 91
        0
 92
    32768
 62
   257
 93
        1
300
CONTENTFORMAT
  1
CONTENTFORMAT_BEGIN
 90
        0
 91
        0
 92
      512
 93
        0
300

 40
0.0
140
1.0
 94
        5
 62
     0
340
5D
144
0.25
309
CONTENTFORMAT_END
171
     0
 94
        0
309
TABLEFORMAT_END
  1
CELLSTYLE_BEGIN
 90
        1
 91
        1
300
_TITLE
309
CELLSTYLE_END
300
CELLSTYLE
  1
TABLEFORMAT_BEGIN
 90
        5
170
     1
 91
        0
 92
        0
 62
   257
 93
        1
300
CONTENTFORMAT
  1
CONTENTFORMAT_BEGIN
 90
        0
 91
        0
 92
      512
 93
        0
300

 40
0.0
140
1.0
 94
        5
 62
     0
340
5D
144
0.18
309
CONTENTFORMAT_END
171
     0
 94
        0
309
TABLEFORMAT_END
  1
CELLSTYLE_BEGIN
 90
        2
 91
        1
300
_HEADER
309
CELLSTYLE_END
300
CELLSTYLE
  1
TABLEFORMAT_BEGIN
 90
        5
170
     1
 91
        0
 92
        0
 62
   257
 93
        1
300
CONTENTFORMAT
  1
CONTENTFORMAT_BEGIN
 90
        0
 91
        0
 92
      512
 93
        0
300

 40
0.0
140
1.0
 94
        2
 62
     0
340
5D
144
0.18
309
CONTENTFORMAT_END
171
     0
 94
        0
309
TABLEFORMAT_END
  1
CELLSTYLE_BEGIN
 90
        3
 91
        2
300
_DATA
309
CELLSTYLE_END
  0
XRECORD
  5
5DD
102
{ACAD_REACTORS
330
528
102
}
330
528
100
AcDbXrecord
280
     1
102
ACAD_ROUNDTRIP_PRE2007_TABLESTYLE
 90
      512
 91
        0
  1

 92
      512
 93
        0
  2

 94
      512
 95
        0
  3

  0
ENDSEC
  0
EOF
