  0
SECTION
  2
HEADER
  9
$ACADVER
  1
AC1014
  9
$ACADMAINTVER
 70
     9
  9
$DWGCODEPAGE
  3
ANSI_932
  9
$INSBASE
 10
0.0
 20
0.0
 30
0.0
  9
$EXTMIN
 10
104.7945367720561
 20
55.38870777816533
 30
-0.0000000000000058
  9
$EXTMAX
 10
446.2979556225473
 20
274.6070324987347
 30
0.0000000000000104
  9
$LIMMIN
 10
93.26026000610637
 20
39.44280034357939
  9
$LIMMAX
 10
452.7040576316507
 20
287.7866574068349
  9
$ORTHOMODE
 70
     0
  9
$REGENMODE
 70
     1
  9
$FILLMODE
 70
     1
  9
$QTEXTMODE
 70
     0
  9
$MIRRTEXT
 70
     1
  9
$DRAGMODE
 70
     2
  9
$LTSCALE
 40
23.1
  9
$OSMODE
 70
  3071
  9
$ATTMODE
 70
     1
  9
$TEXTSIZE
 40
0.2
  9
$TRACEWID
 40
0.05
  9
$TEXTSTYLE
  7
STANDARD
  9
$CLAYER
  8
0
  9
$CELTYPE
  6
BYLAYER
  9
$CECOLOR
 62
   256
  9
$CELTSCALE
 40
1.0
  9
$DELOBJ
 70
     1
  9
$DISPSILH
 70
     0
  9
$DIMSCALE
 40
1.0
  9
$DIMASZ
 40
2.0
  9
$DIMEXO
 40
2.625
  9
$DIMDLI
 40
15.96
  9
$DIMRND
 40
0.0
  9
$DIMDLE
 40
0.0
  9
$DIMEXE
 40
7.559999999999998
  9
$DIMTP
 40
0.001
  9
$DIMTM
 40
0.001
  9
$DIMTXT
 40
2.799999999999998
  9
$DIMCEN
 40
3.779999999999998
  9
$DIMTSZ
 40
0.0
  9
$DIMTOL
 70
     1
  9
$DIMLIM
 70
     0
  9
$DIMTIH
 70
     1
  9
$DIMTOH
 70
     1
  9
$DIMSE1
 70
     0
  9
$DIMSE2
 70
     0
  9
$DIMTAD
 70
     0
  9
$DIMZIN
 70
     0
  9
$DIMBLK
  1

  9
$DIMASO
 70
     1
  9
$DIMSHO
 70
     1
  9
$DIMPOST
  1

  9
$DIMAPOST
  1

  9
$DIMALT
 70
     0
  9
$DIMALTD
 70
     2
  9
$DIMALTF
 40
25.4
  9
$DIMLFAC
 40
1.0
  9
$DIMTOFL
 70
     0
  9
$DIMTVP
 40
0.0
  9
$DIMTIX
 70
     0
  9
$DIMSOXD
 70
     0
  9
$DIMSAH
 70
     0
  9
$DIMBLK1
  1

  9
$DIMBLK2
  1

  9
$DIMSTYLE
  2
STANDARD
  9
$DIMCLRD
 70
     0
  9
$DIMCLRE
 70
     0
  9
$DIMCLRT
 70
     0
  9
$DIMTFAC
 40
1.0
  9
$DIMGAP
 40
0.09
  9
$DIMJUST
 70
     0
  9
$DIMSD1
 70
     0
  9
$DIMSD2
 70
     0
  9
$DIMTOLJ
 70
     1
  9
$DIMTZIN
 70
     0
  9
$DIMALTZ
 70
     0
  9
$DIMALTTZ
 70
     0
  9
$DIMFIT
 70
     3
  9
$DIMUPT
 70
     0
  9
$DIMUNIT
 70
     2
  9
$DIMDEC
 70
     4
  9
$DIMTDEC
 70
     4
  9
$DIMALTU
 70
     2
  9
$DIMALTTD
 70
     2
  9
$DIMTXSTY
  7
STANDARD
  9
$DIMAUNIT
 70
     0
  9
$LUNITS
 70
     2
  9
$LUPREC
 70
     4
  9
$SKETCHINC
 40
0.1
  9
$FILLETRAD
 40
0.0
  9
$AUNITS
 70
     0
  9
$AUPREC
 70
     0
  9
$MENU
  1
.
  9
$ELEVATION
 40
0.0
  9
$PELEVATION
 40
0.0
  9
$THICKNESS
 40
0.0
  9
$LIMCHECK
 70
     0
  9
$BLIPMODE
 70
     0
  9
$CHAMFERA
 40
0.0
  9
$CHAMFERB
 40
0.0
  9
$CHAMFERC
 40
0.0
  9
$CHAMFERD
 40
0.0
  9
$SKPOLY
 70
     0
  9
$TDCREATE
 40
2453707.551603009
  9
$TDUPDATE
 40
2454461.638235833
  9
$TDINDWG
 40
0.0121347917
  9
$TDUSRTIMER
 40
0.0121346065
  9
$USRTIMER
 70
     1
  9
$ANGBASE
 50
0.0
  9
$ANGDIR
 70
     0
  9
$PDMODE
 70
     0
  9
$PDSIZE
 40
0.0
  9
$PLINEWID
 40
0.0
  9
$COORDS
 70
     0
  9
$SPLFRAME
 70
     0
  9
$SPLINETYPE
 70
     6
  9
$SPLINESEGS
 70
     8
  9
$ATTDIA
 70
     0
  9
$ATTREQ
 70
     1
  9
$HANDLING
 70
     1
  9
$HANDSEED
  5
19E9
  9
$SURFTAB1
 70
     6
  9
$SURFTAB2
 70
     6
  9
$SURFTYPE
 70
     6
  9
$SURFU
 70
     6
  9
$SURFV
 70
     6
  9
$UCSNAME
  2

  9
$UCSORG
 10
0.0
 20
0.0
 30
0.0
  9
$UCSXDIR
 10
1.0
 20
0.0
 30
0.0
  9
$UCSYDIR
 10
0.0
 20
1.0
 30
0.0
  9
$PUCSNAME
  2

  9
$PUCSORG
 10
0.0
 20
0.0
 30
0.0
  9
$PUCSXDIR
 10
1.0
 20
0.0
 30
0.0
  9
$PUCSYDIR
 10
0.0
 20
1.0
 30
0.0
  9
$USERI1
 70
     0
  9
$USERI2
 70
     0
  9
$USERI3
 70
     0
  9
$USERI4
 70
     0
  9
$USERI5
 70
     0
  9
$USERR1
 40
0.0
  9
$USERR2
 40
0.0
  9
$USERR3
 40
0.0
  9
$USERR4
 40
0.0
  9
$USERR5
 40
0.0
  9
$WORLDVIEW
 70
     1
  9
$SHADEDGE
 70
     3
  9
$SHADEDIF
 70
    70
  9
$TILEMODE
 70
     1
  9
$MAXACTVP
 70
    64
  9
$PINSBASE
 10
0.0
 20
0.0
 30
0.0
  9
$PLIMCHECK
 70
     0
  9
$PEXTMIN
 10
1.000000000000000E+20
 20
1.000000000000000E+20
 30
1.000000000000000E+20
  9
$PEXTMAX
 10
-1.000000000000000E+20
 20
-1.000000000000000E+20
 30
-1.000000000000000E+20
  9
$PLIMMIN
 10
0.0
 20
0.0
  9
$PLIMMAX
 10
12.0
 20
9.0
  9
$UNITMODE
 70
     0
  9
$VISRETAIN
 70
     1
  9
$PLINEGEN
 70
     0
  9
$PSLTSCALE
 70
     1
  9
$TREEDEPTH
 70
  3020
  9
$PICKSTYLE
 70
     1
  9
$CMLSTYLE
  2
STANDARD
  9
$CMLJUST
 70
     0
  9
$CMLSCALE
 40
1.0
  9
$PROXYGRAPHICS
 70
     1
  9
$MEASUREMENT
 70
     1
  0
ENDSEC
  0
SECTION
  2
CLASSES
  0
CLASS
  1
ACDBDICTIONARYWDFLT
  2
AcDbDictionaryWithDefault
  3
AutoCAD 2000
 90
        0
280
     0
281
     0
  0
CLASS
  1
ACDBPLACEHOLDER
  2
AcDbPlaceHolder
  3
AutoCAD 2000
 90
        0
280
     0
281
     0
  0
CLASS
  1
LAYOUT
  2
AcDbLayout
  3
AutoCAD 2000
 90
        0
280
     0
281
     0
  0
CLASS
  1
DICTIONARYVAR
  2
AcDbDictionaryVar
  3
AutoCAD 2000
 90
        0
280
     0
281
     0
  0
CLASS
  1
LONG_TRANSACTION
  2
AcDbLongTransaction
  3
AutoCAD 2000
 90
        0
280
     0
281
     0
  0
CLASS
  1
LWPOLYLINE
  2
AcDbPolyline
  3
AutoCAD 2000
 90
        0
280
     0
281
     1
  0
CLASS
  1
HATCH
  2
AcDbHatch
  3
AutoCAD 2000
 90
        0
280
     0
281
     1
  0
CLASS
  1
XRECORD
  2
AcDbXrecord
  3
AutoCAD 2000
 90
        0
280
     0
281
     0
  0
CLASS
  1
LONG_TRANSACTION
  2
AcDbLongTransaction
  3
AutoCAD 2000
 90
        0
280
     0
281
     0
  0
CLASS
  1
LWPOLYLINE
  2
AcDbPolyline
  3
AutoCAD 2000
 90
        0
280
     0
281
     1
  0
CLASS
  1
HATCH
  2
AcDbHatch
  3
AutoCAD 2000
 90
        0
280
     0
281
     1
  0
CLASS
  1
XRECORD
  2
AcDbXrecord
  3
AutoCAD 2000
 90
        0
280
     0
281
     0
  0
ENDSEC
  0
SECTION
  2
TABLES
  0
TABLE
  2
VPORT
  5
8
330
0
100
AcDbSymbolTable
 70
     2
  0
VPORT
  5
19C6
330
8
100
AcDbSymbolTableRecord
100
AcDbViewportTableRecord
  2
*ACTIVE
 70
     0
 10
0.0
 20
0.0
 11
1.0
 21
1.0
 12
272.9821588188785
 22
163.6147288752071
 13
0.0
 23
0.0
 14
1.0
 24
1.0
 15
0.0
 25
0.0
 16
0.0
 26
0.0
 36
1.0
 17
0.0
 27
0.0
 37
0.0
 40
250.2324035048012
 41
1.515228426395939
 42
50.0
 43
0.0
 44
0.0
 50
0.0
 51
0.0
 71
     0
 72
   100
 73
     1
 74
     1
 75
     0
 76
     0
 77
     0
 78
     0
  0
ENDTAB
  0
TABLE
  2
LTYPE
  5
5
330
0
100
AcDbSymbolTable
 70
     6
  0
LTYPE
  5
14
330
5
100
AcDbSymbolTableRecord
100
AcDbLinetypeTableRecord
  2
BYBLOCK
 70
     0
  3

 72
    65
 73
     0
 40
0.0
  0
LTYPE
  5
15
330
5
100
AcDbSymbolTableRecord
100
AcDbLinetypeTableRecord
  2
BYLAYER
 70
     0
  3

 72
    65
 73
     0
 40
0.0
  0
LTYPE
  5
16
330
5
100
AcDbSymbolTableRecord
100
AcDbLinetypeTableRecord
  2
CONTINUOUS
 70
     0
  3
Solid line
 72
    65
 73
     0
 40
0.0
  0
LTYPE
  5
1F5
330
5
100
AcDbSymbolTableRecord
100
AcDbLinetypeTableRecord
  2
CENTER
 70
     0
  3
____ _ ____ _ ____ _ ____ _ ____ _ ____ _ ____
 72
    65
 73
     4
 40
0.6
 49
0.375
 74
     0
 49
-0.075
 74
     0
 49
0.075
 74
     0
 49
-0.075
 74
     0
  0
LTYPE
  5
1F6
330
5
100
AcDbSymbolTableRecord
100
AcDbLinetypeTableRecord
  2
HIDDEN
 70
     0
  3
- - - - - - - - - - - - - - - - - - - -
 72
    65
 73
     2
 40
0.2
 49
0.1
 74
     0
 49
-0.1
 74
     0
  0
LTYPE
  5
1F7
330
5
100
AcDbSymbolTableRecord
100
AcDbLinetypeTableRecord
  2
PHANTOM
 70
     0
  3
_____ _ _ _____ _ _ _____ _ _ _____
 72
    65
 73
     6
 40
0.8
 49
0.45
 74
     0
 49
-0.05
 74
     0
 49
0.1
 74
     0
 49
-0.05
 74
     0
 49
0.1
 74
     0
 49
-0.05
 74
     0
  0
LTYPE
  5
1F8
330
5
100
AcDbSymbolTableRecord
100
AcDbLinetypeTableRecord
  2
DOT
 70
     0
  3
. . . . . . . . . . . . . . . . . . . .
 72
    65
 73
     2
 40
0.2
 49
0.1
 74
     0
 49
-0.1
 74
     0
  0
LTYPE
  5
1F9
330
5
100
AcDbSymbolTableRecord
100
AcDbLinetypeTableRecord
  2
DASHED
 70
     0
  3
- - - - - - - - - - - - - - - - - - - -
 72
    65
 73
     2
 40
0.2
 49
0.1
 74
     0
 49
-0.1
 74
     0
  0
ENDTAB
  0
TABLE
  2
LAYER
  5
2
330
0
100
AcDbSymbolTable
 70
    47
  0
LAYER
  5
10
330
2
100
AcDbSymbolTableRecord
100
AcDbLayerTableRecord
  2
0
 70
     0
 62
     7
  6
CONTINUOUS
  0
LAYER
  5
1FA
330
2
100
AcDbSymbolTableRecord
100
AcDbLayerTableRecord
  2
DEFAULT_1
 70
     0
 62
     7
  6
CENTER
  0
LAYER
  5
1FB
330
2
100
AcDbSymbolTableRecord
100
AcDbLayerTableRecord
  2
DEFAULT_2
 70
     0
 62
     8
  6
HIDDEN
  0
LAYER
  5
1FC
330
2
100
AcDbSymbolTableRecord
100
AcDbLayerTableRecord
  2
DEFAULT_3
 70
     0
 62
     7
  6
PHANTOM
  0
LAYER
  5
1FD
330
2
100
AcDbSymbolTableRecord
100
AcDbLayerTableRecord
  2
0_COMPONENTS
 70
     0
 62
     7
  6
CONTINUOUS
  0
LAYER
  5
1FE
330
2
100
AcDbSymbolTableRecord
100
AcDbLayerTableRecord
  2
1_ALL_DIMS
 70
     0
 62
     7
  6
CONTINUOUS
  0
LAYER
  5
1FF
330
2
100
AcDbSymbolTableRecord
100
AcDbLayerTableRecord
  2
1_ALL_DRAFT_DIMS
 70
     0
 62
     7
  6
CONTINUOUS
  0
LAYER
  5
200
330
2
100
AcDbSymbolTableRecord
100
AcDbLayerTableRecord
  2
1_ALL_PLANES
 70
     0
 62
     7
  6
CONTINUOUS
  0
LAYER
  5
201
330
2
100
AcDbSymbolTableRecord
100
AcDbLayerTableRecord
  2
2_ALL_CSYS
 70
     0
 62
     7
  6
CONTINUOUS
  0
LAYER
  5
202
330
2
100
AcDbSymbolTableRecord
100
AcDbLayerTableRecord
  2
2_ALL_NOTES
 70
     0
 62
     7
  6
CONTINUOUS
  0
LAYER
  5
203
330
2
100
AcDbSymbolTableRecord
100
AcDbLayerTableRecord
  2
3_ALL_AXES
 70
     0
 62
     7
  6
CONTINUOUS
  0
LAYER
  5
204
330
2
100
AcDbSymbolTableRecord
100
AcDbLayerTableRecord
  2
3__ALL_HOLES
 70
     0
 62
     7
  6
CONTINUOUS
  0
LAYER
  5
205
330
2
100
AcDbSymbolTableRecord
100
AcDbLayerTableRecord
  2
4_ALL_POINTS
 70
     0
 62
     7
  6
CONTINUOUS
  0
LAYER
  5
206
330
2
100
AcDbSymbolTableRecord
100
AcDbLayerTableRecord
  2
5_ALL_CURVES
 70
     0
 62
     7
  6
CONTINUOUS
  0
LAYER
  5
207
330
2
100
AcDbSymbolTableRecord
100
AcDbLayerTableRecord
  2
5_ALL_GTOLS_FREE_
 70
     0
 62
     7
  6
CONTINUOUS
  0
LAYER
  5
209
330
2
100
AcDbSymbolTableRecord
100
AcDbLayerTableRecord
  2
6_ALL_SFINS
 70
     0
 62
     7
  6
CONTINUOUS
  0
LAYER
  5
20A
330
2
100
AcDbSymbolTableRecord
100
AcDbLayerTableRecord
  2
6_ALL_SURFS
 70
     0
 62
     7
  6
CONTINUOUS
  0
LAYER
  5
20B
330
2
100
AcDbSymbolTableRecord
100
AcDbLayerTableRecord
  2
7_ALL_DRAFT_GEOMS
 70
     0
 62
     7
  6
CONTINUOUS
  0
LAYER
  5
20C
330
2
100
AcDbSymbolTableRecord
100
AcDbLayerTableRecord
  2
7_ALL_FEATURES
 70
     0
 62
     7
  6
CONTINUOUS
  0
LAYER
  5
20D
330
2
100
AcDbSymbolTableRecord
100
AcDbLayerTableRecord
  2
8_ALL_DTL_ITEMS
 70
     0
 62
     7
  6
CONTINUOUS
  0
LAYER
  5
20E
330
2
100
AcDbSymbolTableRecord
100
AcDbLayerTableRecord
  2
8_ALL_ROUNDS
 70
     0
 62
     7
  6
CONTINUOUS
  0
LAYER
  5
20F
330
2
100
AcDbSymbolTableRecord
100
AcDbLayerTableRecord
  2
8_ALL_ROUNS
 70
     0
 62
     7
  6
CONTINUOUS
  0
LAYER
  5
210
330
2
100
AcDbSymbolTableRecord
100
AcDbLayerTableRecord
  2
9_ALL_COSM_SKETCHS
 70
     0
 62
     7
  6
CONTINUOUS
  0
LAYER
  5
211
330
2
100
AcDbSymbolTableRecord
100
AcDbLayerTableRecord
  2
AXIS
 70
     0
 62
     7
  6
CONTINUOUS
  0
LAYER
  5
212
330
2
100
AcDbSymbolTableRecord
100
AcDbLayerTableRecord
  2
CHASSIS-FRONT
 70
     0
 62
     7
  6
CONTINUOUS
  0
LAYER
  5
213
330
2
100
AcDbSymbolTableRecord
100
AcDbLayerTableRecord
  2
CIT-772
 70
     0
 62
     7
  6
CONTINUOUS
  0
LAYER
  5
214
330
2
100
AcDbSymbolTableRecord
100
AcDbLayerTableRecord
  2
CIT-777
 70
     0
 62
     7
  6
CONTINUOUS
  0
LAYER
  5
215
330
2
100
AcDbSymbolTableRecord
100
AcDbLayerTableRecord
  2
CIT-8000
 70
     0
 62
     7
  6
CONTINUOUS
  0
LAYER
  5
216
330
2
100
AcDbSymbolTableRecord
100
AcDbLayerTableRecord
  2
CIT-8500
 70
     0
 62
     7
  6
CONTINUOUS
  0
LAYER
  5
217
330
2
100
AcDbSymbolTableRecord
100
AcDbLayerTableRecord
  2
CIT-8510
 70
     0
 62
     7
  6
CONTINUOUS
  0
LAYER
  5
218
330
2
100
AcDbSymbolTableRecord
100
AcDbLayerTableRecord
  2
CIT-9500
 70
     0
 62
     7
  6
CONTINUOUS
  0
LAYER
  5
219
330
2
100
AcDbSymbolTableRecord
100
AcDbLayerTableRecord
  2
CIT-9510
 70
     0
 62
     7
  6
CONTINUOUS
  0
LAYER
  5
21A
330
2
100
AcDbSymbolTableRecord
100
AcDbLayerTableRecord
  2
CSYS
 70
     0
 62
     7
  6
CONTINUOUS
  0
LAYER
  5
21B
330
2
100
AcDbSymbolTableRecord
100
AcDbLayerTableRecord
  2
DTM
 70
     0
 62
     7
  6
CONTINUOUS
  0
LAYER
  5
21C
330
2
100
AcDbSymbolTableRecord
100
AcDbLayerTableRecord
  2
FIX
 70
     0
 62
     7
  6
CONTINUOUS
  0
LAYER
  5
21D
330
2
100
AcDbSymbolTableRecord
100
AcDbLayerTableRecord
  2
HATCH1
 70
     0
 62
     7
  6
CONTINUOUS
  0
LAYER
  5
21E
330
2
100
AcDbSymbolTableRecord
100
AcDbLayerTableRecord
  2
HATCH2
 70
     0
 62
     7
  6
CONTINUOUS
  0
LAYER
  5
21F
330
2
100
AcDbSymbolTableRecord
100
AcDbLayerTableRecord
  2
LAY0001
 70
     0
 62
     7
  6
CONTINUOUS
  0
LAYER
  5
220
330
2
100
AcDbSymbolTableRecord
100
AcDbLayerTableRecord
  2
LENS
 70
     0
 62
     7
  6
CONTINUOUS
  0
LAYER
  5
221
330
2
100
AcDbSymbolTableRecord
100
AcDbLayerTableRecord
  2
LENS_COVER
 70
     0
 62
     7
  6
CONTINUOUS
  0
LAYER
  5
222
330
2
100
AcDbSymbolTableRecord
100
AcDbLayerTableRecord
  2
MOVE
 70
     0
 62
     7
  6
CONTINUOUS
  0
LAYER
  5
223
330
2
100
AcDbSymbolTableRecord
100
AcDbLayerTableRecord
  2
NOT_VCM
 70
     0
 62
     7
  6
CONTINUOUS
  0
LAYER
  5
224
330
2
100
AcDbSymbolTableRecord
100
AcDbLayerTableRecord
  2
PLN
 70
     0
 62
     7
  6
CONTINUOUS
  0
LAYER
  5
225
330
2
100
AcDbSymbolTableRecord
100
AcDbLayerTableRecord
  2
PNT
 70
     0
 62
     7
  6
CONTINUOUS
  0
LAYER
  5
226
330
2
100
AcDbSymbolTableRecord
100
AcDbLayerTableRecord
  2
VCM
 70
     0
 62
     7
  6
CONTINUOUS
  0
LAYER
  5
227
330
2
100
AcDbSymbolTableRecord
100
AcDbLayerTableRecord
  2
XSEC_DATUMS
 70
     0
 62
     7
  6
CONTINUOUS
  0
LAYER
  5
B96
330
2
100
AcDbSymbolTableRecord
100
AcDbLayerTableRecord
  2
DEFPOINTS
 70
     0
 62
     7
  6
CONTINUOUS
  0
ENDTAB
  0
TABLE
  2
STYLE
  5
3
330
0
100
AcDbSymbolTable
 70
     3
  0
STYLE
  5
11
330
3
100
AcDbSymbolTableRecord
100
AcDbTextStyleTableRecord
  2
STANDARD
 70
     0
 40
0.0
 41
0.8
 50
0.0
 71
     0
 42
0.2
  3
txt.shx
  4
bigfont.shx
  0
STYLE
  5
228
330
3
100
AcDbSymbolTableRecord
100
AcDbTextStyleTableRecord
  2
TEXTSTYLE_1
 70
     0
 40
0.0
 41
0.8
 50
0.0
 71
     0
 42
0.2
  3
txt
  4

  0
STYLE
  5
AEC
330
3
100
AcDbSymbolTableRecord
100
AcDbTextStyleTableRecord
  2
STANDARD1
 70
     0
 40
0.0
 41
1.0
 50
0.0
 71
     0
 42
4.0
  3
monotxt.shx
  4
bigfont.shx
  0
ENDTAB
  0
TABLE
  2
VIEW
  5
6
330
0
100
AcDbSymbolTable
 70
     0
  0
ENDTAB
  0
TABLE
  2
UCS
  5
7
330
0
100
AcDbSymbolTable
 70
     0
  0
ENDTAB
  0
TABLE
  2
APPID
  5
9
330
0
100
AcDbSymbolTable
 70
     1
  0
APPID
  5
229
330
9
100
AcDbSymbolTableRecord
100
AcDbRegAppTableRecord
  2
ACAD
 70
     0
  0
ENDTAB
  0
TABLE
  2
DIMSTYLE
  5
A
330
0
100
AcDbSymbolTable
 70
     7
  0
DIMSTYLE
105
22A
330
A
100
AcDbSymbolTableRecord
100
AcDbDimStyleTableRecord
  2
STANDARD
 70
     0
  3

  4

  5

  6

  7

 40
1.0
 41
2.0
 42
0.0625
 43
0.38
 44
0.18
 45
0.0
 46
0.0
 47
0.001
 48
0.001
140
2.799999999999998
141
0.09
142
0.0
143
25.4
144
1.0
145
0.0
146
1.0
147
0.09
 71
     1
 72
     0
 73
     0
 74
     0
 75
     0
 76
     0
 77
     1
 78
     8
170
     0
171
     2
172
     0
173
     0
174
     0
175
     0
176
     0
177
     0
178
     0
270
     2
271
     3
272
     3
273
     2
274
     2
340
11
275
     0
280
     0
281
     0
282
     0
283
     1
284
     8
285
     0
286
     0
287
     3
288
     0
  0
DIMSTYLE
105
22B
330
A
100
AcDbSymbolTableRecord
100
AcDbDimStyleTableRecord
  2
DIMSTYLE_1
 70
     0
  3

  4

  5

  6

  7

 40
1.0
 41
2.0
 42
0.0625
 43
0.38
 44
0.18
 45
0.0
 46
0.0
 47
0.5
 48
0.5
140
4.0
141
0.09
142
0.0
143
25.4
144
1.0
145
0.0
146
1.0
147
0.09
 71
     0
 72
     0
 73
     0
 74
     0
 75
     0
 76
     0
 77
     1
 78
     8
170
     0
171
     2
172
     0
173
     0
174
     0
175
     0
176
     0
177
     0
178
     0
270
     2
271
     0
272
     0
273
     2
274
     2
340
11
275
     0
280
     0
281
     0
282
     0
283
     1
284
     8
285
     0
286
     0
287
     3
288
     0
  0
DIMSTYLE
105
22C
330
A
100
AcDbSymbolTableRecord
100
AcDbDimStyleTableRecord
  2
DIMSTYLE_2
 70
     0
  3

  4

  5

  6

  7

 40
1.0
 41
2.0
 42
0.0625
 43
0.38
 44
0.18
 45
0.0
 46
0.0
 47
0.3
 48
0.3
140
4.0
141
0.09
142
0.0
143
25.4
144
1.0
145
0.0
146
1.0
147
0.09
 71
     0
 72
     0
 73
     0
 74
     0
 75
     0
 76
     0
 77
     1
 78
     8
170
     0
171
     2
172
     0
173
     0
174
     0
175
     0
176
     0
177
     0
178
     0
270
     2
271
     3
272
     3
273
     2
274
     2
340
11
275
     0
280
     0
281
     0
282
     0
283
     1
284
     8
285
     0
286
     0
287
     3
288
     0
  0
DIMSTYLE
105
22D
330
A
100
AcDbSymbolTableRecord
100
AcDbDimStyleTableRecord
  2
DIMSTYLE_3
 70
     0
  3

  4

  5

  6

  7

 40
1.0
 41
2.0
 42
0.0625
 43
0.38
 44
0.18
 45
0.0
 46
0.0
 47
0.3
 48
0.3
140
2.799999999999998
141
0.09
142
0.0
143
25.4
144
1.0
145
0.0
146
1.0
147
0.09
 71
     0
 72
     0
 73
     0
 74
     0
 75
     0
 76
     0
 77
     1
 78
     8
170
     0
171
     2
172
     0
173
     0
174
     0
175
     0
176
     0
177
     0
178
     0
270
     2
271
     3
272
     3
273
     2
274
     2
340
11
275
     0
280
     0
281
     0
282
     0
283
     1
284
     8
285
     0
286
     0
287
     3
288
     0
  0
DIMSTYLE
105
22E
330
A
100
AcDbSymbolTableRecord
100
AcDbDimStyleTableRecord
  2
DIMSTYLE_4
 70
     0
  3

  4

  5

  6

  7

 40
1.0
 41
2.0
 42
0.0625
 43
0.38
 44
0.18
 45
0.0
 46
0.0
 47
0.2
 48
0.2
140
2.799999999999998
141
0.09
142
0.0
143
25.4
144
1.0
145
0.0
146
1.0
147
0.09
 71
     0
 72
     0
 73
     0
 74
     0
 75
     0
 76
     0
 77
     1
 78
     8
170
     0
171
     2
172
     0
173
     0
174
     0
175
     0
176
     0
177
     0
178
     0
270
     2
271
     3
272
     3
273
     2
274
     2
340
11
275
     0
280
     0
281
     0
282
     0
283
     1
284
     8
285
     0
286
     0
287
     3
288
     0
  0
DIMSTYLE
105
22F
330
A
100
AcDbSymbolTableRecord
100
AcDbDimStyleTableRecord
  2
DIMSTYLE_5
 70
     0
  3

  4

  5

  6

  7

 40
1.0
 41
2.0
 42
0.0625
 43
0.38
 44
0.18
 45
0.0
 46
0.0
 47
0.2
 48
0.2
140
4.0
141
0.09
142
0.0
143
25.4
144
1.0
145
0.0
146
1.0
147
0.09
 71
     0
 72
     0
 73
     0
 74
     0
 75
     0
 76
     0
 77
     1
 78
     8
170
     0
171
     2
172
     0
173
     0
174
     0
175
     0
176
     0
177
     0
178
     0
270
     2
271
     3
272
     3
273
     2
274
     2
340
11
275
     0
280
     0
281
     0
282
     0
283
     1
284
     8
285
     0
286
     0
287
     3
288
     0
  0
DIMSTYLE
105
B97
102
{ACAD_REACTORS
330
11D5
330
12C9
330
1210
330
1211
330
1216
330
12D0
330
1433
102
}
330
A
100
AcDbSymbolTableRecord
100
AcDbDimStyleTableRecord
  2
NABE
 70
     0
  3

  4

  5

  6
OPEN30
  7
OPEN30
 40
1.0
 41
2.0
 42
1.0
 43
1.0
 44
1.0
 45
0.0
 46
0.0
 47
0.0
 48
0.0
140
2.799999999999999
141
2.5
142
0.0
143
0.0394
144
1.0
145
0.0
146
1.0
147
1.0
 71
     0
 72
     0
 73
     0
 74
     0
 75
     0
 76
     0
 77
     1
 78
     8
170
     0
171
     4
172
     1
173
     1
174
     0
175
     0
176
     0
177
     0
178
     0
270
     2
271
     2
272
     2
273
     8
274
     4
340
11
275
     0
280
     0
281
     0
282
     0
283
     1
284
     8
285
     0
286
     0
287
     3
288
     0
  0
ENDTAB
  0
TABLE
  2
BLOCK_RECORD
  5
1
330
0
100
AcDbSymbolTable
 70
    22
  0
BLOCK_RECORD
  5
1B
102
{ACAD_XDICTIONARY
360
B2C
102
}
330
1
100
AcDbSymbolTableRecord
100
AcDbBlockTableRecord
  2
*MODEL_SPACE
  0
BLOCK_RECORD
  5
1C
102
{ACAD_XDICTIONARY
360
B2E
102
}
330
1
100
AcDbSymbolTableRecord
100
AcDbBlockTableRecord
  2
*PAPER_SPACE
  0
BLOCK_RECORD
  5
B38
330
1
100
AcDbSymbolTableRecord
100
AcDbBlockTableRecord
  2
_OPEN30
  0
BLOCK_RECORD
  5
180E
330
1
100
AcDbSymbolTableRecord
100
AcDbBlockTableRecord
  2
*D15
  0
BLOCK_RECORD
  5
181A
330
1
100
AcDbSymbolTableRecord
100
AcDbBlockTableRecord
  2
*D16
  0
BLOCK_RECORD
  5
1826
330
1
100
AcDbSymbolTableRecord
100
AcDbBlockTableRecord
  2
*D17
  0
BLOCK_RECORD
  5
1834
330
1
100
AcDbSymbolTableRecord
100
AcDbBlockTableRecord
  2
*D18
  0
BLOCK_RECORD
  5
1840
330
1
100
AcDbSymbolTableRecord
100
AcDbBlockTableRecord
  2
*D19
  0
BLOCK_RECORD
  5
184C
330
1
100
AcDbSymbolTableRecord
100
AcDbBlockTableRecord
  2
*D20
  0
BLOCK_RECORD
  5
1858
330
1
100
AcDbSymbolTableRecord
100
AcDbBlockTableRecord
  2
*D21
  0
ENDTAB
  0
ENDSEC
  0
SECTION
  2
BLOCKS
  0
BLOCK
  5
1E
330
1B
100
AcDbEntity
  8
0
100
AcDbBlockBegin
  2
*MODEL_SPACE
 70
     0
 10
0.0
 20
0.0
 30
0.0
  3
*MODEL_SPACE
  1

  0
ENDBLK
  5
1F
330
1B
100
AcDbEntity
  8
0
100
AcDbBlockEnd
  0
BLOCK
  5
20
330
1C
100
AcDbEntity
 67
     1
  8
0
100
AcDbBlockBegin
  2
*PAPER_SPACE
 70
     0
 10
0.0
 20
0.0
 30
0.0
  3
*PAPER_SPACE
  1

  0
ENDBLK
  5
21
330
1C
100
AcDbEntity
 67
     1
  8
0
100
AcDbBlockEnd
  0
BLOCK
  5
B3C
330
B38
100
AcDbEntity
  8
0
100
AcDbBlockBegin
  2
_OPEN30
 70
     0
 10
0.0
 20
0.0
 30
0.0
  3
_OPEN30
  1

  0
LINE
  5
B39
330
B38
100
AcDbEntity
  8
0
  6
BYBLOCK
 62
     0
100
AcDbLine
 10
-1.0
 20
0.267949
 30
0.0
 11
0.0
 21
0.0
 31
0.0
  0
LINE
  5
B3A
330
B38
100
AcDbEntity
  8
0
  6
BYBLOCK
 62
     0
100
AcDbLine
 10
0.0
 20
0.0
 30
0.0
 11
-1.0
 21
-0.267949
 31
0.0
  0
LINE
  5
B3B
330
B38
100
AcDbEntity
  8
0
  6
BYBLOCK
 62
     0
100
AcDbLine
 10
0.0
 20
0.0
 30
0.0
 11
-1.0
 21
0.0
 31
0.0
  0
ENDBLK
  5
B3D
330
B38
100
AcDbEntity
  8
0
100
AcDbBlockEnd
  0
BLOCK
  5
1818
330
180E
100
AcDbEntity
  8
0
100
AcDbBlockBegin
  2
*D15
 70
     1
 10
0.0
 20
0.0
 30
0.0
  3
*D15
  1

  0
LINE
  5
197F
330
180E
100
AcDbEntity
  8
1_ALL_DRAFT_DIMS
  6
CONTINUOUS
 62
     0
100
AcDbLine
 10
212.9400955157289
 20
237.6488083608525
 30
0.0
 11
212.9400955157289
 21
271.7969963345525
 31
0.0
  0
LINE
  5
1980
330
180E
100
AcDbEntity
  8
1_ALL_DRAFT_DIMS
  6
CONTINUOUS
 62
     0
100
AcDbLine
 10
341.2400955157291
 20
247.1488083608525
 30
0.0
 11
341.2400955157291
 21
271.7969963345525
 31
0.0
  0
LINE
  5
1981
330
180E
100
AcDbEntity
  8
1_ALL_DRAFT_DIMS
  6
CONTINUOUS
 62
     0
100
AcDbLine
 10
214.9400955157289
 20
270.7969963345525
 30
0.0
 11
339.2400955157291
 21
270.7969963345525
 31
0.0
  0
INSERT
  5
1982
330
180E
100
AcDbEntity
  8
1_ALL_DRAFT_DIMS
  6
CONTINUOUS
 62
     0
100
AcDbBlockReference
  2
_OPEN30
 10
212.9400955157289
 20
270.7969963345525
 30
0.0
 41
2.0
 42
2.0
 43
2.0
 50
180.0
  0
INSERT
  5
1983
330
180E
100
AcDbEntity
  8
1_ALL_DRAFT_DIMS
  6
CONTINUOUS
 62
     0
100
AcDbBlockReference
  2
_OPEN30
 10
341.2400955157291
 20
270.7969963345525
 30
0.0
 41
2.0
 42
2.0
 43
2.0
  0
MTEXT
  5
1984
330
180E
100
AcDbEntity
  8
1_ALL_DRAFT_DIMS
  6
CONTINUOUS
 62
     0
100
AcDbMText
 10
276.4146653528287
 20
273.1969963345525
 30
0.0
 40
2.799999999999999
 41
0.0
 71
     5
 72
     1
  1
\A1;128.3
1001
ACAD
1000
MTEXTBEGIN
1070
    73
1070
     1
1070
    44
1040
1.0
1070
    74
1070
     0
1000
MTEXTEND
  0
POINT
  5
1985
330
180E
100
AcDbEntity
  8
DEFPOINTS
  6
CONTINUOUS
 62
     0
100
AcDbPoint
 10
212.9400955157289
 20
236.6488083608525
 30
0.0
  0
POINT
  5
1986
330
180E
100
AcDbEntity
  8
DEFPOINTS
  6
CONTINUOUS
 62
     0
100
AcDbPoint
 10
341.2400955157291
 20
246.1488083608525
 30
0.0
  0
POINT
  5
1987
330
180E
100
AcDbEntity
  8
DEFPOINTS
  6
CONTINUOUS
 62
     0
100
AcDbPoint
 10
341.2400955157291
 20
270.7969963345525
 30
0.0
  0
ENDBLK
  5
1819
330
180E
100
AcDbEntity
  8
0
100
AcDbBlockEnd
  0
BLOCK
  5
1824
330
181A
100
AcDbEntity
  8
0
100
AcDbBlockBegin
  2
*D16
 70
     1
 10
0.0
 20
0.0
 30
0.0
  3
*D16
  1

  0
LINE
  5
1988
330
181A
100
AcDbEntity
  8
1_ALL_DRAFT_DIMS
  6
CONTINUOUS
 62
     0
100
AcDbLine
 10
239.9400955157289
 20
118.9525335365525
 30
0.0
 11
239.9400955157289
 21
166.1425536011523
 31
0.0
  0
LINE
  5
1989
330
181A
100
AcDbEntity
  8
1_ALL_DRAFT_DIMS
  6
CONTINUOUS
 62
     0
100
AcDbLine
 10
269.9400955157289
 20
118.9525335365525
 30
0.0
 11
269.9400955157289
 21
166.1425536011523
 31
0.0
  0
LINE
  5
198A
330
181A
100
AcDbEntity
  8
1_ALL_DRAFT_DIMS
  6
CONTINUOUS
 62
     0
100
AcDbLine
 10
241.9400955157289
 20
165.1425536011523
 30
0.0
 11
267.9400955157289
 21
165.1425536011523
 31
0.0
  0
INSERT
  5
198B
330
181A
100
AcDbEntity
  8
1_ALL_DRAFT_DIMS
  6
CONTINUOUS
 62
     0
100
AcDbBlockReference
  2
_OPEN30
 10
239.9400955157289
 20
165.1425536011523
 30
0.0
 41
2.0
 42
2.0
 43
2.0
 50
180.0
  0
INSERT
  5
198C
330
181A
100
AcDbEntity
  8
1_ALL_DRAFT_DIMS
  6
CONTINUOUS
 62
     0
100
AcDbBlockReference
  2
_OPEN30
 10
269.9400955157289
 20
165.1425536011523
 30
0.0
 41
2.0
 42
2.0
 43
2.0
  0
MTEXT
  5
198D
330
181A
100
AcDbEntity
  8
1_ALL_DRAFT_DIMS
  6
CONTINUOUS
 62
     0
100
AcDbMText
 10
255.2262794780288
 20
167.5425536011523
 30
0.0
 40
2.799999999999999
 41
0.0
 71
     5
 72
     1
  1
\A1;30
1001
ACAD
1000
MTEXTBEGIN
1070
    73
1070
     1
1070
    44
1040
1.0
1070
    74
1070
     0
1000
MTEXTEND
  0
POINT
  5
198E
330
181A
100
AcDbEntity
  8
DEFPOINTS
  6
CONTINUOUS
 62
     0
100
AcDbPoint
 10
239.9400955157289
 20
117.9525335365525
 30
0.0
  0
POINT
  5
198F
330
181A
100
AcDbEntity
  8
DEFPOINTS
  6
CONTINUOUS
 62
     0
100
AcDbPoint
 10
269.9400955157289
 20
117.9525335365525
 30
0.0
  0
POINT
  5
1990
330
181A
100
AcDbEntity
  8
DEFPOINTS
  6
CONTINUOUS
 62
     0
100
AcDbPoint
 10
269.9400955157289
 20
165.1425536011523
 30
0.0
  0
ENDBLK
  5
1825
330
181A
100
AcDbEntity
  8
0
100
AcDbBlockEnd
  0
BLOCK
  5
1832
330
1826
100
AcDbEntity
  8
0
100
AcDbBlockBegin
  2
*D17
 70
     1
 10
0.0
 20
0.0
 30
0.0
  3
*D17
  1

  0
LINE
  5
1991
330
1826
100
AcDbEntity
  8
1_ALL_DRAFT_DIMS
  6
CONTINUOUS
 62
     0
100
AcDbLine
 10
129.5412750277292
 20
190.6488083608525
 30
0.0
 11
107.608384036329
 21
190.6488083608525
 31
0.0
  0
LINE
  5
1992
330
1826
100
AcDbEntity
  8
1_ALL_DRAFT_DIMS
  6
CONTINUOUS
 62
     0
100
AcDbLine
 10
143.0412750277292
 20
180.6488083608525
 30
0.0
 11
107.608384036329
 21
180.6488083608525
 31
0.0
  0
LINE
  5
1993
330
1826
100
AcDbEntity
  8
1_ALL_DRAFT_DIMS
  6
CONTINUOUS
 62
     0
100
AcDbLine
 10
108.608384036329
 20
188.6488083608525
 30
0.0
 11
108.608384036329
 21
182.6488083608525
 31
0.0
  0
INSERT
  5
1994
330
1826
100
AcDbEntity
  8
1_ALL_DRAFT_DIMS
  6
CONTINUOUS
 62
     0
100
AcDbBlockReference
  2
_OPEN30
 10
108.608384036329
 20
190.6488083608525
 30
0.0
 41
2.0
 42
2.0
 43
2.0
 50
90.0
  0
INSERT
  5
1995
330
1826
100
AcDbEntity
  8
1_ALL_DRAFT_DIMS
  6
CONTINUOUS
 62
     0
100
AcDbBlockReference
  2
_OPEN30
 10
108.608384036329
 20
180.6488083608525
 30
0.0
 41
2.0
 42
2.0
 43
2.0
 50
270.0
  0
MTEXT
  5
1996
330
1826
100
AcDbEntity
  8
1_ALL_DRAFT_DIMS
  6
CONTINUOUS
 62
     0
100
AcDbMText
 10
106.208384036329
 20
185.6488083608526
 30
0.0
 40
2.799999999999999
 41
0.0
 71
     5
 72
     1
  1
\A1;(10)
 11
0.0000000000000001
 21
1.0
 31
0.0
1001
ACAD
1000
MTEXTBEGIN
1070
    73
1070
     1
1070
    44
1040
1.0
1070
    74
1070
     0
1000
MTEXTEND
  0
POINT
  5
1997
330
1826
100
AcDbEntity
  8
DEFPOINTS
  6
CONTINUOUS
 62
     0
100
AcDbPoint
 10
130.5412750277292
 20
190.6488083608525
 30
0.0
  0
POINT
  5
1998
330
1826
100
AcDbEntity
  8
DEFPOINTS
  6
CONTINUOUS
 62
     0
100
AcDbPoint
 10
144.0412750277292
 20
180.6488083608525
 30
0.0
  0
POINT
  5
1999
330
1826
100
AcDbEntity
  8
DEFPOINTS
  6
CONTINUOUS
 62
     0
100
AcDbPoint
 10
108.608384036329
 20
180.6488083608525
 30
0.0
  0
ENDBLK
  5
1833
330
1826
100
AcDbEntity
  8
0
100
AcDbBlockEnd
  0
BLOCK
  5
183E
330
1834
100
AcDbEntity
  8
0
100
AcDbBlockBegin
  2
*D18
 70
     1
 10
0.0
 20
0.0
 30
0.0
  3
*D18
  1

  0
LINE
  5
199A
330
1834
100
AcDbEntity
  8
1_ALL_DRAFT_DIMS
  6
CONTINUOUS
 62
     0
100
AcDbLine
 10
126.0412750277292
 20
247.1488083608525
 30
0.0
 11
126.0412750277292
 21
268.9697285611524
 31
0.0
  0
LINE
  5
199B
330
1834
100
AcDbEntity
  8
1_ALL_DRAFT_DIMS
  6
CONTINUOUS
 62
     0
100
AcDbLine
 10
196.041275027729
 20
247.1488083608525
 30
0.0
 11
196.041275027729
 21
268.9697285611524
 31
0.0
  0
LINE
  5
199C
330
1834
100
AcDbEntity
  8
1_ALL_DRAFT_DIMS
  6
CONTINUOUS
 62
     0
100
AcDbLine
 10
128.0412750277292
 20
267.9697285611524
 30
0.0
 11
194.041275027729
 21
267.9697285611524
 31
0.0
  0
INSERT
  5
199D
330
1834
100
AcDbEntity
  8
1_ALL_DRAFT_DIMS
  6
CONTINUOUS
 62
     0
100
AcDbBlockReference
  2
_OPEN30
 10
126.0412750277292
 20
267.9697285611524
 30
0.0
 41
2.0
 42
2.0
 43
2.0
 50
180.0
  0
INSERT
  5
199E
330
1834
100
AcDbEntity
  8
1_ALL_DRAFT_DIMS
  6
CONTINUOUS
 62
     0
100
AcDbBlockReference
  2
_OPEN30
 10
196.041275027729
 20
267.9697285611524
 30
0.0
 41
2.0
 42
2.0
 43
2.0
  0
MTEXT
  5
199F
330
1834
100
AcDbEntity
  8
1_ALL_DRAFT_DIMS
  6
CONTINUOUS
 62
     0
100
AcDbMText
 10
159.523223054229
 20
270.3697285611524
 30
0.0
 40
2.799999999999999
 41
0.0
 71
     5
 72
     1
  1
\A1;70
1001
ACAD
1000
MTEXTBEGIN
1070
    73
1070
     1
1070
    44
1040
1.0
1070
    74
1070
     0
1000
MTEXTEND
  0
POINT
  5
19A0
330
1834
100
AcDbEntity
  8
DEFPOINTS
  6
CONTINUOUS
 62
     0
100
AcDbPoint
 10
126.0412750277292
 20
246.1488083608525
 30
0.0
  0
POINT
  5
19A1
330
1834
100
AcDbEntity
  8
DEFPOINTS
  6
CONTINUOUS
 62
     0
100
AcDbPoint
 10
196.041275027729
 20
246.1488083608525
 30
0.0
  0
POINT
  5
19A2
330
1834
100
AcDbEntity
  8
DEFPOINTS
  6
CONTINUOUS
 62
     0
100
AcDbPoint
 10
196.041275027729
 20
267.9697285611524
 30
0.0
  0
ENDBLK
  5
183F
330
1834
100
AcDbEntity
  8
0
100
AcDbBlockEnd
  0
BLOCK
  5
184A
330
1840
100
AcDbEntity
  8
0
100
AcDbBlockBegin
  2
*D19
 70
     1
 10
0.0
 20
0.0
 30
0.0
  3
*D19
  1

  0
LINE
  5
19A3
330
1840
100
AcDbEntity
  8
1_ALL_DRAFT_DIMS
  6
CONTINUOUS
 62
     0
100
AcDbLine
 10
129.5412750277292
 20
250.6488083608525
 30
0.0
 11
107.608384036329
 21
250.6488083608525
 31
0.0
  0
LINE
  5
19A4
330
1840
100
AcDbEntity
  8
1_ALL_DRAFT_DIMS
  6
CONTINUOUS
 62
     0
100
AcDbLine
 10
129.5412750277292
 20
190.6488083608525
 30
0.0
 11
107.608384036329
 21
190.6488083608525
 31
0.0
  0
LINE
  5
19A5
330
1840
100
AcDbEntity
  8
1_ALL_DRAFT_DIMS
  6
CONTINUOUS
 62
     0
100
AcDbLine
 10
108.608384036329
 20
248.6488083608525
 30
0.0
 11
108.608384036329
 21
192.6488083608525
 31
0.0
  0
INSERT
  5
19A6
330
1840
100
AcDbEntity
  8
1_ALL_DRAFT_DIMS
  6
CONTINUOUS
 62
     0
100
AcDbBlockReference
  2
_OPEN30
 10
108.608384036329
 20
250.6488083608525
 30
0.0
 41
2.0
 42
2.0
 43
2.0
 50
90.0
  0
INSERT
  5
19A7
330
1840
100
AcDbEntity
  8
1_ALL_DRAFT_DIMS
  6
CONTINUOUS
 62
     0
100
AcDbBlockReference
  2
_OPEN30
 10
108.608384036329
 20
190.6488083608525
 30
0.0
 41
2.0
 42
2.0
 43
2.0
 50
270.0
  0
MTEXT
  5
19A8
330
1840
100
AcDbEntity
  8
1_ALL_DRAFT_DIMS
  6
CONTINUOUS
 62
     0
100
AcDbMText
 10
106.208384036329
 20
220.5170956662525
 30
0.0
 40
2.799999999999999
 41
0.0
 71
     5
 72
     1
  1
\A1;60
 11
0.0000000000000001
 21
1.0
 31
0.0
1001
ACAD
1000
MTEXTBEGIN
1070
    73
1070
     1
1070
    44
1040
1.0
1070
    74
1070
     0
1000
MTEXTEND
  0
POINT
  5
19A9
330
1840
100
AcDbEntity
  8
DEFPOINTS
  6
CONTINUOUS
 62
     0
100
AcDbPoint
 10
130.5412750277292
 20
250.6488083608525
 30
0.0
  0
POINT
  5
19AA
330
1840
100
AcDbEntity
  8
DEFPOINTS
  6
CONTINUOUS
 62
     0
100
AcDbPoint
 10
130.5412750277292
 20
190.6488083608525
 30
0.0
  0
POINT
  5
19AB
330
1840
100
AcDbEntity
  8
DEFPOINTS
  6
CONTINUOUS
 62
     0
100
AcDbPoint
 10
108.608384036329
 20
190.6488083608525
 30
0.0
  0
ENDBLK
  5
184B
330
1840
100
AcDbEntity
  8
0
100
AcDbBlockEnd
  0
BLOCK
  5
1856
330
184C
100
AcDbEntity
  8
0
100
AcDbBlockBegin
  2
*D20
 70
     1
 10
0.0
 20
0.0
 30
0.0
  3
*D20
  1

  0
LINE
  5
19AC
330
184C
100
AcDbEntity
  8
1_ALL_DRAFT_DIMS
  6
CONTINUOUS
 62
     0
100
AcDbLine
 10
212.9400955157289
 20
127.3223008659525
 30
0.0
 11
212.9400955157289
 21
166.1425536011523
 31
0.0
  0
LINE
  5
19AD
330
184C
100
AcDbEntity
  8
1_ALL_DRAFT_DIMS
  6
CONTINUOUS
 62
     0
100
AcDbLine
 10
239.9400955157289
 20
118.9525335365525
 30
0.0
 11
239.9400955157289
 21
166.1425536011523
 31
0.0
  0
LINE
  5
19AE
330
184C
100
AcDbEntity
  8
1_ALL_DRAFT_DIMS
  6
CONTINUOUS
 62
     0
100
AcDbLine
 10
214.9400955157289
 20
165.1425536011523
 30
0.0
 11
237.9400955157289
 21
165.1425536011523
 31
0.0
  0
INSERT
  5
19AF
330
184C
100
AcDbEntity
  8
1_ALL_DRAFT_DIMS
  6
CONTINUOUS
 62
     0
100
AcDbBlockReference
  2
_OPEN30
 10
212.9400955157289
 20
165.1425536011523
 30
0.0
 41
2.0
 42
2.0
 43
2.0
 50
180.0
  0
INSERT
  5
19B0
330
184C
100
AcDbEntity
  8
1_ALL_DRAFT_DIMS
  6
CONTINUOUS
 62
     0
100
AcDbBlockReference
  2
_OPEN30
 10
239.9400955157289
 20
165.1425536011523
 30
0.0
 41
2.0
 42
2.0
 43
2.0
  0
MTEXT
  5
19B1
330
184C
100
AcDbEntity
  8
1_ALL_DRAFT_DIMS
  6
CONTINUOUS
 62
     0
100
AcDbMText
 10
226.4400955157289
 20
167.5425536011523
 30
0.0
 40
2.799999999999999
 41
0.0
 71
     5
 72
     1
  1
\A1;27
1001
ACAD
1000
MTEXTBEGIN
1070
    73
1070
     1
1070
    44
1040
1.0
1070
    74
1070
     0
1000
MTEXTEND
  0
POINT
  5
19B2
330
184C
100
AcDbEntity
  8
DEFPOINTS
  6
CONTINUOUS
 62
     0
100
AcDbPoint
 10
212.9400955157289
 20
126.3223008659525
 30
0.0
  0
POINT
  5
19B3
330
184C
100
AcDbEntity
  8
DEFPOINTS
  6
CONTINUOUS
 62
     0
100
AcDbPoint
 10
239.9400955157289
 20
117.9525335365525
 30
0.0
  0
POINT
  5
19B4
330
184C
100
AcDbEntity
  8
DEFPOINTS
  6
CONTINUOUS
 62
     0
100
AcDbPoint
 10
239.9400955157289
 20
165.1425536011523
 30
0.0
  0
ENDBLK
  5
1857
330
184C
100
AcDbEntity
  8
0
100
AcDbBlockEnd
  0
BLOCK
  5
1864
330
1858
100
AcDbEntity
  8
0
100
AcDbBlockBegin
  2
*D21
 70
     1
 10
0.0
 20
0.0
 30
0.0
  3
*D21
  1

  0
LINE
  5
19B5
330
1858
100
AcDbEntity
  8
1_ALL_DRAFT_DIMS
  6
CONTINUOUS
 62
     0
100
AcDbLine
 10
341.2400955157291
 20
247.1488083608525
 30
0.0
 11
341.2400955157291
 21
271.7969963345525
 31
0.0
  0
LINE
  5
19B6
330
1858
100
AcDbEntity
  8
1_ALL_DRAFT_DIMS
  6
CONTINUOUS
 62
     0
100
AcDbLine
 10
347.9400955157289
 20
233.6988083608524
 30
0.0
 11
347.9400955157289
 21
271.7969963345525
 31
0.0
  0
LINE
  5
19B7
330
1858
100
AcDbEntity
  8
1_ALL_DRAFT_DIMS
  6
CONTINUOUS
 62
     0
100
AcDbLine
 10
343.2400955157291
 20
270.7969963345525
 30
0.0
 11
345.9400955157289
 21
270.7969963345525
 31
0.0
  0
LINE
  5
19B8
330
1858
100
AcDbEntity
  8
1_ALL_DRAFT_DIMS
  6
CONTINUOUS
 62
     0
100
AcDbLine
 10
347.9400955157289
 20
270.7969963345525
 30
0.0
 11
360.1534288490622
 21
270.7969963345525
 31
0.0
  0
INSERT
  5
19B9
330
1858
100
AcDbEntity
  8
1_ALL_DRAFT_DIMS
  6
CONTINUOUS
 62
     0
100
AcDbBlockReference
  2
_OPEN30
 10
341.2400955157291
 20
270.7969963345525
 30
0.0
 41
2.0
 42
2.0
 43
2.0
 50
180.0
  0
INSERT
  5
19BA
330
1858
100
AcDbEntity
  8
1_ALL_DRAFT_DIMS
  6
CONTINUOUS
 62
     0
100
AcDbBlockReference
  2
_OPEN30
 10
347.9400955157289
 20
270.7969963345525
 30
0.0
 41
2.0
 42
2.0
 43
2.0
  0
MTEXT
  5
19BB
330
1858
100
AcDbEntity
  8
1_ALL_DRAFT_DIMS
  6
CONTINUOUS
 62
     0
100
AcDbMText
 10
355.4200955157289
 20
273.1969963345525
 30
0.0
 40
2.799999999999999
 41
0.0
 71
     5
 72
     1
  1
\A1;(6.7)
1001
ACAD
1000
MTEXTBEGIN
1070
    73
1070
     1
1070
    44
1040
1.0
1070
    74
1070
     0
1000
MTEXTEND
  0
POINT
  5
19BC
330
1858
100
AcDbEntity
  8
DEFPOINTS
  6
CONTINUOUS
 62
     0
100
AcDbPoint
 10
341.2400955157291
 20
246.1488083608525
 30
0.0
  0
POINT
  5
19BD
330
1858
100
AcDbEntity
  8
DEFPOINTS
  6
CONTINUOUS
 62
     0
100
AcDbPoint
 10
347.9400955157289
 20
232.6988083608525
 30
0.0
  0
POINT
  5
19BE
330
1858
100
AcDbEntity
  8
DEFPOINTS
  6
CONTINUOUS
 62
     0
100
AcDbPoint
 10
347.9400955157289
 20
270.7969963345525
 30
0.0
  0
ENDBLK
  5
1865
330
1858
100
AcDbEntity
  8
0
100
AcDbBlockEnd
  0
ENDSEC
  0
SECTION
  2
ENTITIES
  0
TEXT
  5
30B
330
1B
100
AcDbEntity
  8
0
  6
CONTINUOUS
 62
     2
100
AcDbText
 10
269.7799999999999
 20
13.0
 30
0.0
 40
3.0
  1
 
 41
0.8
 72
     1
 11
270.5
 21
13.0
 31
0.0
100
AcDbText
  0
TEXT
  5
30C
330
1B
100
AcDbEntity
  8
0
  6
CONTINUOUS
 62
     2
100
AcDbText
 10
284.7799999999999
 20
13.0
 30
0.0
 40
3.0
  1
 
 41
0.8
 72
     1
 11
285.5
 21
13.0
 31
0.0
100
AcDbText
  0
TEXT
  5
30E
330
1B
100
AcDbEntity
  8
0
  6
CONTINUOUS
 62
     2
100
AcDbText
 10
314.7799999999999
 20
13.0
 30
0.0
 40
3.0
  1
 
 41
0.8
 72
     1
 11
315.5
 21
13.0
 31
0.0
100
AcDbText
  0
TEXT
  5
AFC
330
1B
100
AcDbEntity
  8
0
100
AcDbText
 10
343.8818556174642
 20
65.07267570900066
 30
0.0
 40
4.0
  1
品名
  7
STANDARD1
100
AcDbText
  0
TEXT
  5
AFD
330
1B
100
AcDbEntity
  8
0
100
AcDbText
 10
343.8818556174642
 20
57.07267570900068
 30
0.0
 40
4.0
  1
型名
  7
STANDARD1
100
AcDbText
  0
LINE
  5
AFE
330
1B
100
AcDbEntity
  8
0
100
AcDbLine
 10
417.9465656174642
 20
55.40098970900068
 30
0.0
 11
337.9465656174641
 21
55.40098970900068
 31
0.0
  0
LINE
  5
AFF
330
1B
100
AcDbEntity
  8
0
100
AcDbLine
 10
417.9465656174642
 20
63.40098970900065
 30
0.0
 11
337.9465656174641
 21
63.40098970900065
 31
0.0
  0
LINE
  5
B00
330
1B
100
AcDbEntity
  8
0
100
AcDbLine
 10
417.9465656174642
 20
71.40098970900066
 30
0.0
 11
337.9465656174641
 21
71.40098970900066
 31
0.0
  0
LINE
  5
B01
330
1B
100
AcDbEntity
  8
0
100
AcDbLine
 10
337.9465656174641
 20
71.40098970900066
 30
0.0
 11
337.9465656174641
 21
55.40098970900068
 31
0.0
  0
TEXT
  5
B02
330
1B
100
AcDbEntity
  8
0
100
AcDbText
 10
359.8818556174642
 20
65.07267570900066
 30
0.0
 40
4.0
  1
カラーカメラ
  7
STANDARD1
100
AcDbText
  0
TEXT
  5
B03
330
1B
100
AcDbEntity
  8
0
100
AcDbText
 10
359.8818556174642
 20
57.07267570900068
 30
0.0
 40
4.0
  1
CIT-9510M
  7
STANDARD1
100
AcDbText
  0
LINE
  5
B04
330
1B
100
AcDbEntity
  8
0
100
AcDbLine
 10
357.9465656174642
 20
71.40098970900066
 30
0.0
 11
357.9465656174642
 21
55.40098970900068
 31
0.0
  0
LINE
  5
B05
330
1B
100
AcDbEntity
  8
0
100
AcDbLine
 10
417.9465656174642
 20
71.40098970900066
 30
0.0
 11
417.9465656174642
 21
55.40098970900068
 31
0.0
  0
DIMENSION
  5
11D5
330
1B
100
AcDbEntity
  8
1_ALL_DRAFT_DIMS
  6
CONTINUOUS
 62
     2
100
AcDbDimension
  2
*D15
 10
341.2400955157291
 20
270.7969963345525
 30
0.0
 11
276.4146653528287
 21
270.7969963345525
 31
0.0
 70
   160
  3
NABE
100
AcDbAlignedDimension
 13
212.9400955157289
 23
236.6488083608525
 33
0.0
 14
341.2400955157291
 24
246.1488083608525
 34
0.0
100
AcDbRotatedDimension
  0
LINE
  5
11D6
330
1B
100
AcDbEntity
  8
0
  6
CONTINUOUS
 62
     7
100
AcDbLine
 10
234.4400955157289
 20
127.8223008659525
 30
0.0
 11
282.4400955157289
 21
127.8223008659525
 31
0.0
  0
LINE
  5
11D7
330
1B
100
AcDbEntity
  8
0
  6
CONTINUOUS
 62
     7
100
AcDbLine
 10
331.0400955157291
 20
145.3223008659523
 30
0.0
 11
236.9400955157289
 21
145.3223008659523
 31
0.0
  0
LINE
  5
11D8
330
1B
100
AcDbEntity
  8
0
  6
CONTINUOUS
 62
     7
100
AcDbLine
 10
282.4400955157289
 20
180.6488083608525
 30
0.0
 11
234.4400955157289
 21
180.6488083608525
 31
0.0
  0
LINE
  5
11D9
330
1B
100
AcDbEntity
  8
0
  6
CONTINUOUS
 62
     7
100
AcDbLine
 10
331.0400955157291
 20
250.6488083608525
 30
0.0
 11
236.9400955157289
 21
250.6488083608525
 31
0.0
  0
LINE
  5
11DA
330
1B
100
AcDbEntity
  8
0
  6
CONTINUOUS
 62
     7
100
AcDbLine
 10
233.4400955157289
 20
190.6488083608525
 30
0.0
 11
331.0400955157291
 21
190.6488083608525
 31
0.0
  0
CIRCLE
  5
11DB
330
1B
100
AcDbEntity
  8
0
  6
CONTINUOUS
 62
     7
100
AcDbCircle
 10
269.9400955157289
 20
110.3223008659525
 30
0.0
 40
4.5
  0
LINE
  5
11DC
330
1B
100
AcDbEntity
  8
0
  6
CONTINUOUS
 62
     7
100
AcDbLine
 10
234.4400955157289
 20
92.82230086595253
 30
0.0
 11
282.4400955157289
 21
92.82230086595253
 31
0.0
  0
LINE
  5
11DD
330
1B
100
AcDbEntity
  8
0
  6
CONTINUOUS
 62
     7
100
AcDbLine
 10
331.0400955157291
 20
75.32230086595254
 30
0.0
 11
236.9400955157289
 21
75.32230086595254
 31
0.0
  0
LINE
  5
11DE
330
1B
100
AcDbEntity
  8
DEFAULT_1
  6
CENTER
 62
     7
100
AcDbLine
 10
269.9400955157289
 20
110.3223008659525
 30
0.0
 11
357.7022606705289
 21
110.3223008659525
 31
0.0
  0
LINE
  5
11DF
330
1B
100
AcDbEntity
  8
2_ALL_NOTES
  6
CONTINUOUS
 62
     2
100
AcDbLine
 10
271.558129504529
 20
111.4978713705525
 30
0.0
 11
298.319517613729
 21
150.4801844389524
 31
0.0
  0
LINE
  5
11E0
330
1B
100
AcDbEntity
  8
2_ALL_NOTES
  6
CONTINUOUS
 62
     2
100
AcDbLine
 10
243.0793544512289
 20
111.1634627625525
 30
0.0
 11
275.458172964929
 21
156.5182584076525
 31
0.0
  0
LINE
  5
11E1
330
1B
100
AcDbEntity
  8
2_ALL_NOTES
  6
CONTINUOUS
 62
     2
100
AcDbLine
 10
233.4400955157289
 20
113.4507018628525
 30
0.0
 11
207.4315085407288
 21
136.5437062696525
 31
0.0
  0
LINE
  5
11E2
330
1B
100
AcDbEntity
  8
0
  6
CONTINUOUS
 62
     7
100
AcDbLine
 10
213.4399734454289
 20
141.5223008659525
 30
0.0
 11
213.4400955157289
 21
81.84836959995257
 31
0.0
  0
LINE
  5
11E3
330
1B
100
AcDbEntity
  8
0
  6
CONTINUOUS
 62
     7
100
AcDbLine
 10
212.9400955157289
 20
94.8223008659526
 30
0.0
 11
212.9400955157289
 21
125.8223008659525
 31
0.0
  0
LINE
  5
11E4
330
1B
100
AcDbEntity
  8
0
  6
CONTINUOUS
 62
     7
100
AcDbLine
 10
233.4400955157289
 20
126.8223008659525
 30
0.0
 11
233.4400955157289
 21
93.82230086595255
 31
0.0
  0
LINE
  5
11E5
330
1B
100
AcDbEntity
  8
DEFAULT_1
  6
CENTER
 62
     7
100
AcDbLine
 10
239.9400955157289
 20
110.3223008659525
 30
0.0
 11
239.9400955157289
 21
117.4525335365524
 31
0.0
  0
LINE
  5
11E6
330
1B
100
AcDbEntity
  8
DEFAULT_1
  6
CENTER
 62
     7
100
AcDbLine
 10
269.9400955157289
 20
110.3223008659525
 30
0.0
 11
269.9400955157289
 21
117.4525335365524
 31
0.0
  0
LINE
  5
11E7
330
1B
100
AcDbEntity
  8
DEFAULT_1
  6
CENTER
 62
     7
100
AcDbLine
 10
239.9400955157289
 20
110.3223008659525
 30
0.0
 11
207.8795236810288
 21
110.3223008659525
 31
0.0
  0
CIRCLE
  5
11E8
330
1B
100
AcDbEntity
  8
0
  6
CONTINUOUS
 62
     7
100
AcDbCircle
 10
243.2400955157289
 20
96.82230086595254
 30
0.0
 40
2.547635303499999
  0
CIRCLE
  5
11E9
330
1B
100
AcDbEntity
  8
0
  6
CONTINUOUS
 62
     7
100
AcDbCircle
 10
243.2400955157289
 20
96.82230086595254
 30
0.0
 40
2.649999999999999
  0
CIRCLE
  5
11EA
330
1B
100
AcDbEntity
  8
0
  6
CONTINUOUS
 62
     7
100
AcDbCircle
 10
239.9400955157289
 20
110.3223008659525
 30
0.0
 40
3.25
  0
CIRCLE
  5
11EB
330
1B
100
AcDbEntity
  8
0
  6
CONTINUOUS
 62
     7
100
AcDbCircle
 10
239.9400955157289
 20
110.3223008659525
 30
0.0
 40
4.5
  0
ARC
  5
11EC
330
1B
100
AcDbEntity
  8
0
  6
CONTINUOUS
 62
     7
100
AcDbCircle
 10
243.2400955157289
 20
96.82230086595254
 30
0.0
 40
4.0
100
AcDbArc
 50
0.0
 51
180.0
  0
LINE
  5
11ED
330
1B
100
AcDbEntity
  8
DEFAULT_1
  6
CENTER
 62
     7
100
AcDbLine
 10
239.9400955157289
 20
110.3223008659525
 30
0.0
 11
265.4400955157289
 21
110.3223008659525
 31
0.0
  0
LINE
  5
11EE
330
1B
100
AcDbEntity
  8
0
  6
CONTINUOUS
 62
     7
100
AcDbLine
 10
216.2830876470289
 20
78.85248099565254
 30
0.0
 11
235.4662634939291
 21
77.84713334995254
 31
0.0
  0
ARC
  5
11EF
330
1B
100
AcDbEntity
  8
0
  6
CONTINUOUS
 62
     7
100
AcDbCircle
 10
216.4400955157289
 20
81.84836959995257
 30
0.0
 40
3.0
100
AcDbArc
 50
180.0
 51
267.0000000000009
  0
ARC
  5
11F0
330
1B
100
AcDbEntity
  8
0
  6
CONTINUOUS
 62
     7
100
AcDbCircle
 10
212.9400955157289
 20
94.32230086595254
 30
0.0
 40
0.5
100
AcDbArc
 50
22.499714759199
 51
90.0
  0
ARC
  5
11F1
330
1B
100
AcDbEntity
  8
0
  6
CONTINUOUS
 62
     7
100
AcDbCircle
 10
238.2400955157289
 20
93.82230086595255
 30
0.0
 40
1.0
100
AcDbArc
 50
270.0
 51
0.0
  0
ARC
  5
11F2
330
1B
100
AcDbEntity
  8
0
  6
CONTINUOUS
 62
     7
100
AcDbCircle
 10
234.4400955157289
 20
93.82230086595255
 30
0.0
 40
1.0
100
AcDbArc
 50
180.0
 51
270.0
  0
LINE
  5
11F3
330
1B
100
AcDbEntity
  8
0
  6
CONTINUOUS
 62
     7
100
AcDbLine
 10
239.4400955157289
 20
75.32230086595254
 30
0.0
 11
239.4400955157289
 21
92.82230086595253
 31
0.0
  0
LINE
  5
11F4
330
1B
100
AcDbEntity
  8
0
  6
CONTINUOUS
 62
     7
100
AcDbLine
 10
235.9400955157289
 20
92.82230086595253
 30
0.0
 11
235.9400955157289
 21
76.32230086595254
 31
0.0
  0
ARC
  5
11F5
330
1B
100
AcDbEntity
  8
0
  6
CONTINUOUS
 62
     7
100
AcDbCircle
 10
236.9400955157289
 20
76.32230086595254
 30
0.0
 40
1.0
100
AcDbArc
 50
180.0
 51
270.0
  0
ARC
  5
11F6
330
1B
100
AcDbEntity
  8
0
  6
CONTINUOUS
 62
     7
100
AcDbCircle
 10
235.4400955157289
 20
77.34781858545253
 30
0.0
 40
0.4999999996000001
100
AcDbArc
 50
359.9999996733992
 51
86.99999998289838
  0
LWPOLYLINE
  5
11F7
330
1B
100
AcDbEntity
  8
2_ALL_NOTES
  6
CONTINUOUS
 62
     2
100
AcDbPolyline
 90
        3
 70
     0
 43
0.0
 10
231.529573209629
 20
114.3112421105525
 10
233.4400955157289
 20
113.4507018628525
 10
232.359511127629
 20
115.2459629525524
  0
LINE
  5
11F8
330
1B
100
AcDbEntity
  8
DEFAULT_1
  6
CENTER
 62
     7
100
AcDbLine
 10
239.9400955157289
 20
110.3223008659525
 30
0.0
 11
239.9400955157289
 21
103.5415539087525
 31
0.0
  0
LINE
  5
11F9
330
1B
100
AcDbEntity
  8
0
  6
CONTINUOUS
 62
     7
100
AcDbLine
 10
239.2400955157289
 20
93.82230086595255
 30
0.0
 11
239.2400955157289
 21
96.82230086595254
 31
0.0
  0
LINE
  5
11FA
330
1B
100
AcDbEntity
  8
0
  6
CONTINUOUS
 62
     7
100
AcDbLine
 10
239.4400955157289
 20
113.5064746171525
 30
0.0
 11
239.4400955157289
 21
107.1381271147525
 31
0.0
  0
LINE
  5
11FB
330
1B
100
AcDbEntity
  8
0
  6
CONTINUOUS
 62
     7
100
AcDbLine
 10
237.840095515729
 20
112.7724031089524
 30
0.0
 11
237.840095515729
 21
107.8721986229525
 31
0.0
  0
LINE
  5
11FC
330
1B
100
AcDbEntity
  8
0
  6
CONTINUOUS
 62
     7
100
AcDbLine
 10
237.544653189829
 20
112.4935350567524
 30
0.0
 11
237.544653189829
 21
108.1510666750525
 31
0.0
  0
ARC
  5
11FD
330
1B
100
AcDbEntity
  8
0
  6
CONTINUOUS
 62
     7
100
AcDbCircle
 10
248.2400955157288
 20
93.82230086595255
 30
0.0
 40
1.0
100
AcDbArc
 50
180.0
 51
270.0
  0
LINE
  5
11FE
330
1B
100
AcDbEntity
  8
0
  6
CONTINUOUS
 62
     7
100
AcDbLine
 10
243.7400955157289
 20
98.32230086595254
 30
0.0
 11
243.7400955157289
 21
97.3223008659526
 31
0.0
  0
LINE
  5
11FF
330
1B
100
AcDbEntity
  8
0
  6
CONTINUOUS
 62
     7
100
AcDbLine
 10
244.7400955157289
 20
97.3223008659526
 30
0.0
 11
244.7400955157289
 21
96.32230086595255
 31
0.0
  0
LINE
  5
1200
330
1B
100
AcDbEntity
  8
0
  6
CONTINUOUS
 62
     7
100
AcDbLine
 10
244.7400955157289
 20
96.32230086595255
 30
0.0
 11
243.7400955157289
 21
96.32230086595255
 31
0.0
  0
LINE
  5
1201
330
1B
100
AcDbEntity
  8
0
  6
CONTINUOUS
 62
     7
100
AcDbLine
 10
243.7400955157289
 20
96.32230086595255
 30
0.0
 11
243.7400955157289
 21
95.32230086595253
 31
0.0
  0
LINE
  5
1202
330
1B
100
AcDbEntity
  8
0
  6
CONTINUOUS
 62
     7
100
AcDbLine
 10
243.7400955157289
 20
97.3223008659526
 30
0.0
 11
244.7400955157289
 21
97.3223008659526
 31
0.0
  0
LINE
  5
1203
330
1B
100
AcDbEntity
  8
0
  6
CONTINUOUS
 62
     7
100
AcDbLine
 10
242.7400955157289
 20
97.3223008659526
 30
0.0
 11
242.7400955157289
 21
98.32230086595254
 31
0.0
  0
LINE
  5
1204
330
1B
100
AcDbEntity
  8
0
  6
CONTINUOUS
 62
     7
100
AcDbLine
 10
241.7400955157289
 20
96.32230086595255
 30
0.0
 11
241.7400955157289
 21
97.3223008659526
 31
0.0
  0
LINE
  5
1205
330
1B
100
AcDbEntity
  8
0
  6
CONTINUOUS
 62
     7
100
AcDbLine
 10
242.7400955157289
 20
96.32230086595255
 30
0.0
 11
241.7400955157289
 21
96.32230086595255
 31
0.0
  0
LINE
  5
1206
330
1B
100
AcDbEntity
  8
0
  6
CONTINUOUS
 62
     7
100
AcDbLine
 10
242.7400955157289
 20
95.32230086595253
 30
0.0
 11
242.7400955157289
 21
96.32230086595255
 31
0.0
  0
LINE
  5
1207
330
1B
100
AcDbEntity
  8
0
  6
CONTINUOUS
 62
     7
100
AcDbLine
 10
241.7400955157289
 20
97.3223008659526
 30
0.0
 11
242.7400955157289
 21
97.3223008659526
 31
0.0
  0
LINE
  5
1208
330
1B
100
AcDbEntity
  8
0
  6
CONTINUOUS
 62
     7
100
AcDbLine
 10
243.7400955157289
 20
95.32230086595253
 30
0.0
 11
242.7400955157289
 21
95.32230086595253
 31
0.0
  0
LINE
  5
1209
330
1B
100
AcDbEntity
  8
0
  6
CONTINUOUS
 62
     7
100
AcDbLine
 10
242.7400955157289
 20
98.32230086595254
 30
0.0
 11
243.7400955157289
 21
98.32230086595254
 31
0.0
  0
LINE
  5
120A
330
1B
100
AcDbEntity
  8
0
  6
CONTINUOUS
 62
     7
100
AcDbLine
 10
247.2400955157289
 20
96.82230086595254
 30
0.0
 11
247.2400955157289
 21
93.82230086595255
 31
0.0
  0
LWPOLYLINE
  5
120B
330
1B
100
AcDbEntity
  8
2_ALL_NOTES
  6
CONTINUOUS
 62
     2
100
AcDbPolyline
 90
        3
 70
     0
 43
0.0
 10
243.732739728529
 20
113.1543702639524
 10
243.0793544512289
 20
111.1634627625525
 10
244.7500918152289
 20
112.4280819385525
  0
LINE
  5
120C
330
1B
100
AcDbEntity
  8
DEFAULT_1
  6
CENTER
 62
     7
100
AcDbLine
 10
269.9400955157289
 20
110.3223008659525
 30
0.0
 11
269.9400955157289
 21
103.4320186360525
 31
0.0
  0
LINE
  5
120D
330
1B
100
AcDbEntity
  8
DEFAULT_1
  6
CENTER
 62
     7
100
AcDbLine
 10
269.9400955157289
 20
110.3223008659525
 30
0.0
 11
265.4400955157289
 21
110.3223008659525
 31
0.0
  0
CIRCLE
  5
120E
330
1B
100
AcDbEntity
  8
0
  6
CONTINUOUS
 62
     7
100
AcDbCircle
 10
269.9400955157289
 20
110.3223008659525
 30
0.0
 40
2.0
  0
LWPOLYLINE
  5
120F
330
1B
100
AcDbEntity
  8
2_ALL_NOTES
  6
CONTINUOUS
 62
     2
100
AcDbPolyline
 90
        3
 70
     0
 43
0.0
 10
272.1748016645288
 20
113.5004548137524
 10
271.558129504529
 20
111.4978713705525
 10
273.2053345574291
 20
112.7929931846525
  0
DIMENSION
  5
1210
330
1B
100
AcDbEntity
  8
1_ALL_DRAFT_DIMS
  6
CONTINUOUS
 62
     2
100
AcDbDimension
  2
*D17
 10
108.608384036329
 20
180.6488083608525
 30
0.0
 11
108.608384036329
 21
185.6488083608526
 31
0.0
 70
   160
  1
(<>)
  3
NABE
100
AcDbAlignedDimension
 13
130.5412750277292
 23
190.6488083608525
 33
0.0
 14
144.0412750277292
 24
180.6488083608525
 34
0.0
 50
270.0
100
AcDbRotatedDimension
  0
DIMENSION
  5
1211
330
1B
100
AcDbEntity
  8
1_ALL_DRAFT_DIMS
  6
CONTINUOUS
 62
     2
100
AcDbDimension
  2
*D18
 10
196.041275027729
 20
267.9697285611524
 30
0.0
 11
159.523223054229
 21
267.9697285611524
 31
0.0
 70
   160
  3
NABE
100
AcDbAlignedDimension
 13
126.0412750277292
 23
246.1488083608525
 33
0.0
 14
196.041275027729
 24
246.1488083608525
 34
0.0
100
AcDbRotatedDimension
1001
ACAD
1000
DSTYLE
1002
{
1070
   140
1040
2.799999999999999
1002
}
  0
LINE
  5
1212
330
1B
100
AcDbEntity
  8
0
  6
CONTINUOUS
 62
     7
100
AcDbLine
 10
136.0412750277292
 20
250.7488083608525
 30
0.0
 11
144.8912750277291
 21
250.7488083608525
 31
0.0
  0
LINE
  5
1213
330
1B
100
AcDbEntity
  8
0
  6
CONTINUOUS
 62
     7
100
AcDbLine
 10
131.0412750277292
 20
190.6488083608525
 30
0.0
 11
191.041275027729
 21
190.6488083608525
 31
0.0
  0
LINE
  5
1214
330
1B
100
AcDbEntity
  8
0
  6
CONTINUOUS
 62
     7
100
AcDbLine
 10
131.0412750277292
 20
250.6488083608525
 30
0.0
 11
191.041275027729
 21
250.6488083608525
 31
0.0
  0
LINE
  5
1215
330
1B
100
AcDbEntity
  8
DEFAULT_1
  6
CENTER
 62
     7
100
AcDbLine
 10
161.0412750277292
 20
220.6488083608524
 30
0.0
 11
121.9190022731291
 21
220.6488083608524
 31
0.0
  0
DIMENSION
  5
1216
330
1B
100
AcDbEntity
  8
1_ALL_DRAFT_DIMS
  6
CONTINUOUS
 62
     2
100
AcDbDimension
  2
*D19
 10
108.608384036329
 20
190.6488083608525
 30
0.0
 11
108.608384036329
 21
220.5170956662525
 31
0.0
 70
   160
  3
NABE
100
AcDbAlignedDimension
 13
130.5412750277292
 23
250.6488083608525
 33
0.0
 14
130.5412750277292
 24
190.6488083608525
 34
0.0
 50
270.0
100
AcDbRotatedDimension
  0
LINE
  5
1217
330
1B
100
AcDbEntity
  8
0
  6
CONTINUOUS
 62
     7
100
AcDbLine
 10
126.0412750277292
 20
195.6488083608524
 30
0.0
 11
126.0412750277292
 21
245.6488083608524
 31
0.0
  0
ARC
  5
1218
330
1B
100
AcDbEntity
  8
0
  6
CONTINUOUS
 62
     7
100
AcDbCircle
 10
131.0412750277292
 20
195.6488083608524
 30
0.0
 40
5.0
100
AcDbArc
 50
180.0
 51
270.0
  0
ARC
  5
1219
330
1B
100
AcDbEntity
  8
0
  6
CONTINUOUS
 62
     7
100
AcDbCircle
 10
131.0412750277292
 20
245.6488083608524
 30
0.0
 40
5.0
100
AcDbArc
 50
90.0
 51
180.0
  0
LINE
  5
121A
330
1B
100
AcDbEntity
  8
0
  6
CONTINUOUS
 62
     7
100
AcDbLine
 10
136.0412750277292
 20
250.6488083608525
 30
0.0
 11
136.0412750277292
 21
250.7488083608525
 31
0.0
  0
LINE
  5
121B
330
1B
100
AcDbEntity
  8
0
  6
CONTINUOUS
 62
     7
100
AcDbLine
 10
191.571731110929
 20
211.1487712911523
 30
0.0
 11
191.571731110929
 21
206.6488074217525
 31
0.0
  0
LINE
  5
121C
330
1B
100
AcDbEntity
  8
0
  6
CONTINUOUS
 62
     7
100
AcDbLine
 10
192.6240670672289
 20
223.6488083608525
 30
0.0
 11
192.6240670672289
 21
205.6488083608524
 31
0.0
  0
LINE
  5
121D
330
1B
100
AcDbEntity
  8
0
  6
CONTINUOUS
 62
     7
100
AcDbLine
 10
196.041275027729
 20
245.6488083608524
 30
0.0
 11
196.041275027729
 21
195.6488083608524
 31
0.0
  0
ARC
  5
121E
330
1B
100
AcDbEntity
  8
0
  6
CONTINUOUS
 62
     7
100
AcDbCircle
 10
185.0412750277292
 20
214.6488083608524
 30
0.0
 40
8.0
100
AcDbArc
 50
90.0
 51
270.0
  0
LINE
  5
121F
330
1B
100
AcDbEntity
  8
0
  6
CONTINUOUS
 62
     7
100
AcDbLine
 10
168.9073004314291
 20
209.0244527078525
 30
0.0
 11
167.1752496239292
 21
208.0244527078526
 31
0.0
  0
ARC
  5
1220
330
1B
100
AcDbEntity
  8
0
  6
CONTINUOUS
 62
     7
100
AcDbCircle
 10
185.0412750277292
 20
214.6488083608524
 30
0.0
 40
6.75
100
AcDbArc
 50
188.5196242541
 51
171.4803757458999
  0
CIRCLE
  5
1221
330
1B
100
AcDbEntity
  8
0
  6
CONTINUOUS
 62
     7
100
AcDbCircle
 10
185.0412750277292
 20
214.6488083608524
 30
0.0
 40
7.2
  0
CIRCLE
  5
1222
330
1B
100
AcDbEntity
  8
0
  6
CONTINUOUS
 62
     7
100
AcDbCircle
 10
185.0412750277292
 20
214.6488083608524
 30
0.0
 40
7.5
  0
LINE
  5
1223
330
1B
100
AcDbEntity
  8
DEFAULT_1
  6
CENTER
 62
     7
100
AcDbLine
 10
161.0412750277292
 20
220.6488083608524
 30
0.0
 11
161.0412750277292
 21
175.9038990208526
 31
0.0
  0
CIRCLE
  5
1224
330
1B
100
AcDbEntity
  8
0
  6
CONTINUOUS
 62
     7
100
AcDbCircle
 10
161.0412750277292
 20
220.6488083608524
 30
0.0
 40
12.75
  0
CIRCLE
  5
1225
330
1B
100
AcDbEntity
  8
0
  6
CONTINUOUS
 62
     7
100
AcDbCircle
 10
161.0412750277292
 20
220.6488083608524
 30
0.0
 40
15.5
  0
ARC
  5
1226
330
1B
100
AcDbEntity
  8
0
  6
CONTINUOUS
 62
     7
100
AcDbCircle
 10
161.0412750277292
 20
220.6488083608524
 30
0.0
 40
14.5
100
AcDbArc
 50
183.9545721220998
 51
296.0454278778964
  0
LINE
  5
1227
330
1B
100
AcDbEntity
  8
2_ALL_NOTES
  6
CONTINUOUS
 62
     2
100
AcDbLine
 10
205.4315085407288
 20
136.5437062696525
 30
0.0
 11
179.3491884855267
 21
136.5437062696525
 31
0.0
  0
TEXT
  5
1228
330
1B
100
AcDbEntity
  8
2_ALL_NOTES
  6
CONTINUOUS
 62
     2
100
AcDbText
 10
182.7110990761544
 20
141.9130031460501
 30
0.0
 40
2.799999999999999
  1
絶縁取付アダプタ
 41
0.8
100
AcDbText
  0
TEXT
  5
1229
330
1B
100
AcDbEntity
  8
2_ALL_NOTES
  6
CONTINUOUS
 62
     2
100
AcDbText
 10
180.4710990761546
 20
137.2437062696525
 30
0.0
 40
2.799999999999999
  1
（天面に移設可能）
 41
0.8
100
AcDbText
  0
LINE
  5
122A
330
1B
100
AcDbEntity
  8
0
  6
CONTINUOUS
 62
     7
100
AcDbLine
 10
177.541275027729
 20
180.6488083608525
 30
0.0
 11
144.5412750277292
 21
180.6488083608525
 31
0.0
  0
LINE
  5
122B
330
1B
100
AcDbEntity
  8
0
  6
CONTINUOUS
 62
     7
100
AcDbLine
 10
155.941275027729
 20
191.6488083608525
 30
0.0
 11
166.1412750277291
 21
191.6488083608525
 31
0.0
  0
LINE
  5
122C
330
1B
100
AcDbEntity
  8
0
  6
CONTINUOUS
 62
     7
100
AcDbLine
 10
166.1412750277291
 20
191.8009028141525
 30
0.0
 11
155.941275027729
 21
191.8009028141525
 31
0.0
  0
LINE
  5
122D
330
1B
100
AcDbEntity
  8
0
  6
CONTINUOUS
 62
     7
100
AcDbLine
 10
171.1412750277291
 20
191.4488083608524
 30
0.0
 11
150.941275027729
 21
191.4488083608524
 31
0.0
  0
LINE
  5
122E
330
1B
100
AcDbEntity
  8
0
  6
CONTINUOUS
 62
     7
100
AcDbLine
 10
171.1412750277291
 20
192.0838296241525
 30
0.0
 11
150.941275027729
 21
192.0838296241525
 31
0.0
  0
LINE
  5
122F
330
1B
100
AcDbEntity
  8
0
  6
CONTINUOUS
 62
     7
100
AcDbLine
 10
143.5412750277292
 20
190.6488083608525
 30
0.0
 11
143.5412750277292
 21
181.6488083608525
 31
0.0
  0
ARC
  5
1230
330
1B
100
AcDbEntity
  8
0
  6
CONTINUOUS
 62
     7
100
AcDbCircle
 10
144.5412750277292
 20
181.6488083608525
 30
0.0
 40
1.0
100
AcDbArc
 50
180.0
 51
270.0
  0
LINE
  5
1231
330
1B
100
AcDbEntity
  8
0
  6
CONTINUOUS
 62
     7
100
AcDbLine
 10
155.941275027729
 20
191.4666851916526
 30
0.0
 11
150.941275027729
 21
191.4666851916526
 31
0.0
  0
LINE
  5
1232
330
1B
100
AcDbEntity
  8
0
  6
CONTINUOUS
 62
     7
100
AcDbLine
 10
150.941275027729
 20
190.6488083608525
 30
0.0
 11
150.941275027729
 21
192.0838296241525
 31
0.0
  0
LINE
  5
1233
330
1B
100
AcDbEntity
  8
0
  6
CONTINUOUS
 62
     7
100
AcDbLine
 10
155.0412750277292
 20
191.4488083608524
 30
0.0
 11
155.0412750277292
 21
191.4666851916526
 31
0.0
  0
LINE
  5
1234
330
1B
100
AcDbEntity
  8
0
  6
CONTINUOUS
 62
     7
100
AcDbLine
 10
155.941275027729
 20
191.8009028141525
 30
0.0
 11
155.941275027729
 21
191.4666851916526
 31
0.0
  0
LINE
  5
1235
330
1B
100
AcDbEntity
  8
0
  6
CONTINUOUS
 62
     7
100
AcDbLine
 10
157.1173222543291
 20
191.8009028141525
 30
0.0
 11
157.0412750277292
 21
191.6488083608525
 31
0.0
  0
LINE
  5
1236
330
1B
100
AcDbEntity
  8
0
  6
CONTINUOUS
 62
     7
100
AcDbLine
 10
171.1412750277291
 20
191.4666851916526
 30
0.0
 11
166.1412750277291
 21
191.4666851916526
 31
0.0
  0
LINE
  5
1237
330
1B
100
AcDbEntity
  8
0
  6
CONTINUOUS
 62
     7
100
AcDbLine
 10
159.7912750277292
 20
191.4488083608524
 30
0.0
 11
159.7912750277292
 21
191.6488083608525
 31
0.0
  0
LINE
  5
1238
330
1B
100
AcDbEntity
  8
0
  6
CONTINUOUS
 62
     7
100
AcDbLine
 10
162.2912750277292
 20
191.4488083608524
 30
0.0
 11
162.2912750277292
 21
191.6488083608525
 31
0.0
  0
LINE
  5
1239
330
1B
100
AcDbEntity
  8
0
  6
CONTINUOUS
 62
     7
100
AcDbLine
 10
164.965227801029
 20
191.8009028141525
 30
0.0
 11
165.0412750277292
 21
191.6488083608525
 31
0.0
  0
LINE
  5
123A
330
1B
100
AcDbEntity
  8
0
  6
CONTINUOUS
 62
     7
100
AcDbLine
 10
166.1412750277291
 20
191.8009028141525
 30
0.0
 11
166.1412750277291
 21
191.4666851916526
 31
0.0
  0
LINE
  5
123B
330
1B
100
AcDbEntity
  8
0
  6
CONTINUOUS
 62
     7
100
AcDbLine
 10
167.1752496239292
 20
208.0244527078526
 30
0.0
 11
167.4079876946289
 21
207.6213385444525
 31
0.0
  0
LINE
  5
123C
330
1B
100
AcDbEntity
  8
0
  6
CONTINUOUS
 62
     7
100
AcDbLine
 10
171.1412750277291
 20
190.6488083608525
 30
0.0
 11
171.1412750277291
 21
192.0838296241525
 31
0.0
  0
LINE
  5
123D
330
1B
100
AcDbEntity
  8
2_ALL_NOTES
  6
CONTINUOUS
 62
     2
100
AcDbLine
 10
207.4315085407288
 20
136.5437062696525
 30
0.0
 11
205.4315085407288
 21
136.5437062696525
 31
0.0
  0
ARC
  5
123E
330
1B
100
AcDbEntity
  8
0
  6
CONTINUOUS
 62
     7
100
AcDbCircle
 10
191.041275027729
 20
195.6488083608524
 30
0.0
 40
5.0
100
AcDbArc
 50
270.0
 51
0.0
  0
LWPOLYLINE
  5
123F
330
1B
100
AcDbEntity
  8
0
  6
CONTINUOUS
 62
     7
100
AcDbPolyline
 90
        7
 70
     0
 43
0.0
 10
191.571731110929
 20
206.6488074217525
 10
191.871500985329
 20
206.6070852848526
 10
192.1291327816291
 20
206.4966028526525
 10
192.3403919272291
 20
206.3313975010525
 10
192.496908856629
 20
206.1250187687525
 10
192.5941181664291
 20
205.8855216253526
 10
192.6240670672289
 20
205.6488083608524
  0
LINE
  5
1240
330
1B
100
AcDbEntity
  8
0
  6
CONTINUOUS
 62
     7
100
AcDbLine
 10
178.541275027729
 20
190.6488083608525
 30
0.0
 11
178.541275027729
 21
181.6488083608525
 31
0.0
  0
ARC
  5
1241
330
1B
100
AcDbEntity
  8
0
  6
CONTINUOUS
 62
     7
100
AcDbCircle
 10
177.541275027729
 20
181.6488083608525
 30
0.0
 40
1.0
100
AcDbArc
 50
270.0
 51
0.0
  0
LINE
  5
1242
330
1B
100
AcDbEntity
  8
0
  6
CONTINUOUS
 62
     7
100
AcDbLine
 10
191.570288001029
 20
206.6488083608525
 30
0.0
 11
185.0412750277292
 21
206.6488083608525
 31
0.0
  0
LINE
  5
1243
330
1B
100
AcDbEntity
  8
0
  6
CONTINUOUS
 62
     7
100
AcDbLine
 10
177.0889103312291
 20
251.8188421953525
 30
0.0
 11
171.993639724129
 21
251.8188421953525
 31
0.0
  0
ARC
  5
1244
330
1B
100
AcDbEntity
  8
0
  6
CONTINUOUS
 62
     7
100
AcDbCircle
 10
174.541275027729
 20
242.1488083608525
 30
0.0
 40
9.9874921777
100
AcDbArc
 50
81.36218697280284
 51
87.13042380410177
  0
LINE
  5
1245
330
1B
100
AcDbEntity
  8
DEFAULT_1
  6
CENTER
 62
     7
100
AcDbLine
 10
161.0412750277292
 20
220.6488083608524
 30
0.0
 11
200.5424241873291
 21
220.6488083608524
 31
0.0
  0
LINE
  5
1246
330
1B
100
AcDbEntity
  8
DEFAULT_1
  6
CENTER
 62
     7
100
AcDbLine
 10
161.0412750277292
 20
220.6488083608524
 30
0.0
 11
161.0412750277292
 21
256.5322897998524
 31
0.0
  0
ARC
  5
1247
330
1B
100
AcDbEntity
  8
0
  6
CONTINUOUS
 62
     7
100
AcDbCircle
 10
161.0412750277292
 20
242.1488083608525
 30
0.0
 40
9.9874921777
100
AcDbArc
 50
92.86957619589824
 51
98.63781302719715
  0
LINE
  5
1248
330
1B
100
AcDbEntity
  8
0
  6
CONTINUOUS
 62
     7
100
AcDbLine
 10
166.1412750277291
 20
249.4967139075526
 30
0.0
 11
155.941275027729
 21
249.4967139075526
 31
0.0
  0
LINE
  5
1249
330
1B
100
AcDbEntity
  8
0
  6
CONTINUOUS
 62
     7
100
AcDbLine
 10
163.5889103312291
 20
251.8188421953525
 30
0.0
 11
158.493639724129
 21
251.8188421953525
 31
0.0
  0
LINE
  5
124A
330
1B
100
AcDbEntity
  8
0
  6
CONTINUOUS
 62
     7
100
AcDbLine
 10
155.0412750277292
 20
215.1488083608525
 30
0.0
 11
167.0412750277292
 21
215.1488083608525
 31
0.0
  0
LINE
  5
124B
330
1B
100
AcDbEntity
  8
0
  6
CONTINUOUS
 62
     7
100
AcDbLine
 10
167.0412750277292
 20
226.1488083608525
 30
0.0
 11
155.0412750277292
 21
226.1488083608525
 31
0.0
  0
LINE
  5
124C
330
1B
100
AcDbEntity
  8
0
  6
CONTINUOUS
 62
     7
100
AcDbLine
 10
171.1412750277291
 20
249.2137870974525
 30
0.0
 11
150.941275027729
 21
249.2137870974525
 31
0.0
  0
LINE
  5
124D
330
1B
100
AcDbEntity
  8
0
  6
CONTINUOUS
 62
     7
100
AcDbLine
 10
150.941275027729
 20
249.8488083608524
 30
0.0
 11
171.1412750277291
 21
249.8488083608524
 31
0.0
  0
CIRCLE
  5
124E
330
1B
100
AcDbEntity
  8
0
  6
CONTINUOUS
 62
     7
100
AcDbCircle
 10
161.0412750277292
 20
220.6488083608524
 30
0.0
 40
12.25
  0
ARC
  5
124F
330
1B
100
AcDbEntity
  8
0
  6
CONTINUOUS
 62
     7
100
AcDbCircle
 10
161.0412750277292
 20
220.6488083608524
 30
0.0
 40
14.5
100
AcDbArc
 50
63.95457212210359
 51
176.0454278779001
  0
LINE
  5
1250
330
1B
100
AcDbEntity
  8
0
  6
CONTINUOUS
 62
     7
100
AcDbLine
 10
147.0412750277292
 20
219.6488083608525
 30
0.0
 11
147.0412750277292
 21
221.6488083608525
 31
0.0
  0
LINE
  5
1251
330
1B
100
AcDbEntity
  8
0
  6
CONTINUOUS
 62
     7
100
AcDbLine
 10
146.5757988862292
 20
219.6488083608525
 30
0.0
 11
147.0412750277292
 21
219.6488083608525
 31
0.0
  0
LINE
  5
1252
330
1B
100
AcDbEntity
  8
0
  6
CONTINUOUS
 62
     7
100
AcDbLine
 10
147.0412750277292
 20
221.6488083608525
 30
0.0
 11
146.5757988862292
 21
221.6488083608525
 31
0.0
  0
LINE
  5
1253
330
1B
100
AcDbEntity
  8
0
  6
CONTINUOUS
 62
     7
100
AcDbLine
 10
155.0412750277292
 20
226.1488083608525
 30
0.0
 11
155.0412750277292
 21
215.1488083608525
 31
0.0
  0
ARC
  5
1254
330
1B
100
AcDbEntity
  8
5_ALL_CURVES
  6
CONTINUOUS
 62
    40
100
AcDbCircle
 10
153.0412750277292
 20
228.1488083608525
 30
0.0
 40
3.549999999999998
100
AcDbArc
 50
304.295514058196
 51
325.702984100402
  0
CIRCLE
  5
1255
330
1B
100
AcDbEntity
  8
0
  6
CONTINUOUS
 62
     7
100
AcDbCircle
 10
153.0412750277292
 20
228.1488083608525
 30
0.0
 40
1.0
  0
CIRCLE
  5
1256
330
1B
100
AcDbEntity
  8
0
  6
CONTINUOUS
 62
     7
100
AcDbCircle
 10
153.0412750277292
 20
228.1488083608525
 30
0.0
 40
0.9
  0
CIRCLE
  5
1257
330
1B
100
AcDbEntity
  8
0
  6
CONTINUOUS
 62
     7
100
AcDbCircle
 10
153.0412750277292
 20
228.1488083608525
 30
0.0
 40
1.1
  0
LINE
  5
1258
330
1B
100
AcDbEntity
  8
5_ALL_CURVES
  6
CONTINUOUS
 62
     2
100
AcDbLine
 10
153.374255954529
 20
229.0595863903525
 30
0.0
 11
153.4628490884291
 21
229.1481795241525
 31
0.0
  0
LINE
  5
1259
330
1B
100
AcDbEntity
  8
5_ALL_CURVES
  6
CONTINUOUS
 62
     2
100
AcDbLine
 10
152.0367643679292
 20
227.7220948036525
 30
0.0
 11
152.1304969981291
 21
227.8158274339526
 31
0.0
  0
LINE
  5
125A
330
1B
100
AcDbEntity
  8
0
  6
CONTINUOUS
 62
     7
100
AcDbLine
 10
150.191275027729
 20
250.7488083608525
 30
0.0
 11
158.3912750277291
 21
250.7488083608525
 31
0.0
  0
LINE
  5
125B
330
1B
100
AcDbEntity
  8
0
  6
CONTINUOUS
 62
     7
100
AcDbLine
 10
155.941275027729
 20
249.8309315299524
 30
0.0
 11
150.941275027729
 21
249.8309315299524
 31
0.0
  0
LINE
  5
125C
330
1B
100
AcDbEntity
  8
0
  6
CONTINUOUS
 62
     7
100
AcDbLine
 10
150.0889103312291
 20
251.8188421953525
 30
0.0
 11
144.993639724129
 21
251.8188421953525
 31
0.0
  0
ARC
  5
125D
330
1B
100
AcDbEntity
  8
0
  6
CONTINUOUS
 62
     7
100
AcDbCircle
 10
147.5412750277292
 20
242.1488083608525
 30
0.0
 40
9.886859966599999
100
AcDbArc
 50
87.10119134839962
 51
92.89880865160041
  0
LINE
  5
125E
330
1B
100
AcDbEntity
  8
0
  6
CONTINUOUS
 62
     7
100
AcDbLine
 10
146.0412750277292
 20
252.0356683274524
 30
0.0
 11
144.993639724129
 21
251.8188421953525
 31
0.0
  0
LINE
  5
125F
330
1B
100
AcDbEntity
  8
0
  6
CONTINUOUS
 62
     7
100
AcDbLine
 10
144.993639724129
 20
251.8188421953525
 30
0.0
 11
144.8912750277291
 21
250.6488083608525
 31
0.0
  0
LINE
  5
1260
330
1B
100
AcDbEntity
  8
0
  6
CONTINUOUS
 62
     7
100
AcDbLine
 10
146.0412750277292
 20
252.0230171898525
 30
0.0
 11
146.0412750277292
 21
252.0356683274524
 31
0.0
  0
LINE
  5
1261
330
1B
100
AcDbEntity
  8
0
  6
CONTINUOUS
 62
     7
100
AcDbLine
 10
147.0412750277292
 20
252.0230171898525
 30
0.0
 11
147.0412750277292
 21
252.1237770324525
 31
0.0
  0
ARC
  5
1262
330
1B
100
AcDbEntity
  8
0
  6
CONTINUOUS
 62
     7
100
AcDbCircle
 10
147.5412750277292
 20
242.1488083608525
 30
0.0
 40
9.9874921777
100
AcDbArc
 50
92.86957619589824
 51
98.63781302719715
  0
LINE
  5
1263
330
1B
100
AcDbEntity
  8
0
  6
CONTINUOUS
 62
     7
100
AcDbLine
 10
149.0412750277292
 20
252.0356683274524
 30
0.0
 11
150.0889103312291
 21
251.8188421953525
 31
0.0
  0
LINE
  5
1264
330
1B
100
AcDbEntity
  8
0
  6
CONTINUOUS
 62
     7
100
AcDbLine
 10
149.0412750277292
 20
252.0356683274524
 30
0.0
 11
149.0412750277292
 21
252.0230171898525
 31
0.0
  0
LINE
  5
1265
330
1B
100
AcDbEntity
  8
0
  6
CONTINUOUS
 62
     7
100
AcDbLine
 10
148.0412750277292
 20
252.1237770324525
 30
0.0
 11
148.0412750277292
 21
252.0230171898525
 31
0.0
  0
ARC
  5
1266
330
1B
100
AcDbEntity
  8
0
  6
CONTINUOUS
 62
     7
100
AcDbCircle
 10
147.5412750277292
 20
242.1488083608525
 30
0.0
 40
9.9874921777
100
AcDbArc
 50
81.36218697280284
 51
87.13042380410177
  0
LINE
  5
1267
330
1B
100
AcDbEntity
  8
0
  6
CONTINUOUS
 62
     7
100
AcDbLine
 10
150.941275027729
 20
250.6488083608525
 30
0.0
 11
150.941275027729
 21
249.2137870974525
 31
0.0
  0
LINE
  5
1268
330
1B
100
AcDbEntity
  8
0
  6
CONTINUOUS
 62
     7
100
AcDbLine
 10
150.0889103312291
 20
251.8188421953525
 30
0.0
 11
150.191275027729
 21
250.6488083608525
 31
0.0
  0
LINE
  5
1269
330
1B
100
AcDbEntity
  8
0
  6
CONTINUOUS
 62
     7
100
AcDbLine
 10
159.5412750277292
 20
252.0230171898525
 30
0.0
 11
159.5412750277292
 21
252.0356683274524
 31
0.0
  0
LINE
  5
126A
330
1B
100
AcDbEntity
  8
0
  6
CONTINUOUS
 62
     7
100
AcDbLine
 10
155.941275027729
 20
249.4967139075526
 30
0.0
 11
155.941275027729
 21
249.8309315299524
 31
0.0
  0
LINE
  5
126B
330
1B
100
AcDbEntity
  8
0
  6
CONTINUOUS
 62
     7
100
AcDbLine
 10
156.0412750277292
 20
249.6488083608524
 30
0.0
 11
156.0412750277292
 21
249.4967139075526
 31
0.0
  0
LINE
  5
126C
330
1B
100
AcDbEntity
  8
0
  6
CONTINUOUS
 62
     7
100
AcDbLine
 10
157.0412750277292
 20
249.4967139075526
 30
0.0
 11
157.0412750277292
 21
249.8488083608524
 31
0.0
  0
LINE
  5
126D
330
1B
100
AcDbEntity
  8
0
  6
CONTINUOUS
 62
     7
100
AcDbLine
 10
156.0412750277292
 20
249.6488083608524
 30
0.0
 11
155.941275027729
 21
249.6488083608524
 31
0.0
  0
LINE
  5
126E
330
1B
100
AcDbEntity
  8
0
  6
CONTINUOUS
 62
     7
100
AcDbLine
 10
158.493639724129
 20
251.8188421953525
 30
0.0
 11
158.3912750277291
 21
250.6488083608525
 31
0.0
  0
LINE
  5
126F
330
1B
100
AcDbEntity
  8
0
  6
CONTINUOUS
 62
     7
100
AcDbLine
 10
159.5412750277292
 20
252.0356683274524
 30
0.0
 11
158.493639724129
 21
251.8188421953525
 31
0.0
  0
ARC
  5
1270
330
1B
100
AcDbEntity
  8
0
  6
CONTINUOUS
 62
     7
100
AcDbCircle
 10
161.0412750277292
 20
220.6488083608524
 30
0.0
 40
14.5
100
AcDbArc
 50
303.9545721220964
 51
56.04542787790351
  0
LINE
  5
1271
330
1B
100
AcDbEntity
  8
0
  6
CONTINUOUS
 62
     7
100
AcDbLine
 10
167.0412750277292
 20
215.1488083608525
 30
0.0
 11
167.0412750277292
 21
226.1488083608525
 31
0.0
  0
LINE
  5
1272
330
1B
100
AcDbEntity
  8
0
  6
CONTINUOUS
 62
     7
100
AcDbLine
 10
169.1400385022291
 20
208.6213385444525
 30
0.0
 11
168.9073004314291
 21
209.0244527078525
 31
0.0
  0
LINE
  5
1273
330
1B
100
AcDbEntity
  8
0
  6
CONTINUOUS
 62
     7
100
AcDbLine
 10
163.691275027729
 20
250.7488083608525
 30
0.0
 11
171.8912750277291
 21
250.7488083608525
 31
0.0
  0
LINE
  5
1274
330
1B
100
AcDbEntity
  8
0
  6
CONTINUOUS
 62
     7
100
AcDbLine
 10
167.1752496239292
 20
233.2731640137524
 30
0.0
 11
168.9073004314291
 21
232.2731640137525
 31
0.0
  0
LINE
  5
1275
330
1B
100
AcDbEntity
  8
0
  6
CONTINUOUS
 62
     7
100
AcDbLine
 10
171.1412750277291
 20
249.8309315299524
 30
0.0
 11
166.1412750277291
 21
249.8309315299524
 31
0.0
  0
LINE
  5
1276
330
1B
100
AcDbEntity
  8
0
  6
CONTINUOUS
 62
     7
100
AcDbLine
 10
167.5412745508291
 20
250.8488083608524
 30
0.0
 11
167.916274550829
 21
250.8488083608524
 31
0.0
  0
LINE
  5
1277
330
1B
100
AcDbEntity
  8
0
  6
CONTINUOUS
 62
     7
100
AcDbLine
 10
167.4079876946289
 20
233.6762781771525
 30
0.0
 11
167.1752496239292
 21
233.2731640137524
 31
0.0
  0
LINE
  5
1278
330
1B
100
AcDbEntity
  8
0
  6
CONTINUOUS
 62
     7
100
AcDbLine
 10
163.5889103312291
 20
251.8188421953525
 30
0.0
 11
163.691275027729
 21
250.6488083608525
 31
0.0
  0
ARC
  5
1279
330
1B
100
AcDbEntity
  8
0
  6
CONTINUOUS
 62
     7
100
AcDbCircle
 10
161.0412750277292
 20
242.1488083608525
 30
0.0
 40
9.9874921777
100
AcDbArc
 50
81.36218697280284
 51
87.13042380410177
  0
LINE
  5
127A
330
1B
100
AcDbEntity
  8
0
  6
CONTINUOUS
 62
     7
100
AcDbLine
 10
161.5412750277292
 20
252.1237770324525
 30
0.0
 11
161.5412750277292
 21
252.0230171898525
 31
0.0
  0
LINE
  5
127B
330
1B
100
AcDbEntity
  8
0
  6
CONTINUOUS
 62
     7
100
AcDbLine
 10
160.5412750277292
 20
252.0230171898525
 30
0.0
 11
160.5412750277292
 21
252.1237770324525
 31
0.0
  0
ARC
  5
127C
330
1B
100
AcDbEntity
  8
0
  6
CONTINUOUS
 62
     7
100
AcDbCircle
 10
161.0412750277292
 20
242.1488083608525
 30
0.0
 40
9.886859966599999
100
AcDbArc
 50
87.10119134839962
 51
92.89880865160041
  0
LINE
  5
127D
330
1B
100
AcDbEntity
  8
0
  6
CONTINUOUS
 62
     7
100
AcDbLine
 10
162.5412750277292
 20
252.0356683274524
 30
0.0
 11
162.5412750277292
 21
252.0230171898525
 31
0.0
  0
LINE
  5
127E
330
1B
100
AcDbEntity
  8
0
  6
CONTINUOUS
 62
     7
100
AcDbLine
 10
162.5412750277292
 20
252.0356683274524
 30
0.0
 11
163.5889103312291
 21
251.8188421953525
 31
0.0
  0
LINE
  5
127F
330
1B
100
AcDbEntity
  8
0
  6
CONTINUOUS
 62
     7
100
AcDbLine
 10
164.728774550829
 20
250.8488083608524
 30
0.0
 11
167.0412750277292
 21
250.8488083608524
 31
0.0
  0
LINE
  5
1280
330
1B
100
AcDbEntity
  8
0
  6
CONTINUOUS
 62
     7
100
AcDbLine
 10
163.6737772950292
 20
250.8488083608524
 30
0.0
 11
164.2287750277292
 21
250.8488083608524
 31
0.0
  0
LINE
  5
1281
330
1B
100
AcDbEntity
  8
0
  6
CONTINUOUS
 62
     7
100
AcDbLine
 10
163.8537750277292
 20
250.7488083608525
 30
0.0
 11
163.8537750277292
 21
250.8488083608524
 31
0.0
  0
LINE
  5
1282
330
1B
100
AcDbEntity
  8
0
  6
CONTINUOUS
 62
     7
100
AcDbLine
 10
165.4162755045291
 20
250.7488083608525
 30
0.0
 11
165.4162755045291
 21
250.8488083608524
 31
0.0
  0
LINE
  5
1283
330
1B
100
AcDbEntity
  8
0
  6
CONTINUOUS
 62
     7
100
AcDbLine
 10
164.2287750277292
 20
250.7488083608525
 30
0.0
 11
164.2287750277292
 21
250.8488083608524
 31
0.0
  0
LINE
  5
1284
330
1B
100
AcDbEntity
  8
0
  6
CONTINUOUS
 62
     7
100
AcDbLine
 10
164.728774550829
 20
250.7488083608525
 30
0.0
 11
164.728774550829
 21
250.8488083608524
 31
0.0
  0
LINE
  5
1285
330
1B
100
AcDbEntity
  8
0
  6
CONTINUOUS
 62
     7
100
AcDbLine
 10
164.8537755045291
 20
250.7488083608525
 30
0.0
 11
164.8537755045291
 21
250.8488083608524
 31
0.0
  0
LINE
  5
1286
330
1B
100
AcDbEntity
  8
0
  6
CONTINUOUS
 62
     7
100
AcDbLine
 10
164.916274550829
 20
250.7488083608525
 30
0.0
 11
164.916274550829
 21
250.8488083608524
 31
0.0
  0
LINE
  5
1287
330
1B
100
AcDbEntity
  8
0
  6
CONTINUOUS
 62
     7
100
AcDbLine
 10
164.9787750277292
 20
250.7488083608525
 30
0.0
 11
164.9787750277292
 21
250.8488083608524
 31
0.0
  0
LINE
  5
1288
330
1B
100
AcDbEntity
  8
0
  6
CONTINUOUS
 62
     7
100
AcDbLine
 10
165.1662750277292
 20
250.7488083608525
 30
0.0
 11
165.1662750277292
 21
250.8488083608524
 31
0.0
  0
LINE
  5
1289
330
1B
100
AcDbEntity
  8
0
  6
CONTINUOUS
 62
     7
100
AcDbLine
 10
165.7287750277292
 20
250.7488083608525
 30
0.0
 11
165.7287750277292
 21
250.8488083608524
 31
0.0
  0
LINE
  5
128A
330
1B
100
AcDbEntity
  8
0
  6
CONTINUOUS
 62
     7
100
AcDbLine
 10
165.8412750277289
 20
249.8488083608524
 30
0.0
 11
165.8412750277289
 21
249.4967139075526
 31
0.0
  0
LINE
  5
128B
330
1B
100
AcDbEntity
  8
0
  6
CONTINUOUS
 62
     7
100
AcDbLine
 10
166.041274550829
 20
250.7488083608525
 30
0.0
 11
166.041274550829
 21
250.8488083608524
 31
0.0
  0
LINE
  5
128C
330
1B
100
AcDbEntity
  8
0
  6
CONTINUOUS
 62
     7
100
AcDbLine
 10
166.1412750277291
 20
249.4967139075526
 30
0.0
 11
166.1412750277291
 21
249.8309315299524
 31
0.0
  0
LINE
  5
128D
330
1B
100
AcDbEntity
  8
0
  6
CONTINUOUS
 62
     7
100
AcDbLine
 10
166.2912750277292
 20
250.7488083608525
 30
0.0
 11
166.2912750277292
 21
250.8488083608524
 31
0.0
  0
LINE
  5
128E
330
1B
100
AcDbEntity
  8
0
  6
CONTINUOUS
 62
     7
100
AcDbLine
 10
166.5412755045291
 20
250.7488083608525
 30
0.0
 11
166.5412755045291
 21
250.8488083608524
 31
0.0
  0
LINE
  5
128F
330
1B
100
AcDbEntity
  8
0
  6
CONTINUOUS
 62
     7
100
AcDbLine
 10
166.791274550829
 20
250.7488083608525
 30
0.0
 11
166.791274550829
 21
250.8488083608524
 31
0.0
  0
LINE
  5
1290
330
1B
100
AcDbEntity
  8
0
  6
CONTINUOUS
 62
     7
100
AcDbLine
 10
166.8537750277292
 20
250.7488083608525
 30
0.0
 11
166.8537750277292
 21
250.8488083608524
 31
0.0
  0
LINE
  5
1291
330
1B
100
AcDbEntity
  8
0
  6
CONTINUOUS
 62
     7
100
AcDbLine
 10
167.0412750277292
 20
249.8488083608524
 30
0.0
 11
167.0412750277292
 21
249.8309315299524
 31
0.0
  0
LINE
  5
1292
330
1B
100
AcDbEntity
  8
0
  6
CONTINUOUS
 62
     7
100
AcDbLine
 10
167.0412750277292
 20
250.7488083608525
 30
0.0
 11
167.0412750277292
 21
250.8488083608524
 31
0.0
  0
LINE
  5
1293
330
1B
100
AcDbEntity
  8
0
  6
CONTINUOUS
 62
     7
100
AcDbLine
 10
167.5412745508291
 20
250.7488083608525
 30
0.0
 11
167.5412745508291
 21
250.8488083608524
 31
0.0
  0
LINE
  5
1294
330
1B
100
AcDbEntity
  8
0
  6
CONTINUOUS
 62
     7
100
AcDbLine
 10
168.9073004314291
 20
232.2731640137525
 30
0.0
 11
169.1400385022291
 21
232.6762781771525
 31
0.0
  0
LINE
  5
1295
330
1B
100
AcDbEntity
  8
0
  6
CONTINUOUS
 62
     7
100
AcDbLine
 10
171.2287755045291
 20
250.8488083608524
 30
0.0
 11
171.9087727604292
 21
250.8488083608524
 31
0.0
  0
LINE
  5
1296
330
1B
100
AcDbEntity
  8
0
  6
CONTINUOUS
 62
     7
100
AcDbLine
 10
171.6662752661291
 20
250.7488083608525
 30
0.0
 11
171.6662752661291
 21
250.8488083608524
 31
0.0
  0
LINE
  5
1297
330
1B
100
AcDbEntity
  8
0
  6
CONTINUOUS
 62
     7
100
AcDbLine
 10
168.416275504529
 20
250.8488083608524
 30
0.0
 11
170.728774550829
 21
250.8488083608524
 31
0.0
  0
LINE
  5
1298
330
1B
100
AcDbEntity
  8
0
  6
CONTINUOUS
 62
     7
100
AcDbLine
 10
167.916274550829
 20
250.7488083608525
 30
0.0
 11
167.916274550829
 21
250.8488083608524
 31
0.0
  0
LINE
  5
1299
330
1B
100
AcDbEntity
  8
0
  6
CONTINUOUS
 62
     7
100
AcDbLine
 10
168.416275504529
 20
250.7488083608525
 30
0.0
 11
168.416275504529
 21
250.8488083608524
 31
0.0
  0
LINE
  5
129A
330
1B
100
AcDbEntity
  8
0
  6
CONTINUOUS
 62
     7
100
AcDbLine
 10
168.478774550829
 20
250.7488083608525
 30
0.0
 11
168.478774550829
 21
250.8488083608524
 31
0.0
  0
LINE
  5
129B
330
1B
100
AcDbEntity
  8
0
  6
CONTINUOUS
 62
     7
100
AcDbLine
 10
168.666274550829
 20
250.7488083608525
 30
0.0
 11
168.666274550829
 21
250.8488083608524
 31
0.0
  0
LINE
  5
129C
330
1B
100
AcDbEntity
  8
0
  6
CONTINUOUS
 62
     7
100
AcDbLine
 10
168.9162750277292
 20
250.7488083608525
 30
0.0
 11
168.9162750277292
 21
250.8488083608524
 31
0.0
  0
LINE
  5
129D
330
1B
100
AcDbEntity
  8
0
  6
CONTINUOUS
 62
     7
100
AcDbLine
 10
169.228774550829
 20
250.7488083608525
 30
0.0
 11
169.228774550829
 21
250.8488083608524
 31
0.0
  0
LINE
  5
129E
330
1B
100
AcDbEntity
  8
0
  6
CONTINUOUS
 62
     7
100
AcDbLine
 10
170.728774550829
 20
250.7488083608525
 30
0.0
 11
170.728774550829
 21
250.8488083608524
 31
0.0
  0
LINE
  5
129F
330
1B
100
AcDbEntity
  8
0
  6
CONTINUOUS
 62
     7
100
AcDbLine
 10
171.1412750277291
 20
249.2137870974525
 30
0.0
 11
171.1412750277291
 21
250.6488083608525
 31
0.0
  0
LINE
  5
12A0
330
1B
100
AcDbEntity
  8
0
  6
CONTINUOUS
 62
     7
100
AcDbLine
 10
171.2287755045291
 20
250.7488083608525
 30
0.0
 11
171.2287755045291
 21
250.8488083608524
 31
0.0
  0
LINE
  5
12A1
330
1B
100
AcDbEntity
  8
0
  6
CONTINUOUS
 62
     7
100
AcDbLine
 10
171.6037747892292
 20
250.7488083608525
 30
0.0
 11
171.6037747892292
 21
250.8488083608524
 31
0.0
  0
ARC
  5
12A2
330
1B
100
AcDbEntity
  8
0
  6
CONTINUOUS
 62
     7
100
AcDbCircle
 10
174.541275027729
 20
242.1488083608525
 30
0.0
 40
9.9874921777
100
AcDbArc
 50
92.86957619589824
 51
98.63781302719715
  0
LINE
  5
12A3
330
1B
100
AcDbEntity
  8
0
  6
CONTINUOUS
 62
     7
100
AcDbLine
 10
173.0412750277292
 20
252.0356683274524
 30
0.0
 11
171.993639724129
 21
251.8188421953525
 31
0.0
  0
LINE
  5
12A4
330
1B
100
AcDbEntity
  8
0
  6
CONTINUOUS
 62
     7
100
AcDbLine
 10
171.7912747892292
 20
250.7488083608525
 30
0.0
 11
171.7912747892292
 21
250.8488083608524
 31
0.0
  0
LINE
  5
12A5
330
1B
100
AcDbEntity
  8
0
  6
CONTINUOUS
 62
     7
100
AcDbLine
 10
171.993639724129
 20
251.8188421953525
 30
0.0
 11
171.8912750277291
 21
250.6488083608525
 31
0.0
  0
LINE
  5
12A6
330
1B
100
AcDbEntity
  8
0
  6
CONTINUOUS
 62
     7
100
AcDbLine
 10
173.0412750277292
 20
252.0230171898525
 30
0.0
 11
173.0412750277292
 21
252.0356683274524
 31
0.0
  0
ARC
  5
12A7
330
1B
100
AcDbEntity
  8
0
  6
CONTINUOUS
 62
     7
100
AcDbCircle
 10
174.541275027729
 20
242.1488083608525
 30
0.0
 40
9.886859966599999
100
AcDbArc
 50
87.10119134839962
 51
92.89880865160041
  0
LINE
  5
12A8
330
1B
100
AcDbEntity
  8
0
  6
CONTINUOUS
 62
     7
100
AcDbLine
 10
174.0412750277292
 20
252.0230171898525
 30
0.0
 11
174.0412750277292
 21
252.1237770324525
 31
0.0
  0
LINE
  5
12A9
330
1B
100
AcDbEntity
  8
0
  6
CONTINUOUS
 62
     7
100
AcDbLine
 10
175.0412750277292
 20
252.1237770324525
 30
0.0
 11
175.0412750277292
 21
252.0230171898525
 31
0.0
  0
ARC
  5
12AA
330
1B
100
AcDbEntity
  8
0
  6
CONTINUOUS
 62
     7
100
AcDbCircle
 10
191.041275027729
 20
245.6488083608524
 30
0.0
 40
5.0
100
AcDbArc
 50
0.0
 51
90.0
  0
LWPOLYLINE
  5
12AB
330
1B
100
AcDbEntity
  8
0
  6
CONTINUOUS
 62
     7
100
AcDbPolyline
 90
        7
 70
     0
 43
0.0
 10
192.6240670672289
 20
223.6488083608525
 10
192.5941181664291
 20
223.4120950962525
 10
192.496908856629
 20
223.1725979528526
 10
192.3403919272291
 20
222.9662192205525
 10
192.1291327816291
 20
222.8010138690524
 10
191.871500985329
 20
222.6905314368525
 10
191.571731110929
 20
222.6488092999524
  0
ARC
  5
12AC
330
1B
100
AcDbEntity
  8
0
  6
CONTINUOUS
 62
     7
100
AcDbCircle
 10
185.0412750277292
 20
214.6488083608524
 30
0.0
 40
5.75
100
AcDbArc
 50
190.0154101682994
 51
169.9845898317005
  0
LINE
  5
12AD
330
1B
100
AcDbEntity
  8
0
  6
CONTINUOUS
 62
     7
100
AcDbLine
 10
179.3788992012292
 20
213.6488083608525
 30
0.0
 11
178.3657600662291
 21
213.6488083608525
 31
0.0
  0
LINE
  5
12AE
330
1B
100
AcDbEntity
  8
0
  6
CONTINUOUS
 62
     7
100
AcDbLine
 10
178.3657600662291
 20
215.6488083608525
 30
0.0
 11
179.3788992012292
 21
215.6488083608525
 31
0.0
  0
LINE
  5
12AF
330
1B
100
AcDbEntity
  8
0
  6
CONTINUOUS
 62
     7
100
AcDbLine
 10
191.571731110929
 20
222.6488092999524
 30
0.0
 11
191.571731110929
 21
218.1488454304524
 31
0.0
  0
LINE
  5
12B0
330
1B
100
AcDbEntity
  8
0
  6
CONTINUOUS
 62
     7
100
AcDbLine
 10
185.0412750277292
 20
222.6488083608524
 30
0.0
 11
191.570288001029
 21
222.6488083608524
 31
0.0
  0
LINE
  5
12B1
330
1B
100
AcDbEntity
  8
0
  6
CONTINUOUS
 62
     7
100
AcDbLine
 10
177.191275027729
 20
250.7488083608525
 30
0.0
 11
186.0412750277292
 21
250.7488083608525
 31
0.0
  0
LINE
  5
12B2
330
1B
100
AcDbEntity
  8
0
  6
CONTINUOUS
 62
     7
100
AcDbLine
 10
179.6662751469289
 20
250.8488083608524
 30
0.0
 11
180.0412751469289
 21
250.8488083608524
 31
0.0
  0
LINE
  5
12B3
330
1B
100
AcDbEntity
  8
0
  6
CONTINUOUS
 62
     7
100
AcDbLine
 10
177.1737772950289
 20
250.8488083608524
 30
0.0
 11
179.166274908429
 21
250.8488083608524
 31
0.0
  0
LINE
  5
12B4
330
1B
100
AcDbEntity
  8
0
  6
CONTINUOUS
 62
     7
100
AcDbLine
 10
176.0412750277292
 20
252.0356683274524
 30
0.0
 11
177.0889103312291
 21
251.8188421953525
 31
0.0
  0
LINE
  5
12B5
330
1B
100
AcDbEntity
  8
0
  6
CONTINUOUS
 62
     7
100
AcDbLine
 10
176.0412750277292
 20
252.0356683274524
 30
0.0
 11
176.0412750277292
 21
252.0230171898525
 31
0.0
  0
LINE
  5
12B6
330
1B
100
AcDbEntity
  8
0
  6
CONTINUOUS
 62
     7
100
AcDbLine
 10
177.0889103312291
 20
251.8188421953525
 30
0.0
 11
177.191275027729
 21
250.6488083608525
 31
0.0
  0
LINE
  5
12B7
330
1B
100
AcDbEntity
  8
0
  6
CONTINUOUS
 62
     7
100
AcDbLine
 10
179.166274908429
 20
250.7488083608525
 30
0.0
 11
179.166274908429
 21
250.8488083608524
 31
0.0
  0
LINE
  5
12B8
330
1B
100
AcDbEntity
  8
0
  6
CONTINUOUS
 62
     7
100
AcDbLine
 10
179.6662751469289
 20
250.7488083608525
 30
0.0
 11
179.6662751469289
 21
250.8488083608524
 31
0.0
  0
LINE
  5
12B9
330
1B
100
AcDbEntity
  8
0
  6
CONTINUOUS
 62
     7
100
AcDbLine
 10
180.541275027729
 20
250.8488083608524
 30
0.0
 11
183.541275027729
 21
250.8488083608524
 31
0.0
  0
LINE
  5
12BA
330
1B
100
AcDbEntity
  8
0
  6
CONTINUOUS
 62
     7
100
AcDbLine
 10
180.0412751469289
 20
250.7488083608525
 30
0.0
 11
180.0412751469289
 21
250.8488083608524
 31
0.0
  0
LINE
  5
12BB
330
1B
100
AcDbEntity
  8
0
  6
CONTINUOUS
 62
     7
100
AcDbLine
 10
180.541275027729
 20
250.7488083608525
 30
0.0
 11
180.541275027729
 21
250.8488083608524
 31
0.0
  0
LINE
  5
12BC
330
1B
100
AcDbEntity
  8
0
  6
CONTINUOUS
 62
     7
100
AcDbLine
 10
181.103775027729
 20
250.7488083608525
 30
0.0
 11
181.103775027729
 21
250.8488083608524
 31
0.0
  0
LINE
  5
12BD
330
1B
100
AcDbEntity
  8
0
  6
CONTINUOUS
 62
     7
100
AcDbLine
 10
182.0412750277292
 20
250.7488083608525
 30
0.0
 11
182.0412750277292
 21
250.8488083608524
 31
0.0
  0
LINE
  5
12BE
330
1B
100
AcDbEntity
  8
0
  6
CONTINUOUS
 62
     7
100
AcDbLine
 10
182.978775027729
 20
250.7488083608525
 30
0.0
 11
182.978775027729
 21
250.8488083608524
 31
0.0
  0
LINE
  5
12BF
330
1B
100
AcDbEntity
  8
0
  6
CONTINUOUS
 62
     7
100
AcDbLine
 10
183.541275027729
 20
250.7488083608525
 30
0.0
 11
183.541275027729
 21
250.8488083608524
 31
0.0
  0
LINE
  5
12C0
330
1B
100
AcDbEntity
  8
0
  6
CONTINUOUS
 62
     7
100
AcDbLine
 10
186.0412750277292
 20
250.6488083608525
 30
0.0
 11
186.0412750277292
 21
250.7488083608525
 31
0.0
  0
LINE
  5
12C1
330
1B
100
AcDbEntity
  8
0
  6
CONTINUOUS
 62
     7
100
AcDbLine
 10
239.4400955157289
 20
190.6488083608525
 30
0.0
 11
239.4400955157289
 21
250.6488083608525
 31
0.0
  0
LINE
  5
12C2
330
1B
100
AcDbEntity
  8
0
  6
CONTINUOUS
 62
     7
100
AcDbLine
 10
235.9400955157289
 20
249.6488083608524
 30
0.0
 11
235.9400955157289
 21
191.6488083608525
 31
0.0
  0
LINE
  5
12C3
330
1B
100
AcDbEntity
  8
0
  6
CONTINUOUS
 62
     7
100
AcDbLine
 10
218.438725050529
 20
223.6488083608525
 30
0.0
 11
218.438725050529
 21
205.6488083608524
 31
0.0
  0
LINE
  5
12C4
330
1B
100
AcDbEntity
  8
0
  6
CONTINUOUS
 62
     7
100
AcDbLine
 10
217.4400955157289
 20
222.6488092999524
 30
0.0
 11
217.4400955157289
 21
206.6488074217525
 31
0.0
  0
LINE
  5
12C5
330
1B
100
AcDbEntity
  8
0
  6
CONTINUOUS
 62
     7
100
AcDbLine
 10
217.1399734454289
 20
222.1488083608525
 30
0.0
 11
217.1399734454289
 21
207.1488083608525
 31
0.0
  0
LINE
  5
12C6
330
1B
100
AcDbEntity
  8
0
  6
CONTINUOUS
 62
     7
100
AcDbLine
 10
212.9400955157289
 20
205.1490791988524
 30
0.0
 11
212.9400955157289
 21
236.1485375227523
 31
0.0
  0
LINE
  5
12C7
330
1B
100
AcDbEntity
  8
0
  6
CONTINUOUS
 62
     7
100
AcDbLine
 10
213.4399734454289
 20
207.4512884248526
 30
0.0
 11
213.4400955157289
 21
244.1227396268524
 31
0.0
  0
LINE
  5
12C8
330
1B
100
AcDbEntity
  8
0
  6
CONTINUOUS
 62
     7
100
AcDbLine
 10
213.7399734454289
 20
222.1488083608525
 30
0.0
 11
213.7399734454289
 21
207.1488083608525
 31
0.0
  0
DIMENSION
  5
12C9
330
1B
100
AcDbEntity
  8
1_ALL_DRAFT_DIMS
  6
CONTINUOUS
 62
     2
100
AcDbDimension
  2
*D16
 10
269.9400955157289
 20
165.1425536011523
 30
0.0
 11
255.2262794780288
 21
165.1425536011523
 31
0.0
 70
   160
  3
NABE
100
AcDbAlignedDimension
 13
239.9400955157289
 23
117.9525335365525
 33
0.0
 14
269.9400955157289
 24
117.9525335365525
 34
0.0
100
AcDbRotatedDimension
  0
LINE
  5
12CA
330
1B
100
AcDbEntity
  8
0
  6
CONTINUOUS
 62
     7
100
AcDbLine
 10
241.7400955157289
 20
186.2619483941525
 30
0.0
 11
240.692460212229
 21
186.4787745263525
 31
0.0
  0
LINE
  5
12CB
330
1B
100
AcDbEntity
  8
0
  6
CONTINUOUS
 62
     7
100
AcDbLine
 10
240.692460212229
 20
186.4787745263525
 30
0.0
 11
245.787730819329
 21
186.4787745263525
 31
0.0
  0
CIRCLE
  5
12CC
330
1B
100
AcDbEntity
  8
0
  6
CONTINUOUS
 62
     7
100
AcDbCircle
 10
243.2400955157289
 20
123.8223008659525
 30
0.0
 40
2.547635303499999
  0
CIRCLE
  5
12CD
330
1B
100
AcDbEntity
  8
0
  6
CONTINUOUS
 62
     7
100
AcDbCircle
 10
243.2400955157289
 20
123.8223008659525
 30
0.0
 40
2.649999999999999
  0
ARC
  5
12CE
330
1B
100
AcDbEntity
  8
0
  6
CONTINUOUS
 62
     7
100
AcDbCircle
 10
243.2400955157289
 20
123.8223008659525
 30
0.0
 40
4.0
100
AcDbArc
 50
180.0
 51
0.0
  0
LINE
  5
12CF
330
1B
100
AcDbEntity
  8
0
  6
CONTINUOUS
 62
     7
100
AcDbLine
 10
238.2400955157289
 20
187.6488083608525
 30
0.0
 11
248.2400955157288
 21
187.6488083608525
 31
0.0
  0
DIMENSION
  5
12D0
330
1B
100
AcDbEntity
  8
1_ALL_DRAFT_DIMS
  6
CONTINUOUS
 62
     2
100
AcDbDimension
  2
*D20
 10
239.9400955157289
 20
165.1425536011523
 30
0.0
 11
226.4400955157289
 21
165.1425536011523
 31
0.0
 70
   160
  3
NABE
100
AcDbAlignedDimension
 13
212.9400955157289
 23
126.3223008659525
 33
0.0
 14
239.9400955157289
 24
117.9525335365525
 34
0.0
100
AcDbRotatedDimension
  0
LINE
  5
12D1
330
1B
100
AcDbEntity
  8
0
  6
CONTINUOUS
 62
     7
100
AcDbLine
 10
216.2830876470289
 20
141.7921207361526
 30
0.0
 11
235.4662634939291
 21
142.7974683819525
 31
0.0
  0
ARC
  5
12D2
330
1B
100
AcDbEntity
  8
0
  6
CONTINUOUS
 62
     7
100
AcDbCircle
 10
216.4400955157289
 20
138.7962321319525
 30
0.0
 40
3.0
100
AcDbArc
 50
92.9999999999991
 51
180.0
  0
ARC
  5
12D3
330
1B
100
AcDbEntity
  8
0
  6
CONTINUOUS
 62
     7
100
AcDbCircle
 10
212.9400955157289
 20
126.3223008659525
 30
0.0
 40
0.5
100
AcDbArc
 50
270.0
 51
337.5002852408009
  0
LINE
  5
12D4
330
1B
100
AcDbEntity
  8
0
  6
CONTINUOUS
 62
     7
100
AcDbLine
 10
213.7399734454289
 20
141.8223008659525
 30
0.0
 11
216.8589588280288
 21
141.8223008659525
 31
0.0
  0
LINE
  5
12D5
330
1B
100
AcDbEntity
  8
0
  6
CONTINUOUS
 62
     7
100
AcDbLine
 10
213.7399734454289
 20
141.8223008659525
 30
0.0
 11
213.7399734454289
 21
140.0600348491524
 31
0.0
  0
LINE
  5
12D6
330
1B
100
AcDbEntity
  8
0
  6
CONTINUOUS
 62
     7
100
AcDbLine
 10
213.4399734454289
 20
141.5223008659525
 30
0.0
 11
213.7399734454289
 21
141.8223008659525
 31
0.0
  0
LINE
  5
12D7
330
1B
100
AcDbEntity
  8
0
  6
CONTINUOUS
 62
     7
100
AcDbLine
 10
239.4400955157289
 20
127.8223008659525
 30
0.0
 11
239.4400955157289
 21
145.3223008659523
 31
0.0
  0
LINE
  5
12D8
330
1B
100
AcDbEntity
  8
0
  6
CONTINUOUS
 62
     7
100
AcDbLine
 10
235.9400955157289
 20
144.3223008659523
 30
0.0
 11
235.9400955157289
 21
127.8223008659525
 31
0.0
  0
ARC
  5
12D9
330
1B
100
AcDbEntity
  8
0
  6
CONTINUOUS
 62
     7
100
AcDbCircle
 10
234.4400955157289
 20
126.8223008659525
 30
0.0
 40
1.0
100
AcDbArc
 50
90.0
 51
180.0
  0
ARC
  5
12DA
330
1B
100
AcDbEntity
  8
0
  6
CONTINUOUS
 62
     7
100
AcDbCircle
 10
238.2400955157289
 20
126.8223008659525
 30
0.0
 40
1.0
100
AcDbArc
 50
0.0
 51
90.0
  0
LINE
  5
12DB
330
1B
100
AcDbEntity
  8
0
  6
CONTINUOUS
 62
     7
100
AcDbLine
 10
239.2400955157289
 20
123.8223008659525
 30
0.0
 11
239.2400955157289
 21
126.8223008659525
 31
0.0
  0
ARC
  5
12DC
330
1B
100
AcDbEntity
  8
0
  6
CONTINUOUS
 62
     7
100
AcDbCircle
 10
236.9400955157289
 20
144.3223008659523
 30
0.0
 40
1.0
100
AcDbArc
 50
90.0
 51
180.0
  0
ARC
  5
12DD
330
1B
100
AcDbEntity
  8
0
  6
CONTINUOUS
 62
     7
100
AcDbCircle
 10
235.4400955157289
 20
143.2967831492525
 30
0.0
 40
0.5
100
AcDbArc
 50
272.9999999999991
 51
0.0
  0
LINE
  5
12DE
330
1B
100
AcDbEntity
  8
0
  6
CONTINUOUS
 62
     7
100
AcDbLine
 10
216.2830876470289
 20
194.1789884905525
 30
0.0
 11
235.4662634939291
 21
193.1736408448525
 31
0.0
  0
LINE
  5
12DF
330
1B
100
AcDbEntity
  8
0
  6
CONTINUOUS
 62
     7
100
AcDbLine
 10
213.7399734454289
 20
207.1488083608525
 30
0.0
 11
217.1399734454289
 21
207.1488083608525
 31
0.0
  0
LINE
  5
12E0
330
1B
100
AcDbEntity
  8
0
  6
CONTINUOUS
 62
     7
100
AcDbLine
 10
217.4400955157289
 20
206.6488083608525
 30
0.0
 11
214.4400955157289
 21
206.6488083608525
 31
0.0
  0
ARC
  5
12E1
330
1B
100
AcDbEntity
  8
0
  6
CONTINUOUS
 62
     7
100
AcDbCircle
 10
216.4400955157289
 20
197.1748770948524
 30
0.0
 40
3.0
100
AcDbArc
 50
180.0
 51
267.0000000000009
  0
LINE
  5
12E2
330
1B
100
AcDbEntity
  8
0
  6
CONTINUOUS
 62
     7
100
AcDbLine
 10
213.4400955157289
 20
197.1748770948524
 30
0.0
 11
213.4400955157289
 21
207.4488083608525
 31
0.0
  0
LINE
  5
12E3
330
1B
100
AcDbEntity
  8
0
  6
CONTINUOUS
 62
     7
100
AcDbLine
 10
213.4399734454289
 20
207.4488083608525
 30
0.0
 11
213.7399734454289
 21
207.1488083608525
 31
0.0
  0
ARC
  5
12E4
330
1B
100
AcDbEntity
  8
0
  6
CONTINUOUS
 62
     7
100
AcDbCircle
 10
212.9400955157289
 20
204.6488083608524
 30
0.0
 40
0.5
100
AcDbArc
 50
0.0
 51
90.0
  0
ARC
  5
12E5
330
1B
100
AcDbEntity
  8
0
  6
CONTINUOUS
 62
     7
100
AcDbCircle
 10
214.4400955157289
 20
205.6488083608524
 30
0.0
 40
1.0
100
AcDbArc
 50
90.0
 51
180.0
  0
LWPOLYLINE
  5
12E6
330
1B
100
AcDbEntity
  8
0
  6
CONTINUOUS
 62
     7
100
AcDbPolyline
 90
        7
 70
     0
 43
0.0
 10
217.4400955157289
 20
206.6488074217525
 10
217.7245665046289
 20
206.6070852848526
 10
217.9690499506289
 20
206.4966028526525
 10
218.1695273942289
 20
206.3313975010525
 10
218.318056414329
 20
206.1250187687525
 10
218.410304604829
 20
205.8855216253526
 10
218.438725050529
 20
205.6488083608524
  0
LINE
  5
12E7
330
1B
100
AcDbEntity
  8
0
  6
CONTINUOUS
 62
     7
100
AcDbLine
 10
233.4400955157289
 20
190.6488083608525
 30
0.0
 11
233.4400955157289
 21
181.6488083608525
 31
0.0
  0
LINE
  5
12E8
330
1B
100
AcDbEntity
  8
0
  6
CONTINUOUS
 62
     7
100
AcDbLine
 10
239.2400955157289
 20
181.6488083608525
 30
0.0
 11
239.2400955157289
 21
187.6488083608525
 31
0.0
  0
ARC
  5
12E9
330
1B
100
AcDbEntity
  8
0
  6
CONTINUOUS
 62
     7
100
AcDbCircle
 10
234.4400955157289
 20
181.6488083608525
 30
0.0
 40
1.0
100
AcDbArc
 50
180.0
 51
270.0
  0
ARC
  5
12EA
330
1B
100
AcDbEntity
  8
0
  6
CONTINUOUS
 62
     7
100
AcDbCircle
 10
238.2400955157289
 20
181.6488083608525
 30
0.0
 40
1.0
100
AcDbArc
 50
270.0
 51
0.0
  0
ARC
  5
12EB
330
1B
100
AcDbEntity
  8
0
  6
CONTINUOUS
 62
     7
100
AcDbCircle
 10
236.9400955157289
 20
191.6488083608525
 30
0.0
 40
1.0
100
AcDbArc
 50
180.0
 51
270.0
  0
ARC
  5
12EC
330
1B
100
AcDbEntity
  8
0
  6
CONTINUOUS
 62
     7
100
AcDbCircle
 10
235.4400955157289
 20
192.6743260803526
 30
0.0
 40
0.4999999996000001
100
AcDbArc
 50
359.9999996733992
 51
86.99999998289838
  0
LINE
  5
12ED
330
1B
100
AcDbEntity
  8
0
  6
CONTINUOUS
 62
     7
100
AcDbLine
 10
240.692460212229
 20
186.4787745263525
 30
0.0
 11
240.590095515729
 21
187.6488083608525
 31
0.0
  0
ARC
  5
12EE
330
1B
100
AcDbEntity
  8
0
  6
CONTINUOUS
 62
     7
100
AcDbCircle
 10
248.2400955157288
 20
126.8223008659525
 30
0.0
 40
1.0
100
AcDbArc
 50
90.0
 51
180.0
  0
LINE
  5
12EF
330
1B
100
AcDbEntity
  8
0
  6
CONTINUOUS
 62
     7
100
AcDbLine
 10
243.7400955157289
 20
124.3223008659525
 30
0.0
 11
244.7400955157289
 21
124.3223008659525
 31
0.0
  0
LINE
  5
12F0
330
1B
100
AcDbEntity
  8
0
  6
CONTINUOUS
 62
     7
100
AcDbLine
 10
244.7400955157289
 20
123.3223008659524
 30
0.0
 11
243.7400955157289
 21
123.3223008659524
 31
0.0
  0
LINE
  5
12F1
330
1B
100
AcDbEntity
  8
0
  6
CONTINUOUS
 62
     7
100
AcDbLine
 10
244.7400955157289
 20
124.3223008659525
 30
0.0
 11
244.7400955157289
 21
123.3223008659524
 31
0.0
  0
LINE
  5
12F2
330
1B
100
AcDbEntity
  8
0
  6
CONTINUOUS
 62
     7
100
AcDbLine
 10
243.7400955157289
 20
123.3223008659524
 30
0.0
 11
243.7400955157289
 21
122.3223008659524
 31
0.0
  0
LINE
  5
12F3
330
1B
100
AcDbEntity
  8
0
  6
CONTINUOUS
 62
     7
100
AcDbLine
 10
243.7400955157289
 20
125.3223008659525
 30
0.0
 11
243.7400955157289
 21
124.3223008659525
 31
0.0
  0
LINE
  5
12F4
330
1B
100
AcDbEntity
  8
0
  6
CONTINUOUS
 62
     7
100
AcDbLine
 10
241.7400955157289
 20
124.3223008659525
 30
0.0
 11
242.7400955157289
 21
124.3223008659525
 31
0.0
  0
LINE
  5
12F5
330
1B
100
AcDbEntity
  8
0
  6
CONTINUOUS
 62
     7
100
AcDbLine
 10
242.7400955157289
 20
123.3223008659524
 30
0.0
 11
241.7400955157289
 21
123.3223008659524
 31
0.0
  0
LINE
  5
12F6
330
1B
100
AcDbEntity
  8
0
  6
CONTINUOUS
 62
     7
100
AcDbLine
 10
242.7400955157289
 20
124.3223008659525
 30
0.0
 11
242.7400955157289
 21
125.3223008659525
 31
0.0
  0
LINE
  5
12F7
330
1B
100
AcDbEntity
  8
0
  6
CONTINUOUS
 62
     7
100
AcDbLine
 10
242.7400955157289
 20
122.3223008659524
 30
0.0
 11
242.7400955157289
 21
123.3223008659524
 31
0.0
  0
LINE
  5
12F8
330
1B
100
AcDbEntity
  8
0
  6
CONTINUOUS
 62
     7
100
AcDbLine
 10
241.7400955157289
 20
123.3223008659524
 30
0.0
 11
241.7400955157289
 21
124.3223008659525
 31
0.0
  0
LINE
  5
12F9
330
1B
100
AcDbEntity
  8
0
  6
CONTINUOUS
 62
     7
100
AcDbLine
 10
242.7400955157289
 20
125.3223008659525
 30
0.0
 11
243.7400955157289
 21
125.3223008659525
 31
0.0
  0
LINE
  5
12FA
330
1B
100
AcDbEntity
  8
0
  6
CONTINUOUS
 62
     7
100
AcDbLine
 10
243.7400955157289
 20
122.3223008659524
 30
0.0
 11
242.7400955157289
 21
122.3223008659524
 31
0.0
  0
LINE
  5
12FB
330
1B
100
AcDbEntity
  8
0
  6
CONTINUOUS
 62
     7
100
AcDbLine
 10
247.2400955157289
 20
126.8223008659525
 30
0.0
 11
247.2400955157289
 21
123.8223008659525
 31
0.0
  0
LINE
  5
12FC
330
1B
100
AcDbEntity
  8
0
  6
CONTINUOUS
 62
     7
100
AcDbLine
 10
247.2400955157289
 20
187.6488083608525
 30
0.0
 11
247.2400955157289
 21
181.6488083608525
 31
0.0
  0
ARC
  5
12FD
330
1B
100
AcDbEntity
  8
0
  6
CONTINUOUS
 62
     7
100
AcDbCircle
 10
248.2400955157288
 20
181.6488083608525
 30
0.0
 40
1.0
100
AcDbArc
 50
180.0
 51
270.0
  0
LINE
  5
12FE
330
1B
100
AcDbEntity
  8
0
  6
CONTINUOUS
 62
     7
100
AcDbLine
 10
244.7400955157289
 20
186.2619483941525
 30
0.0
 11
245.787730819329
 21
186.4787745263525
 31
0.0
  0
ARC
  5
12FF
330
1B
100
AcDbEntity
  8
0
  6
CONTINUOUS
 62
     7
100
AcDbCircle
 10
243.2400955157289
 20
196.1488083608525
 30
0.0
 40
9.9874921777
100
AcDbArc
 50
272.8695761958982
 51
278.6378130271971
  0
LINE
  5
1300
330
1B
100
AcDbEntity
  8
0
  6
CONTINUOUS
 62
     7
100
AcDbLine
 10
244.7400955157289
 20
186.2745995317524
 30
0.0
 11
244.7400955157289
 21
186.2619483941525
 31
0.0
  0
LINE
  5
1301
330
1B
100
AcDbEntity
  8
0
  6
CONTINUOUS
 62
     7
100
AcDbLine
 10
243.7400955157289
 20
186.2745995317524
 30
0.0
 11
243.7400955157289
 21
186.1738396891525
 31
0.0
  0
ARC
  5
1302
330
1B
100
AcDbEntity
  8
0
  6
CONTINUOUS
 62
     7
100
AcDbCircle
 10
243.2400955157289
 20
196.1488083608525
 30
0.0
 40
9.9874921777
100
AcDbArc
 50
261.3621869728028
 51
267.1304238041017
  0
LINE
  5
1303
330
1B
100
AcDbEntity
  8
0
  6
CONTINUOUS
 62
     7
100
AcDbLine
 10
242.7400955157289
 20
186.1738396891525
 30
0.0
 11
242.7400955157289
 21
186.2745995317524
 31
0.0
  0
LINE
  5
1304
330
1B
100
AcDbEntity
  8
0
  6
CONTINUOUS
 62
     7
100
AcDbLine
 10
241.7400955157289
 20
186.2619483941525
 30
0.0
 11
241.7400955157289
 21
186.2745995317524
 31
0.0
  0
ARC
  5
1305
330
1B
100
AcDbEntity
  8
0
  6
CONTINUOUS
 62
     7
100
AcDbCircle
 10
243.2400955157289
 20
196.1488083608525
 30
0.0
 40
9.886859966599999
100
AcDbArc
 50
267.1011913483996
 51
272.8988086516003
  0
LINE
  5
1306
330
1B
100
AcDbEntity
  8
0
  6
CONTINUOUS
 62
     7
100
AcDbLine
 10
245.787730819329
 20
186.4787745263525
 30
0.0
 11
245.890095515729
 21
187.6488083608525
 31
0.0
  0
LINE
  5
1307
330
1B
100
AcDbEntity
  8
0
  6
CONTINUOUS
 62
     7
100
AcDbLine
 10
241.7400955157289
 20
252.0356683274524
 30
0.0
 11
240.692460212229
 21
251.8188421953525
 31
0.0
  0
LINE
  5
1308
330
1B
100
AcDbEntity
  8
0
  6
CONTINUOUS
 62
     7
100
AcDbLine
 10
240.692460212229
 20
251.8188421953525
 30
0.0
 11
245.787730819329
 21
251.8188421953525
 31
0.0
  0
LINE
  5
1309
330
1B
100
AcDbEntity
  8
0
  6
CONTINUOUS
 62
     7
100
AcDbLine
 10
216.2830876470289
 20
247.1186282310525
 30
0.0
 11
235.4662634939291
 21
248.1239758767524
 31
0.0
  0
LINE
  5
130A
330
1B
100
AcDbEntity
  8
0
  6
CONTINUOUS
 62
     7
100
AcDbLine
 10
214.4400955157289
 20
222.6488083608524
 30
0.0
 11
217.4400955157289
 21
222.6488083608524
 31
0.0
  0
LINE
  5
130B
330
1B
100
AcDbEntity
  8
0
  6
CONTINUOUS
 62
     7
100
AcDbLine
 10
213.7399734454289
 20
222.1488083608525
 30
0.0
 11
217.1399734454289
 21
222.1488083608525
 31
0.0
  0
ARC
  5
130C
330
1B
100
AcDbEntity
  8
0
  6
CONTINUOUS
 62
     7
100
AcDbCircle
 10
214.4400955157289
 20
223.6488083608525
 30
0.0
 40
1.0
100
AcDbArc
 50
180.0
 51
270.0
  0
LINE
  5
130D
330
1B
100
AcDbEntity
  8
0
  6
CONTINUOUS
 62
     7
100
AcDbLine
 10
213.4399734454289
 20
221.8488083608524
 30
0.0
 11
213.7399734454289
 21
222.1488083608525
 31
0.0
  0
LINE
  5
130E
330
1B
100
AcDbEntity
  8
0
  6
CONTINUOUS
 62
     7
100
AcDbLine
 10
217.4399734454289
 20
211.1488083608525
 30
0.0
 11
217.1399734454289
 21
211.1488083608525
 31
0.0
  0
LINE
  5
130F
330
1B
100
AcDbEntity
  8
0
  6
CONTINUOUS
 62
     7
100
AcDbLine
 10
217.4399734454289
 20
218.1488083608525
 30
0.0
 11
217.1399734454289
 21
218.1488083608525
 31
0.0
  0
LWPOLYLINE
  5
1310
330
1B
100
AcDbEntity
  8
0
  6
CONTINUOUS
 62
     7
100
AcDbPolyline
 90
        7
 70
     0
 43
0.0
 10
218.438725050529
 20
223.6488083608525
 10
218.410304604829
 20
223.4120950962525
 10
218.318056414329
 20
223.1725979528526
 10
218.1695273942289
 20
222.9662192205525
 10
217.9690499506289
 20
222.8010138690524
 10
217.7245665046289
 20
222.6905314368525
 10
217.4400955157289
 20
222.6488092999524
  0
ARC
  5
1311
330
1B
100
AcDbEntity
  8
0
  6
CONTINUOUS
 62
     7
100
AcDbCircle
 10
212.9400955157289
 20
236.6488083608525
 30
0.0
 40
0.5
100
AcDbArc
 50
270.0
 51
359.9999906062003
  0
ARC
  5
1312
330
1B
100
AcDbEntity
  8
0
  6
CONTINUOUS
 62
     7
100
AcDbCircle
 10
216.4400955157289
 20
244.1227396268524
 30
0.0
 40
3.0
100
AcDbArc
 50
92.9999999999991
 51
180.0
  0
ARC
  5
1313
330
1B
100
AcDbEntity
  8
0
  6
CONTINUOUS
 62
     7
100
AcDbCircle
 10
236.9400955157289
 20
249.6488083608524
 30
0.0
 40
1.0
100
AcDbArc
 50
90.0
 51
180.0
  0
ARC
  5
1314
330
1B
100
AcDbEntity
  8
0
  6
CONTINUOUS
 62
     7
100
AcDbCircle
 10
235.4400955157289
 20
248.6232906441526
 30
0.0
 40
0.5
100
AcDbArc
 50
272.9999999999991
 51
0.0
  0
LINE
  5
1315
330
1B
100
AcDbEntity
  8
0
  6
CONTINUOUS
 62
     7
100
AcDbLine
 10
240.692460212229
 20
251.8188421953525
 30
0.0
 11
240.590095515729
 21
250.6488083608525
 31
0.0
  0
LINE
  5
1316
330
1B
100
AcDbEntity
  8
7_ALL_FEATURES
  6
CONTINUOUS
 62
     7
100
AcDbLine
 10
257.1067619281289
 20
237.8530636794523
 30
0.0
 11
257.373428340429
 21
238.1254040963524
 31
0.0
  0
LINE
  5
1317
330
1B
100
AcDbEntity
  8
7_ALL_FEATURES
  6
CONTINUOUS
 62
     7
100
AcDbLine
 10
257.1734291034291
 20
238.7381700284526
 30
0.0
 11
257.1067619281289
 21
238.4658296353524
 31
0.0
  0
CIRCLE
  5
1318
330
1B
100
AcDbEntity
  8
0
  6
CONTINUOUS
 62
     7
100
AcDbCircle
 10
247.7400955157289
 20
223.0488083608523
 30
0.0
 40
0.5
  0
ARC
  5
1319
330
1B
100
AcDbEntity
  8
0
  6
CONTINUOUS
 62
     7
100
AcDbCircle
 10
249.5400955157288
 20
224.4488083608525
 30
0.0
 40
1.5
100
AcDbArc
 50
157.2092402768996
 51
179.4416791669992
  0
CIRCLE
  5
131A
330
1B
100
AcDbEntity
  8
0
  6
CONTINUOUS
 62
     7
100
AcDbCircle
 10
247.7400955157289
 20
224.8488083608524
 30
0.0
 40
0.5
  0
CIRCLE
  5
131B
330
1B
100
AcDbEntity
  8
0
  6
CONTINUOUS
 62
     7
100
AcDbCircle
 10
247.7400955157289
 20
226.6488083608524
 30
0.0
 40
0.5
  0
CIRCLE
  5
131C
330
1B
100
AcDbEntity
  8
0
  6
CONTINUOUS
 62
     7
100
AcDbCircle
 10
249.5400955157288
 20
223.0488083608523
 30
0.0
 40
0.5
  0
ARC
  5
131D
330
1B
100
AcDbEntity
  8
0
  6
CONTINUOUS
 62
     7
100
AcDbCircle
 10
249.5400955157288
 20
224.4488083608525
 30
0.0
 40
1.5
100
AcDbArc
 50
250.3454345102982
 51
289.6545654897017
  0
ARC
  5
131E
330
1B
100
AcDbEntity
  8
0
  6
CONTINUOUS
 62
     7
100
AcDbCircle
 10
249.5400955157288
 20
224.4488083608525
 30
0.0
 40
1.5
100
AcDbArc
 50
0.5583208329991144
 51
22.79075972310039
  0
CIRCLE
  5
131F
330
1B
100
AcDbEntity
  8
0
  6
CONTINUOUS
 62
     7
100
AcDbCircle
 10
249.5400955157288
 20
224.8488083608524
 30
0.0
 40
0.5
  0
CIRCLE
  5
1320
330
1B
100
AcDbEntity
  8
0
  6
CONTINUOUS
 62
     7
100
AcDbCircle
 10
249.5400955157288
 20
226.6488083608524
 30
0.0
 40
0.5
  0
CIRCLE
  5
1321
330
1B
100
AcDbEntity
  8
0
  6
CONTINUOUS
 62
     7
100
AcDbCircle
 10
251.340095515729
 20
223.0488083608523
 30
0.0
 40
0.5
  0
CIRCLE
  5
1322
330
1B
100
AcDbEntity
  8
0
  6
CONTINUOUS
 62
     7
100
AcDbCircle
 10
251.340095515729
 20
224.8488083608524
 30
0.0
 40
0.5
  0
CIRCLE
  5
1323
330
1B
100
AcDbEntity
  8
0
  6
CONTINUOUS
 62
     7
100
AcDbCircle
 10
251.340095515729
 20
226.6488083608524
 30
0.0
 40
0.5
  0
LINE
  5
1324
330
1B
100
AcDbEntity
  8
7_ALL_FEATURES
  6
CONTINUOUS
 62
     7
100
AcDbLine
 10
244.4400955157289
 20
240.8488083608524
 30
0.0
 11
245.0400955157288
 21
240.8488083608524
 31
0.0
  0
LINE
  5
1325
330
1B
100
AcDbEntity
  8
7_ALL_FEATURES
  6
CONTINUOUS
 62
     7
100
AcDbLine
 10
245.7734288173288
 20
237.6488083608524
 30
0.0
 11
244.840095515729
 21
240.1679573781524
 31
0.0
  0
LINE
  5
1326
330
1B
100
AcDbEntity
  8
7_ALL_FEATURES
  6
CONTINUOUS
 62
     7
100
AcDbLine
 10
244.840095515729
 20
237.6488083608524
 30
0.0
 11
244.4400955157289
 21
237.6488083608524
 31
0.0
  0
LINE
  5
1327
330
1B
100
AcDbEntity
  8
7_ALL_FEATURES
  6
CONTINUOUS
 62
     7
100
AcDbLine
 10
244.840095515729
 20
240.1679573781524
 30
0.0
 11
244.840095515729
 21
237.6488083608524
 31
0.0
  0
LINE
  5
1328
330
1B
100
AcDbEntity
  8
7_ALL_FEATURES
  6
CONTINUOUS
 62
     7
100
AcDbLine
 10
244.4400955157289
 20
237.6488083608524
 30
0.0
 11
244.4400955157289
 21
240.8488083608524
 31
0.0
  0
LINE
  5
1329
330
1B
100
AcDbEntity
  8
7_ALL_FEATURES
  6
CONTINUOUS
 62
     7
100
AcDbLine
 10
248.173428721929
 20
240.8488083608524
 30
0.0
 11
248.5734287219289
 21
240.8488083608524
 31
0.0
  0
LINE
  5
132A
330
1B
100
AcDbEntity
  8
7_ALL_FEATURES
  6
CONTINUOUS
 62
     7
100
AcDbLine
 10
248.5734287219289
 20
237.6488083608524
 30
0.0
 11
248.173428721929
 21
237.6488083608524
 31
0.0
  0
LINE
  5
132B
330
1B
100
AcDbEntity
  8
7_ALL_FEATURES
  6
CONTINUOUS
 62
     7
100
AcDbLine
 10
248.5734287219289
 20
240.8488083608524
 30
0.0
 11
248.5734287219289
 21
237.6488083608524
 31
0.0
  0
LINE
  5
132C
330
1B
100
AcDbEntity
  8
7_ALL_FEATURES
  6
CONTINUOUS
 62
     7
100
AcDbLine
 10
248.173428721929
 20
237.6488083608524
 30
0.0
 11
248.173428721929
 21
240.8488083608524
 31
0.0
  0
LINE
  5
132D
330
1B
100
AcDbEntity
  8
7_ALL_FEATURES
  6
CONTINUOUS
 62
     7
100
AcDbLine
 10
247.640095515729
 20
240.8488083608524
 30
0.0
 11
247.640095515729
 21
237.6488083608524
 31
0.0
  0
LINE
  5
132E
330
1B
100
AcDbEntity
  8
7_ALL_FEATURES
  6
CONTINUOUS
 62
     7
100
AcDbLine
 10
247.2400955157289
 20
237.6488083608524
 30
0.0
 11
247.2400955157289
 21
240.1679573781524
 31
0.0
  0
LINE
  5
132F
330
1B
100
AcDbEntity
  8
7_ALL_FEATURES
  6
CONTINUOUS
 62
     7
100
AcDbLine
 10
247.640095515729
 20
237.6488083608524
 30
0.0
 11
247.2400955157289
 21
237.6488083608524
 31
0.0
  0
LINE
  5
1330
330
1B
100
AcDbEntity
  8
7_ALL_FEATURES
  6
CONTINUOUS
 62
     7
100
AcDbLine
 10
246.3067621188288
 20
237.6488083608524
 30
0.0
 11
245.7734288173288
 21
237.6488083608524
 31
0.0
  0
LINE
  5
1331
330
1B
100
AcDbEntity
  8
7_ALL_FEATURES
  6
CONTINUOUS
 62
     7
100
AcDbLine
 10
246.0400955157288
 20
237.9892338998526
 30
0.0
 11
247.0400955157288
 21
240.8488083608524
 31
0.0
  0
LINE
  5
1332
330
1B
100
AcDbEntity
  8
7_ALL_FEATURES
  6
CONTINUOUS
 62
     7
100
AcDbLine
 10
245.0400955157288
 20
240.8488083608524
 30
0.0
 11
246.0400955157288
 21
237.9892338998526
 31
0.0
  0
LINE
  5
1333
330
1B
100
AcDbEntity
  8
7_ALL_FEATURES
  6
CONTINUOUS
 62
     7
100
AcDbLine
 10
247.2400955157289
 20
240.1679573781524
 30
0.0
 11
246.3067621188288
 21
237.6488083608524
 31
0.0
  0
LINE
  5
1334
330
1B
100
AcDbEntity
  8
7_ALL_FEATURES
  6
CONTINUOUS
 62
     7
100
AcDbLine
 10
247.0400955157288
 20
240.8488083608524
 30
0.0
 11
247.640095515729
 21
240.8488083608524
 31
0.0
  0
LINE
  5
1335
330
1B
100
AcDbEntity
  8
0
  6
CONTINUOUS
 62
     7
100
AcDbLine
 10
244.7400955157289
 20
252.0356683274524
 30
0.0
 11
245.787730819329
 21
251.8188421953525
 31
0.0
  0
ARC
  5
1336
330
1B
100
AcDbEntity
  8
0
  6
CONTINUOUS
 62
     7
100
AcDbCircle
 10
243.2400955157289
 20
242.1488083608525
 30
0.0
 40
9.9874921777
100
AcDbArc
 50
81.36218697280284
 51
87.13042380410177
  0
LINE
  5
1337
330
1B
100
AcDbEntity
  8
0
  6
CONTINUOUS
 62
     7
100
AcDbLine
 10
244.7400955157289
 20
252.0356683274524
 30
0.0
 11
244.7400955157289
 21
252.0230171898525
 31
0.0
  0
LINE
  5
1338
330
1B
100
AcDbEntity
  8
0
  6
CONTINUOUS
 62
     7
100
AcDbLine
 10
243.7400955157289
 20
252.1237770324525
 30
0.0
 11
243.7400955157289
 21
252.0230171898525
 31
0.0
  0
ARC
  5
1339
330
1B
100
AcDbEntity
  8
0
  6
CONTINUOUS
 62
     7
100
AcDbCircle
 10
243.2400955157289
 20
242.1488083608525
 30
0.0
 40
9.9874921777
100
AcDbArc
 50
92.86957619589824
 51
98.63781302719715
  0
LINE
  5
133A
330
1B
100
AcDbEntity
  8
0
  6
CONTINUOUS
 62
     7
100
AcDbLine
 10
242.7400955157289
 20
252.0230171898525
 30
0.0
 11
242.7400955157289
 21
252.1237770324525
 31
0.0
  0
LINE
  5
133B
330
1B
100
AcDbEntity
  8
0
  6
CONTINUOUS
 62
     7
100
AcDbLine
 10
241.7400955157289
 20
252.0230171898525
 30
0.0
 11
241.7400955157289
 21
252.0356683274524
 31
0.0
  0
ARC
  5
133C
330
1B
100
AcDbEntity
  8
0
  6
CONTINUOUS
 62
     7
100
AcDbCircle
 10
243.2400955157289
 20
242.1488083608525
 30
0.0
 40
9.886859966599999
100
AcDbArc
 50
87.10119134839962
 51
92.89880865160041
  0
LINE
  5
133D
330
1B
100
AcDbEntity
  8
0
  6
CONTINUOUS
 62
     7
100
AcDbLine
 10
245.787730819329
 20
251.8188421953525
 30
0.0
 11
245.890095515729
 21
250.6488083608525
 31
0.0
  0
LINE
  5
133E
330
1B
100
AcDbEntity
  8
7_ALL_FEATURES
  6
CONTINUOUS
 62
     7
100
AcDbLine
 10
253.2400955157289
 20
240.8488083608524
 30
0.0
 11
252.973429103429
 21
240.7807232625525
 31
0.0
  0
LINE
  5
133F
330
1B
100
AcDbEntity
  8
7_ALL_FEATURES
  6
CONTINUOUS
 62
     7
100
AcDbLine
 10
252.973429103429
 20
239.1466807134525
 30
0.0
 11
253.2400955157289
 21
239.0785956151525
 31
0.0
  0
LINE
  5
1340
330
1B
100
AcDbEntity
  8
7_ALL_FEATURES
  6
CONTINUOUS
 62
     7
100
AcDbLine
 10
252.773429103429
 20
237.7168934650525
 30
0.0
 11
253.1067619281289
 21
237.6488083608524
 31
0.0
  0
LINE
  5
1341
330
1B
100
AcDbEntity
  8
7_ALL_FEATURES
  6
CONTINUOUS
 62
     7
100
AcDbLine
 10
253.2400955157289
 20
239.4871062047524
 30
0.0
 11
253.0400955157288
 21
239.5551913030524
 31
0.0
  0
LINE
  5
1342
330
1B
100
AcDbEntity
  8
7_ALL_FEATURES
  6
CONTINUOUS
 62
     7
100
AcDbLine
 10
253.1067619281289
 20
238.0573189981525
 30
0.0
 11
252.840095515729
 21
238.1254040963524
 31
0.0
  0
LINE
  5
1343
330
1B
100
AcDbEntity
  8
7_ALL_FEATURES
  6
CONTINUOUS
 62
     7
100
AcDbLine
 10
253.0400955157288
 20
240.3722126729524
 30
0.0
 11
253.2400955157289
 21
240.4402977712525
 31
0.0
  0
LINE
  5
1344
330
1B
100
AcDbEntity
  8
7_ALL_FEATURES
  6
CONTINUOUS
 62
     7
100
AcDbLine
 10
251.640095515729
 20
240.8488083608524
 30
0.0
 11
251.640095515729
 21
240.5083828694525
 31
0.0
  0
LINE
  5
1345
330
1B
100
AcDbEntity
  8
7_ALL_FEATURES
  6
CONTINUOUS
 62
     7
100
AcDbLine
 10
252.5734291034289
 20
238.5339147336525
 30
0.0
 11
252.1734291034291
 21
238.5339147336525
 31
0.0
  0
LINE
  5
1346
330
1B
100
AcDbEntity
  8
7_ALL_FEATURES
  6
CONTINUOUS
 62
     7
100
AcDbLine
 10
252.706761928129
 20
239.2828509099526
 30
0.0
 11
252.973429103429
 21
239.1466807134525
 31
0.0
  0
LINE
  5
1347
330
1B
100
AcDbEntity
  8
7_ALL_FEATURES
  6
CONTINUOUS
 62
     7
100
AcDbLine
 10
253.0400955157288
 20
239.5551913030524
 30
0.0
 11
252.840095515729
 21
239.6913614995524
 31
0.0
  0
LINE
  5
1348
330
1B
100
AcDbEntity
  8
7_ALL_FEATURES
  6
CONTINUOUS
 62
     7
100
AcDbLine
 10
252.4400955157289
 20
237.9211487777525
 30
0.0
 11
252.773429103429
 21
237.7168934650525
 31
0.0
  0
LINE
  5
1349
330
1B
100
AcDbEntity
  8
7_ALL_FEATURES
  6
CONTINUOUS
 62
     7
100
AcDbLine
 10
252.4400955157289
 20
239.5551913030524
 30
0.0
 11
252.706761928129
 21
239.2828509099526
 31
0.0
  0
LINE
  5
134A
330
1B
100
AcDbEntity
  8
7_ALL_FEATURES
  6
CONTINUOUS
 62
     7
100
AcDbLine
 10
252.840095515729
 20
238.1254040963524
 30
0.0
 11
252.6400955157289
 21
238.3296594388524
 31
0.0
  0
LINE
  5
134B
330
1B
100
AcDbEntity
  8
7_ALL_FEATURES
  6
CONTINUOUS
 62
     7
100
AcDbLine
 10
252.2400955157289
 20
238.2615743405525
 30
0.0
 11
252.4400955157289
 21
237.9211487777525
 31
0.0
  0
LINE
  5
134C
330
1B
100
AcDbEntity
  8
7_ALL_FEATURES
  6
CONTINUOUS
 62
     7
100
AcDbLine
 10
252.3734291034289
 20
239.8275316960526
 30
0.0
 11
252.4400955157289
 21
239.5551913030524
 31
0.0
  0
LINE
  5
134D
330
1B
100
AcDbEntity
  8
7_ALL_FEATURES
  6
CONTINUOUS
 62
     7
100
AcDbLine
 10
252.1734291034291
 20
238.5339147336525
 30
0.0
 11
252.2400955157289
 21
238.2615743405525
 31
0.0
  0
LINE
  5
134E
330
1B
100
AcDbEntity
  8
7_ALL_FEATURES
  6
CONTINUOUS
 62
     7
100
AcDbLine
 10
252.840095515729
 20
239.6913614995524
 30
0.0
 11
252.773429103429
 21
239.8956167943523
 31
0.0
  0
LINE
  5
134F
330
1B
100
AcDbEntity
  8
7_ALL_FEATURES
  6
CONTINUOUS
 62
     7
100
AcDbLine
 10
252.6400955157289
 20
238.3296594388524
 30
0.0
 11
252.5734291034289
 21
238.5339147336525
 31
0.0
  0
LINE
  5
1350
330
1B
100
AcDbEntity
  8
7_ALL_FEATURES
  6
CONTINUOUS
 62
     7
100
AcDbLine
 10
252.973429103429
 20
240.7807232625525
 30
0.0
 11
252.706761928129
 21
240.6445530660525
 31
0.0
  0
LINE
  5
1351
330
1B
100
AcDbEntity
  8
7_ALL_FEATURES
  6
CONTINUOUS
 62
     7
100
AcDbLine
 10
252.773429103429
 20
239.8956167943523
 30
0.0
 11
252.773429103429
 21
240.0317869908525
 31
0.0
  0
LINE
  5
1352
330
1B
100
AcDbEntity
  8
7_ALL_FEATURES
  6
CONTINUOUS
 62
     7
100
AcDbLine
 10
252.3734291034289
 20
240.0998722798525
 30
0.0
 11
252.3734291034289
 21
239.8275316960526
 31
0.0
  0
LINE
  5
1353
330
1B
100
AcDbEntity
  8
7_ALL_FEATURES
  6
CONTINUOUS
 62
     7
100
AcDbLine
 10
252.840095515729
 20
240.2360424764526
 30
0.0
 11
253.0400955157288
 21
240.3722126729524
 31
0.0
  0
LINE
  5
1354
330
1B
100
AcDbEntity
  8
7_ALL_FEATURES
  6
CONTINUOUS
 62
     7
100
AcDbLine
 10
252.706761928129
 20
240.6445530660525
 30
0.0
 11
252.4400955157289
 21
240.3722126729524
 31
0.0
  0
LINE
  5
1355
330
1B
100
AcDbEntity
  8
7_ALL_FEATURES
  6
CONTINUOUS
 62
     7
100
AcDbLine
 10
252.773429103429
 20
240.0317869908525
 30
0.0
 11
252.840095515729
 21
240.2360424764526
 31
0.0
  0
LINE
  5
1356
330
1B
100
AcDbEntity
  8
7_ALL_FEATURES
  6
CONTINUOUS
 62
     7
100
AcDbLine
 10
252.4400955157289
 20
240.3722126729524
 30
0.0
 11
252.3734291034289
 21
240.0998722798525
 31
0.0
  0
LINE
  5
1357
330
1B
100
AcDbEntity
  8
7_ALL_FEATURES
  6
CONTINUOUS
 62
     7
100
AcDbLine
 10
250.5734287219289
 20
237.6488083608524
 30
0.0
 11
250.173428721929
 21
237.6488083608524
 31
0.0
  0
LINE
  5
1358
330
1B
100
AcDbEntity
  8
7_ALL_FEATURES
  6
CONTINUOUS
 62
     2
100
AcDbLine
 10
250.173428721929
 20
238.8324547970525
 30
0.0
 11
250.5734287219289
 21
239.2324547970524
 31
0.0
  0
LINE
  5
1359
330
1B
100
AcDbEntity
  8
7_ALL_FEATURES
  6
CONTINUOUS
 62
     7
100
AcDbLine
 10
250.5734287219289
 20
240.5083828694525
 30
0.0
 11
250.5734287219289
 21
237.6488083608524
 31
0.0
  0
LINE
  5
135A
330
1B
100
AcDbEntity
  8
7_ALL_FEATURES
  6
CONTINUOUS
 62
     7
100
AcDbLine
 10
250.173428721929
 20
237.6488083608524
 30
0.0
 11
250.173428721929
 21
240.5083828694525
 31
0.0
  0
LINE
  5
135B
330
1B
100
AcDbEntity
  8
7_ALL_FEATURES
  6
CONTINUOUS
 62
     7
100
AcDbLine
 10
249.1067623096288
 20
240.5083828694525
 30
0.0
 11
249.1067623096288
 21
240.8488083608524
 31
0.0
  0
LINE
  5
135C
330
1B
100
AcDbEntity
  8
7_ALL_FEATURES
  6
CONTINUOUS
 62
     7
100
AcDbLine
 10
250.173428721929
 20
240.5083828694525
 30
0.0
 11
249.1067623096288
 21
240.5083828694525
 31
0.0
  0
LINE
  5
135D
330
1B
100
AcDbEntity
  8
7_ALL_FEATURES
  6
CONTINUOUS
 62
     7
100
AcDbLine
 10
249.1067623096288
 20
240.8488083608524
 30
0.0
 11
251.640095515729
 21
240.8488083608524
 31
0.0
  0
LINE
  5
135E
330
1B
100
AcDbEntity
  8
7_ALL_FEATURES
  6
CONTINUOUS
 62
     7
100
AcDbLine
 10
251.640095515729
 20
240.5083828694525
 30
0.0
 11
250.5734287219289
 21
240.5083828694525
 31
0.0
  0
LINE
  5
135F
330
1B
100
AcDbEntity
  8
7_ALL_FEATURES
  6
CONTINUOUS
 62
     7
100
AcDbLine
 10
255.640095515729
 20
237.8530636794523
 30
0.0
 11
255.9067619281289
 21
237.7168934650525
 31
0.0
  0
LINE
  5
1360
330
1B
100
AcDbEntity
  8
7_ALL_FEATURES
  6
CONTINUOUS
 62
     7
100
AcDbLine
 10
255.7734291034289
 20
238.2615743405525
 30
0.0
 11
255.640095515729
 21
238.4658296353524
 31
0.0
  0
LINE
  5
1361
330
1B
100
AcDbEntity
  8
7_ALL_FEATURES
  6
CONTINUOUS
 62
     7
100
AcDbLine
 10
255.640095515729
 20
238.4658296353524
 30
0.0
 11
255.5734291034289
 21
238.7381700284526
 31
0.0
  0
LINE
  5
1362
330
1B
100
AcDbEntity
  8
7_ALL_FEATURES
  6
CONTINUOUS
 62
     7
100
AcDbLine
 10
255.5734291034289
 20
238.7381700284526
 30
0.0
 11
255.5734291034289
 21
240.8488083608524
 31
0.0
  0
LINE
  5
1363
330
1B
100
AcDbEntity
  8
7_ALL_FEATURES
  6
CONTINUOUS
 62
     7
100
AcDbLine
 10
256.773429103429
 20
238.1254040963524
 30
0.0
 11
256.506761928129
 21
238.0573189981525
 31
0.0
  0
LINE
  5
1364
330
1B
100
AcDbEntity
  8
7_ALL_FEATURES
  6
CONTINUOUS
 62
     7
100
AcDbLine
 10
256.506761928129
 20
237.6488083608524
 30
0.0
 11
256.840095515729
 21
237.7168934650525
 31
0.0
  0
LINE
  5
1365
330
1B
100
AcDbEntity
  8
7_ALL_FEATURES
  6
CONTINUOUS
 62
     7
100
AcDbLine
 10
256.506761928129
 20
238.0573189981525
 30
0.0
 11
256.2400955157289
 21
238.0573189981525
 31
0.0
  0
LINE
  5
1366
330
1B
100
AcDbEntity
  8
7_ALL_FEATURES
  6
CONTINUOUS
 62
     7
100
AcDbLine
 10
256.2400955157289
 20
237.6488083608524
 30
0.0
 11
256.506761928129
 21
237.6488083608524
 31
0.0
  0
LINE
  5
1367
330
1B
100
AcDbEntity
  8
7_ALL_FEATURES
  6
CONTINUOUS
 62
     7
100
AcDbLine
 10
256.2400955157289
 20
238.0573189981525
 30
0.0
 11
255.973429103429
 21
238.1254040963524
 31
0.0
  0
LINE
  5
1368
330
1B
100
AcDbEntity
  8
7_ALL_FEATURES
  6
CONTINUOUS
 62
     7
100
AcDbLine
 10
255.9067619281289
 20
237.7168934650525
 30
0.0
 11
256.2400955157289
 21
237.6488083608524
 31
0.0
  0
LINE
  5
1369
330
1B
100
AcDbEntity
  8
7_ALL_FEATURES
  6
CONTINUOUS
 62
     7
100
AcDbLine
 10
255.973429103429
 20
238.1254040963524
 30
0.0
 11
255.7734291034289
 21
238.2615743405525
 31
0.0
  0
LINE
  5
136A
330
1B
100
AcDbEntity
  8
7_ALL_FEATURES
  6
CONTINUOUS
 62
     7
100
AcDbLine
 10
256.840095515729
 20
237.7168934650525
 30
0.0
 11
257.1067619281289
 21
237.8530636794523
 31
0.0
  0
LINE
  5
136B
330
1B
100
AcDbEntity
  8
7_ALL_FEATURES
  6
CONTINUOUS
 62
     7
100
AcDbLine
 10
256.973429103429
 20
238.2615743405525
 30
0.0
 11
256.773429103429
 21
238.1254040963524
 31
0.0
  0
LINE
  5
136C
330
1B
100
AcDbEntity
  8
7_ALL_FEATURES
  6
CONTINUOUS
 62
     7
100
AcDbLine
 10
257.1067619281289
 20
238.4658296353524
 30
0.0
 11
256.973429103429
 21
238.2615743405525
 31
0.0
  0
LINE
  5
136D
330
1B
100
AcDbEntity
  8
7_ALL_FEATURES
  6
CONTINUOUS
 62
     7
100
AcDbLine
 10
255.3734291034289
 20
238.1254040963524
 30
0.0
 11
255.640095515729
 21
237.8530636794523
 31
0.0
  0
LINE
  5
136E
330
1B
100
AcDbEntity
  8
7_ALL_FEATURES
  6
CONTINUOUS
 62
     7
100
AcDbLine
 10
253.9067619281291
 20
238.1254040963524
 30
0.0
 11
253.640095515729
 21
238.0573189981525
 31
0.0
  0
LINE
  5
136F
330
1B
100
AcDbEntity
  8
7_ALL_FEATURES
  6
CONTINUOUS
 62
     7
100
AcDbLine
 10
254.0400955157288
 20
240.0998722798525
 30
0.0
 11
254.4400955157289
 21
240.0998722798525
 31
0.0
  0
LINE
  5
1370
330
1B
100
AcDbEntity
  8
7_ALL_FEATURES
  6
CONTINUOUS
 62
     7
100
AcDbLine
 10
253.640095515729
 20
237.6488083608524
 30
0.0
 11
253.973429103429
 21
237.7168934650525
 31
0.0
  0
LINE
  5
1371
330
1B
100
AcDbEntity
  8
7_ALL_FEATURES
  6
CONTINUOUS
 62
     7
100
AcDbLine
 10
253.640095515729
 20
239.0785956151525
 30
0.0
 11
253.9067619281291
 21
239.0105105168524
 31
0.0
  0
LINE
  5
1372
330
1B
100
AcDbEntity
  8
7_ALL_FEATURES
  6
CONTINUOUS
 62
     7
100
AcDbLine
 10
253.9067619281291
 20
240.7807232625525
 30
0.0
 11
253.5734291034289
 21
240.8488083608524
 31
0.0
  0
LINE
  5
1373
330
1B
100
AcDbEntity
  8
7_ALL_FEATURES
  6
CONTINUOUS
 62
     7
100
AcDbLine
 10
253.973429103429
 20
239.4190211064525
 30
0.0
 11
253.640095515729
 21
239.4871062047524
 31
0.0
  0
LINE
  5
1374
330
1B
100
AcDbEntity
  8
7_ALL_FEATURES
  6
CONTINUOUS
 62
     7
100
AcDbLine
 10
253.640095515729
 20
240.4402977712525
 30
0.0
 11
253.840095515729
 21
240.3722126729524
 31
0.0
  0
LINE
  5
1375
330
1B
100
AcDbEntity
  8
7_ALL_FEATURES
  6
CONTINUOUS
 62
     7
100
AcDbLine
 10
254.2400955157289
 20
239.2828509099526
 30
0.0
 11
253.973429103429
 21
239.4190211064525
 31
0.0
  0
LINE
  5
1376
330
1B
100
AcDbEntity
  8
7_ALL_FEATURES
  6
CONTINUOUS
 62
     7
100
AcDbLine
 10
254.1734291034288
 20
240.5764679677524
 30
0.0
 11
253.9067619281291
 21
240.7807232625525
 31
0.0
  0
LINE
  5
1377
330
1B
100
AcDbEntity
  8
7_ALL_FEATURES
  6
CONTINUOUS
 62
     7
100
AcDbLine
 10
253.9067619281291
 20
239.0105105168524
 30
0.0
 11
254.1067619281289
 21
238.8743403203525
 31
0.0
  0
LINE
  5
1378
330
1B
100
AcDbEntity
  8
7_ALL_FEATURES
  6
CONTINUOUS
 62
     7
100
AcDbLine
 10
253.840095515729
 20
240.3722126729524
 30
0.0
 11
253.973429103429
 21
240.2360424764526
 31
0.0
  0
LINE
  5
1379
330
1B
100
AcDbEntity
  8
7_ALL_FEATURES
  6
CONTINUOUS
 62
     7
100
AcDbLine
 10
254.506761928129
 20
239.0105105168524
 30
0.0
 11
254.2400955157289
 21
239.2828509099526
 31
0.0
  0
LINE
  5
137A
330
1B
100
AcDbEntity
  8
7_ALL_FEATURES
  6
CONTINUOUS
 62
     7
100
AcDbLine
 10
254.3734291034289
 20
240.3041275746524
 30
0.0
 11
254.1734291034288
 21
240.5764679677524
 31
0.0
  0
LINE
  5
137B
330
1B
100
AcDbEntity
  8
7_ALL_FEATURES
  6
CONTINUOUS
 62
     7
100
AcDbLine
 10
254.1067619281289
 20
238.8743403203525
 30
0.0
 11
254.2400955157289
 21
238.6700849301525
 31
0.0
  0
LINE
  5
137C
330
1B
100
AcDbEntity
  8
7_ALL_FEATURES
  6
CONTINUOUS
 62
     7
100
AcDbLine
 10
254.4400955157289
 20
240.0998722798525
 30
0.0
 11
254.3734291034289
 21
240.3041275746524
 31
0.0
  0
LINE
  5
137D
330
1B
100
AcDbEntity
  8
7_ALL_FEATURES
  6
CONTINUOUS
 62
     7
100
AcDbLine
 10
253.973429103429
 20
240.2360424764526
 30
0.0
 11
254.0400955157288
 21
240.0998722798525
 31
0.0
  0
LINE
  5
137E
330
1B
100
AcDbEntity
  8
7_ALL_FEATURES
  6
CONTINUOUS
 62
     7
100
AcDbLine
 10
254.6400955157289
 20
238.7381700284526
 30
0.0
 11
254.506761928129
 21
239.0105105168524
 31
0.0
  0
LINE
  5
137F
330
1B
100
AcDbEntity
  8
7_ALL_FEATURES
  6
CONTINUOUS
 62
     7
100
AcDbLine
 10
255.1734291034291
 20
238.7381700284526
 30
0.0
 11
255.2400955157289
 21
238.3977445371526
 31
0.0
  0
LINE
  5
1380
330
1B
100
AcDbEntity
  8
7_ALL_FEATURES
  6
CONTINUOUS
 62
     7
100
AcDbLine
 10
253.973429103429
 20
237.7168934650525
 30
0.0
 11
254.2400955157289
 21
237.8530636794523
 31
0.0
  0
LINE
  5
1381
330
1B
100
AcDbEntity
  8
7_ALL_FEATURES
  6
CONTINUOUS
 62
     7
100
AcDbLine
 10
254.1067619281289
 20
238.2615743405525
 30
0.0
 11
253.9067619281291
 21
238.1254040963524
 31
0.0
  0
LINE
  5
1382
330
1B
100
AcDbEntity
  8
7_ALL_FEATURES
  6
CONTINUOUS
 62
     7
100
AcDbLine
 10
255.1734291034291
 20
240.8488083608524
 30
0.0
 11
255.1734291034291
 21
238.7381700284526
 31
0.0
  0
LINE
  5
1383
330
1B
100
AcDbEntity
  8
7_ALL_FEATURES
  6
CONTINUOUS
 62
     7
100
AcDbLine
 10
254.6400955157289
 20
238.3977445371526
 30
0.0
 11
254.6400955157289
 21
238.7381700284526
 31
0.0
  0
LINE
  5
1384
330
1B
100
AcDbEntity
  8
7_ALL_FEATURES
  6
CONTINUOUS
 62
     7
100
AcDbLine
 10
254.2400955157289
 20
238.6700849301525
 30
0.0
 11
254.2400955157289
 21
238.4658296353524
 31
0.0
  0
LINE
  5
1385
330
1B
100
AcDbEntity
  8
7_ALL_FEATURES
  6
CONTINUOUS
 62
     7
100
AcDbLine
 10
254.2400955157289
 20
237.8530636794523
 30
0.0
 11
254.506761928129
 21
238.1254040963524
 31
0.0
  0
LINE
  5
1386
330
1B
100
AcDbEntity
  8
7_ALL_FEATURES
  6
CONTINUOUS
 62
     7
100
AcDbLine
 10
254.2400955157289
 20
238.4658296353524
 30
0.0
 11
254.1067619281289
 21
238.2615743405525
 31
0.0
  0
LINE
  5
1387
330
1B
100
AcDbEntity
  8
7_ALL_FEATURES
  6
CONTINUOUS
 62
     7
100
AcDbLine
 10
254.506761928129
 20
238.1254040963524
 30
0.0
 11
254.6400955157289
 21
238.3977445371526
 31
0.0
  0
LINE
  5
1388
330
1B
100
AcDbEntity
  8
7_ALL_FEATURES
  6
CONTINUOUS
 62
     7
100
AcDbLine
 10
253.5734291034289
 20
240.8488083608524
 30
0.0
 11
253.2400955157289
 21
240.8488083608524
 31
0.0
  0
LINE
  5
1389
330
1B
100
AcDbEntity
  8
7_ALL_FEATURES
  6
CONTINUOUS
 62
     7
100
AcDbLine
 10
253.2400955157289
 20
240.4402977712525
 30
0.0
 11
253.640095515729
 21
240.4402977712525
 31
0.0
  0
LINE
  5
138A
330
1B
100
AcDbEntity
  8
7_ALL_FEATURES
  6
CONTINUOUS
 62
     7
100
AcDbLine
 10
253.640095515729
 20
239.4871062047524
 30
0.0
 11
253.2400955157289
 21
239.4871062047524
 31
0.0
  0
LINE
  5
138B
330
1B
100
AcDbEntity
  8
7_ALL_FEATURES
  6
CONTINUOUS
 62
     7
100
AcDbLine
 10
253.2400955157289
 20
239.0785956151525
 30
0.0
 11
253.640095515729
 21
239.0785956151525
 31
0.0
  0
LINE
  5
138C
330
1B
100
AcDbEntity
  8
7_ALL_FEATURES
  6
CONTINUOUS
 62
     7
100
AcDbLine
 10
253.640095515729
 20
238.0573189981525
 30
0.0
 11
253.1067619281289
 21
238.0573189981525
 31
0.0
  0
LINE
  5
138D
330
1B
100
AcDbEntity
  8
7_ALL_FEATURES
  6
CONTINUOUS
 62
     7
100
AcDbLine
 10
253.1067619281289
 20
237.6488083608524
 30
0.0
 11
253.640095515729
 21
237.6488083608524
 31
0.0
  0
LINE
  5
138E
330
1B
100
AcDbEntity
  8
7_ALL_FEATURES
  6
CONTINUOUS
 62
     7
100
AcDbLine
 10
255.2400955157289
 20
238.3977445371526
 30
0.0
 11
255.3734291034289
 21
238.1254040963524
 31
0.0
  0
LINE
  5
138F
330
1B
100
AcDbEntity
  8
7_ALL_FEATURES
  6
CONTINUOUS
 62
     7
100
AcDbLine
 10
255.5734291034289
 20
240.8488083608524
 30
0.0
 11
255.1734291034291
 21
240.8488083608524
 31
0.0
  0
LINE
  5
1390
330
1B
100
AcDbEntity
  8
7_ALL_FEATURES
  6
CONTINUOUS
 62
     7
100
AcDbLine
 10
265.0400955157288
 20
240.8488083608524
 30
0.0
 11
265.4400955157289
 21
240.8488083608524
 31
0.0
  0
LINE
  5
1391
330
1B
100
AcDbEntity
  8
7_ALL_FEATURES
  6
CONTINUOUS
 62
     7
100
AcDbLine
 10
265.4400955157289
 20
237.6488083608524
 30
0.0
 11
265.0400955157288
 21
237.6488083608524
 31
0.0
  0
LINE
  5
1392
330
1B
100
AcDbEntity
  8
7_ALL_FEATURES
  6
CONTINUOUS
 62
     7
100
AcDbLine
 10
261.106762691029
 20
240.8488083608524
 30
0.0
 11
261.5067626910291
 21
240.8488083608524
 31
0.0
  0
LINE
  5
1393
330
1B
100
AcDbEntity
  8
7_ALL_FEATURES
  6
CONTINUOUS
 62
     7
100
AcDbLine
 10
261.5067626910291
 20
237.6488083608524
 30
0.0
 11
261.106762691029
 21
237.6488083608524
 31
0.0
  0
LINE
  5
1394
330
1B
100
AcDbEntity
  8
7_ALL_FEATURES
  6
CONTINUOUS
 62
     2
100
AcDbLine
 10
261.106762691029
 20
237.8863948422526
 30
0.0
 11
261.5067626910291
 21
238.2863948422524
 31
0.0
  0
LINE
  5
1395
330
1B
100
AcDbEntity
  8
7_ALL_FEATURES
  6
CONTINUOUS
 62
     7
100
AcDbLine
 10
260.0400955157288
 20
237.7168934650525
 30
0.0
 11
259.7067626910289
 21
237.6488083608524
 31
0.0
  0
LINE
  5
1396
330
1B
100
AcDbEntity
  8
7_ALL_FEATURES
  6
CONTINUOUS
 62
     7
100
AcDbLine
 10
259.9734283404291
 20
240.3722126729524
 30
0.0
 11
259.7734283404288
 21
240.4402977712525
 31
0.0
  0
LINE
  5
1397
330
1B
100
AcDbEntity
  8
7_ALL_FEATURES
  6
CONTINUOUS
 62
     7
100
AcDbLine
 10
259.7067626910289
 20
240.8488083608524
 30
0.0
 11
260.0400955157288
 21
240.7807232625525
 31
0.0
  0
LINE
  5
1398
330
1B
100
AcDbEntity
  8
7_ALL_FEATURES
  6
CONTINUOUS
 62
     7
100
AcDbLine
 10
259.7734283404288
 20
239.0785956151525
 30
0.0
 11
259.9734283404291
 21
239.0105105168524
 31
0.0
  0
LINE
  5
1399
330
1B
100
AcDbEntity
  8
7_ALL_FEATURES
  6
CONTINUOUS
 62
     7
100
AcDbLine
 10
259.9734283404291
 20
238.1254040963524
 30
0.0
 11
259.7734283404288
 21
238.0573189981525
 31
0.0
  0
LINE
  5
139A
330
1B
100
AcDbEntity
  8
7_ALL_FEATURES
  6
CONTINUOUS
 62
     7
100
AcDbLine
 10
259.7734283404288
 20
239.4871062047524
 30
0.0
 11
259.9734283404291
 21
239.5551913030524
 31
0.0
  0
LINE
  5
139B
330
1B
100
AcDbEntity
  8
7_ALL_FEATURES
  6
CONTINUOUS
 62
     7
100
AcDbLine
 10
260.1734283404289
 20
239.2828509099526
 30
0.0
 11
260.306762691029
 21
239.2147658116526
 31
0.0
  0
LINE
  5
139C
330
1B
100
AcDbEntity
  8
7_ALL_FEATURES
  6
CONTINUOUS
 62
     7
100
AcDbLine
 10
260.0400955157288
 20
240.7807232625525
 30
0.0
 11
260.306762691029
 21
240.5764679677524
 31
0.0
  0
LINE
  5
139D
330
1B
100
AcDbEntity
  8
7_ALL_FEATURES
  6
CONTINUOUS
 62
     7
100
AcDbLine
 10
260.306762691029
 20
240.5764679677524
 30
0.0
 11
260.5067626910291
 21
240.3041275746524
 31
0.0
  0
LINE
  5
139E
330
1B
100
AcDbEntity
  8
7_ALL_FEATURES
  6
CONTINUOUS
 62
     7
100
AcDbLine
 10
260.106762691029
 20
240.2360424764526
 30
0.0
 11
259.9734283404291
 21
240.3722126729524
 31
0.0
  0
LINE
  5
139F
330
1B
100
AcDbEntity
  8
7_ALL_FEATURES
  6
CONTINUOUS
 62
     7
100
AcDbLine
 10
259.9734283404291
 20
239.0105105168524
 30
0.0
 11
260.106762691029
 21
238.8743403203525
 31
0.0
  0
LINE
  5
13A0
330
1B
100
AcDbEntity
  8
7_ALL_FEATURES
  6
CONTINUOUS
 62
     7
100
AcDbLine
 10
260.306762691029
 20
239.2147658116526
 30
0.0
 11
260.5067626910291
 21
238.9424254186524
 31
0.0
  0
LINE
  5
13A1
330
1B
100
AcDbEntity
  8
7_ALL_FEATURES
  6
CONTINUOUS
 62
     7
100
AcDbLine
 10
260.5067626910291
 20
240.3041275746524
 30
0.0
 11
260.573428340429
 21
240.0998722798525
 31
0.0
  0
LINE
  5
13A2
330
1B
100
AcDbEntity
  8
7_ALL_FEATURES
  6
CONTINUOUS
 62
     7
100
AcDbLine
 10
260.1734283404289
 20
240.0317869908525
 30
0.0
 11
260.106762691029
 21
240.2360424764526
 31
0.0
  0
LINE
  5
13A3
330
1B
100
AcDbEntity
  8
7_ALL_FEATURES
  6
CONTINUOUS
 62
     7
100
AcDbLine
 10
260.5067626910291
 20
238.9424254186524
 30
0.0
 11
260.573428340429
 21
238.7381700284526
 31
0.0
  0
LINE
  5
13A4
330
1B
100
AcDbEntity
  8
7_ALL_FEATURES
  6
CONTINUOUS
 62
     7
100
AcDbLine
 10
260.106762691029
 20
238.8743403203525
 30
0.0
 11
260.1734283404289
 21
238.6700849301525
 31
0.0
  0
LINE
  5
13A5
330
1B
100
AcDbEntity
  8
7_ALL_FEATURES
  6
CONTINUOUS
 62
     7
100
AcDbLine
 10
261.106762691029
 20
237.6488083608524
 30
0.0
 11
261.106762691029
 21
240.8488083608524
 31
0.0
  0
LINE
  5
13A6
330
1B
100
AcDbEntity
  8
7_ALL_FEATURES
  6
CONTINUOUS
 62
     7
100
AcDbLine
 10
260.573428340429
 20
238.7381700284526
 30
0.0
 11
260.573428340429
 21
238.3977445371526
 31
0.0
  0
LINE
  5
13A7
330
1B
100
AcDbEntity
  8
7_ALL_FEATURES
  6
CONTINUOUS
 62
     7
100
AcDbLine
 10
260.573428340429
 20
240.0998722798525
 30
0.0
 11
260.573428340429
 21
239.8275316960526
 31
0.0
  0
LINE
  5
13A8
330
1B
100
AcDbEntity
  8
7_ALL_FEATURES
  6
CONTINUOUS
 62
     7
100
AcDbLine
 10
260.1734283404289
 20
239.8956167943523
 30
0.0
 11
260.1734283404289
 21
240.0317869908525
 31
0.0
  0
LINE
  5
13A9
330
1B
100
AcDbEntity
  8
7_ALL_FEATURES
  6
CONTINUOUS
 62
     7
100
AcDbLine
 10
260.1734283404289
 20
238.6700849301525
 30
0.0
 11
260.1734283404289
 21
238.4658296353524
 31
0.0
  0
LINE
  5
13AA
330
1B
100
AcDbEntity
  8
7_ALL_FEATURES
  6
CONTINUOUS
 62
     7
100
AcDbLine
 10
260.306762691029
 20
239.3509360082525
 30
0.0
 11
260.1734283404289
 21
239.2828509099526
 31
0.0
  0
LINE
  5
13AB
330
1B
100
AcDbEntity
  8
7_ALL_FEATURES
  6
CONTINUOUS
 62
     7
100
AcDbLine
 10
260.306762691029
 20
237.9211487777525
 30
0.0
 11
260.0400955157288
 21
237.7168934650525
 31
0.0
  0
LINE
  5
13AC
330
1B
100
AcDbEntity
  8
7_ALL_FEATURES
  6
CONTINUOUS
 62
     7
100
AcDbLine
 10
260.106762691029
 20
238.2615743405525
 30
0.0
 11
259.9734283404291
 21
238.1254040963524
 31
0.0
  0
LINE
  5
13AD
330
1B
100
AcDbEntity
  8
7_ALL_FEATURES
  6
CONTINUOUS
 62
     7
100
AcDbLine
 10
259.9734283404291
 20
239.5551913030524
 30
0.0
 11
260.106762691029
 21
239.6913614995524
 31
0.0
  0
LINE
  5
13AE
330
1B
100
AcDbEntity
  8
7_ALL_FEATURES
  6
CONTINUOUS
 62
     7
100
AcDbLine
 10
260.5067626910291
 20
238.1934891946525
 30
0.0
 11
260.306762691029
 21
237.9211487777525
 31
0.0
  0
LINE
  5
13AF
330
1B
100
AcDbEntity
  8
7_ALL_FEATURES
  6
CONTINUOUS
 62
     7
100
AcDbLine
 10
260.5067626910291
 20
239.6232764012525
 30
0.0
 11
260.306762691029
 21
239.3509360082525
 31
0.0
  0
LINE
  5
13B0
330
1B
100
AcDbEntity
  8
7_ALL_FEATURES
  6
CONTINUOUS
 62
     7
100
AcDbLine
 10
260.573428340429
 20
238.3977445371526
 30
0.0
 11
260.5067626910291
 21
238.1934891946525
 31
0.0
  0
LINE
  5
13B1
330
1B
100
AcDbEntity
  8
7_ALL_FEATURES
  6
CONTINUOUS
 62
     7
100
AcDbLine
 10
260.1734283404289
 20
238.4658296353524
 30
0.0
 11
260.106762691029
 21
238.2615743405525
 31
0.0
  0
LINE
  5
13B2
330
1B
100
AcDbEntity
  8
7_ALL_FEATURES
  6
CONTINUOUS
 62
     7
100
AcDbLine
 10
260.573428340429
 20
239.8275316960526
 30
0.0
 11
260.5067626910291
 21
239.6232764012525
 31
0.0
  0
LINE
  5
13B3
330
1B
100
AcDbEntity
  8
7_ALL_FEATURES
  6
CONTINUOUS
 62
     7
100
AcDbLine
 10
260.106762691029
 20
239.6913614995524
 30
0.0
 11
260.1734283404289
 21
239.8956167943523
 31
0.0
  0
LINE
  5
13B4
330
1B
100
AcDbEntity
  8
7_ALL_FEATURES
  6
CONTINUOUS
 62
     7
100
AcDbLine
 10
258.5067626910291
 20
238.0573189981525
 30
0.0
 11
258.5067626910291
 21
239.0785956151525
 31
0.0
  0
LINE
  5
13B5
330
1B
100
AcDbEntity
  8
7_ALL_FEATURES
  6
CONTINUOUS
 62
     7
100
AcDbLine
 10
258.5067626910291
 20
240.4402977712525
 30
0.0
 11
258.5067626910291
 21
239.4871062047524
 31
0.0
  0
LINE
  5
13B6
330
1B
100
AcDbEntity
  8
7_ALL_FEATURES
  6
CONTINUOUS
 62
     7
100
AcDbLine
 10
258.106762691029
 20
237.6488083608524
 30
0.0
 11
258.106762691029
 21
240.8488083608524
 31
0.0
  0
LINE
  5
13B7
330
1B
100
AcDbEntity
  8
7_ALL_FEATURES
  6
CONTINUOUS
 62
     7
100
AcDbLine
 10
257.573428340429
 20
238.7381700284526
 30
0.0
 11
257.573428340429
 21
240.8488083608524
 31
0.0
  0
LINE
  5
13B8
330
1B
100
AcDbEntity
  8
7_ALL_FEATURES
  6
CONTINUOUS
 62
     7
100
AcDbLine
 10
257.1734291034291
 20
240.8488083608524
 30
0.0
 11
257.1734291034291
 21
238.7381700284526
 31
0.0
  0
LINE
  5
13B9
330
1B
100
AcDbEntity
  8
7_ALL_FEATURES
  6
CONTINUOUS
 62
     7
100
AcDbLine
 10
257.373428340429
 20
238.1254040963524
 30
0.0
 11
257.5067626910291
 21
238.3977445371526
 31
0.0
  0
LINE
  5
13BA
330
1B
100
AcDbEntity
  8
7_ALL_FEATURES
  6
CONTINUOUS
 62
     7
100
AcDbLine
 10
257.573428340429
 20
240.8488083608524
 30
0.0
 11
257.1734291034291
 21
240.8488083608524
 31
0.0
  0
LINE
  5
13BB
330
1B
100
AcDbEntity
  8
7_ALL_FEATURES
  6
CONTINUOUS
 62
     7
100
AcDbLine
 10
257.5067626910291
 20
238.3977445371526
 30
0.0
 11
257.573428340429
 21
238.7381700284526
 31
0.0
  0
LINE
  5
13BC
330
1B
100
AcDbEntity
  8
7_ALL_FEATURES
  6
CONTINUOUS
 62
     7
100
AcDbLine
 10
258.106762691029
 20
240.8488083608524
 30
0.0
 11
259.7067626910289
 21
240.8488083608524
 31
0.0
  0
LINE
  5
13BD
330
1B
100
AcDbEntity
  8
7_ALL_FEATURES
  6
CONTINUOUS
 62
     7
100
AcDbLine
 10
259.7734283404288
 20
240.4402977712525
 30
0.0
 11
258.5067626910291
 21
240.4402977712525
 31
0.0
  0
LINE
  5
13BE
330
1B
100
AcDbEntity
  8
7_ALL_FEATURES
  6
CONTINUOUS
 62
     7
100
AcDbLine
 10
258.5067626910291
 20
239.4871062047524
 30
0.0
 11
259.7734283404288
 21
239.4871062047524
 31
0.0
  0
LINE
  5
13BF
330
1B
100
AcDbEntity
  8
7_ALL_FEATURES
  6
CONTINUOUS
 62
     7
100
AcDbLine
 10
258.5067626910291
 20
239.0785956151525
 30
0.0
 11
259.7734283404288
 21
239.0785956151525
 31
0.0
  0
LINE
  5
13C0
330
1B
100
AcDbEntity
  8
7_ALL_FEATURES
  6
CONTINUOUS
 62
     7
100
AcDbLine
 10
259.7734283404288
 20
238.0573189981525
 30
0.0
 11
258.5067626910291
 21
238.0573189981525
 31
0.0
  0
LINE
  5
13C1
330
1B
100
AcDbEntity
  8
7_ALL_FEATURES
  6
CONTINUOUS
 62
     7
100
AcDbLine
 10
259.7067626910289
 20
237.6488083608524
 30
0.0
 11
258.106762691029
 21
237.6488083608524
 31
0.0
  0
LINE
  5
13C2
330
1B
100
AcDbEntity
  8
7_ALL_FEATURES
  6
CONTINUOUS
 62
     7
100
AcDbLine
 10
263.9067626910289
 20
240.0998722798525
 30
0.0
 11
264.306762691029
 21
240.0998722798525
 31
0.0
  0
LINE
  5
13C3
330
1B
100
AcDbEntity
  8
7_ALL_FEATURES
  6
CONTINUOUS
 62
     7
100
AcDbLine
 10
264.106762691029
 20
239.2828509099526
 30
0.0
 11
263.840095515729
 21
239.4190211064525
 31
0.0
  0
LINE
  5
13C4
330
1B
100
AcDbEntity
  8
7_ALL_FEATURES
  6
CONTINUOUS
 62
     7
100
AcDbLine
 10
264.0400955157288
 20
240.5764679677524
 30
0.0
 11
263.7734283404288
 21
240.7807232625525
 31
0.0
  0
LINE
  5
13C5
330
1B
100
AcDbEntity
  8
7_ALL_FEATURES
  6
CONTINUOUS
 62
     7
100
AcDbLine
 10
263.9734283404291
 20
238.8743403203525
 30
0.0
 11
264.106762691029
 21
238.6700849301525
 31
0.0
  0
LINE
  5
13C6
330
1B
100
AcDbEntity
  8
7_ALL_FEATURES
  6
CONTINUOUS
 62
     7
100
AcDbLine
 10
263.840095515729
 20
237.7168934650525
 30
0.0
 11
264.106762691029
 21
237.8530636794523
 31
0.0
  0
LINE
  5
13C7
330
1B
100
AcDbEntity
  8
7_ALL_FEATURES
  6
CONTINUOUS
 62
     7
100
AcDbLine
 10
264.106762691029
 20
238.4658296353524
 30
0.0
 11
263.9734283404291
 21
238.2615743405525
 31
0.0
  0
LINE
  5
13C8
330
1B
100
AcDbEntity
  8
7_ALL_FEATURES
  6
CONTINUOUS
 62
     7
100
AcDbLine
 10
263.7734283404288
 20
239.0105105168524
 30
0.0
 11
263.9734283404291
 21
238.8743403203525
 31
0.0
  0
LINE
  5
13C9
330
1B
100
AcDbEntity
  8
7_ALL_FEATURES
  6
CONTINUOUS
 62
     7
100
AcDbLine
 10
263.7067626910289
 20
240.3722126729524
 30
0.0
 11
263.840095515729
 21
240.2360424764526
 31
0.0
  0
LINE
  5
13CA
330
1B
100
AcDbEntity
  8
7_ALL_FEATURES
  6
CONTINUOUS
 62
     7
100
AcDbLine
 10
263.840095515729
 20
240.2360424764526
 30
0.0
 11
263.9067626910289
 21
240.0998722798525
 31
0.0
  0
LINE
  5
13CB
330
1B
100
AcDbEntity
  8
7_ALL_FEATURES
  6
CONTINUOUS
 62
     7
100
AcDbLine
 10
263.9734283404291
 20
238.2615743405525
 30
0.0
 11
263.7734283404288
 21
238.1254040963524
 31
0.0
  0
LINE
  5
13CC
330
1B
100
AcDbEntity
  8
7_ALL_FEATURES
  6
CONTINUOUS
 62
     2
100
AcDbLine
 10
263.621579165329
 20
240.4012113165523
 30
0.0
 11
263.902345926429
 21
240.6819780776525
 31
0.0
  0
LINE
  5
13CD
330
1B
100
AcDbEntity
  8
7_ALL_FEATURES
  6
CONTINUOUS
 62
     7
100
AcDbLine
 10
264.373428340429
 20
239.0105105168524
 30
0.0
 11
264.106762691029
 21
239.2828509099526
 31
0.0
  0
LINE
  5
13CE
330
1B
100
AcDbEntity
  8
7_ALL_FEATURES
  6
CONTINUOUS
 62
     7
100
AcDbLine
 10
264.2400955157289
 20
240.3041275746524
 30
0.0
 11
264.0400955157288
 21
240.5764679677524
 31
0.0
  0
LINE
  5
13CF
330
1B
100
AcDbEntity
  8
7_ALL_FEATURES
  6
CONTINUOUS
 62
     7
100
AcDbLine
 10
264.5067626910289
 20
238.7381700284526
 30
0.0
 11
264.373428340429
 21
239.0105105168524
 31
0.0
  0
LINE
  5
13D0
330
1B
100
AcDbEntity
  8
7_ALL_FEATURES
  6
CONTINUOUS
 62
     7
100
AcDbLine
 10
264.306762691029
 20
240.0998722798525
 30
0.0
 11
264.2400955157289
 21
240.3041275746524
 31
0.0
  0
LINE
  5
13D1
330
1B
100
AcDbEntity
  8
7_ALL_FEATURES
  6
CONTINUOUS
 62
     7
100
AcDbLine
 10
265.0400955157288
 20
237.6488083608524
 30
0.0
 11
265.0400955157288
 21
240.8488083608524
 31
0.0
  0
LINE
  5
13D2
330
1B
100
AcDbEntity
  8
7_ALL_FEATURES
  6
CONTINUOUS
 62
     7
100
AcDbLine
 10
264.5067626910289
 20
238.3977445371526
 30
0.0
 11
264.5067626910289
 21
238.7381700284526
 31
0.0
  0
LINE
  5
13D3
330
1B
100
AcDbEntity
  8
7_ALL_FEATURES
  6
CONTINUOUS
 62
     7
100
AcDbLine
 10
264.106762691029
 20
238.6700849301525
 30
0.0
 11
264.106762691029
 21
238.4658296353524
 31
0.0
  0
LINE
  5
13D4
330
1B
100
AcDbEntity
  8
7_ALL_FEATURES
  6
CONTINUOUS
 62
     7
100
AcDbLine
 10
264.373428340429
 20
238.1254040963524
 30
0.0
 11
264.5067626910289
 21
238.3977445371526
 31
0.0
  0
LINE
  5
13D5
330
1B
100
AcDbEntity
  8
7_ALL_FEATURES
  6
CONTINUOUS
 62
     7
100
AcDbLine
 10
264.106762691029
 20
237.8530636794523
 30
0.0
 11
264.373428340429
 21
238.1254040963524
 31
0.0
  0
LINE
  5
13D6
330
1B
100
AcDbEntity
  8
7_ALL_FEATURES
  6
CONTINUOUS
 62
     7
100
AcDbLine
 10
263.5067626910291
 20
237.6488083608524
 30
0.0
 11
263.840095515729
 21
237.7168934650525
 31
0.0
  0
LINE
  5
13D7
330
1B
100
AcDbEntity
  8
7_ALL_FEATURES
  6
CONTINUOUS
 62
     7
100
AcDbLine
 10
263.7734283404288
 20
238.1254040963524
 30
0.0
 11
263.5067626910291
 21
238.0573189981525
 31
0.0
  0
LINE
  5
13D8
330
1B
100
AcDbEntity
  8
7_ALL_FEATURES
  6
CONTINUOUS
 62
     7
100
AcDbLine
 10
263.7734283404288
 20
240.7807232625525
 30
0.0
 11
263.4400955157289
 21
240.8488083608524
 31
0.0
  0
LINE
  5
13D9
330
1B
100
AcDbEntity
  8
7_ALL_FEATURES
  6
CONTINUOUS
 62
     7
100
AcDbLine
 10
263.5067626910291
 20
240.4402977712525
 30
0.0
 11
263.7067626910289
 21
240.3722126729524
 31
0.0
  0
LINE
  5
13DA
330
1B
100
AcDbEntity
  8
7_ALL_FEATURES
  6
CONTINUOUS
 62
     7
100
AcDbLine
 10
263.5067626910291
 20
239.0785956151525
 30
0.0
 11
263.7734283404288
 21
239.0105105168524
 31
0.0
  0
LINE
  5
13DB
330
1B
100
AcDbEntity
  8
7_ALL_FEATURES
  6
CONTINUOUS
 62
     7
100
AcDbLine
 10
263.840095515729
 20
239.4190211064525
 30
0.0
 11
263.5067626910291
 21
239.4871062047524
 31
0.0
  0
LINE
  5
13DC
330
1B
100
AcDbEntity
  8
7_ALL_FEATURES
  6
CONTINUOUS
 62
     7
100
AcDbLine
 10
263.106762691029
 20
240.8488083608524
 30
0.0
 11
262.840095515729
 21
240.7807232625525
 31
0.0
  0
LINE
  5
13DD
330
1B
100
AcDbEntity
  8
7_ALL_FEATURES
  6
CONTINUOUS
 62
     7
100
AcDbLine
 10
262.4400955157289
 20
238.5339147336525
 30
0.0
 11
262.0400955157288
 21
238.5339147336525
 31
0.0
  0
LINE
  5
13DE
330
1B
100
AcDbEntity
  8
7_ALL_FEATURES
  6
CONTINUOUS
 62
     7
100
AcDbLine
 10
263.106762691029
 20
239.4871062047524
 30
0.0
 11
262.9067626910289
 21
239.5551913030524
 31
0.0
  0
LINE
  5
13DF
330
1B
100
AcDbEntity
  8
7_ALL_FEATURES
  6
CONTINUOUS
 62
     7
100
AcDbLine
 10
262.840095515729
 20
239.1466807134525
 30
0.0
 11
263.106762691029
 21
239.0785956151525
 31
0.0
  0
LINE
  5
13E0
330
1B
100
AcDbEntity
  8
7_ALL_FEATURES
  6
CONTINUOUS
 62
     7
100
AcDbLine
 10
262.9734283404291
 20
238.0573189981525
 30
0.0
 11
262.7067626910289
 21
238.1254040963524
 31
0.0
  0
LINE
  5
13E1
330
1B
100
AcDbEntity
  8
7_ALL_FEATURES
  6
CONTINUOUS
 62
     7
100
AcDbLine
 10
262.6400955157289
 20
237.7168934650525
 30
0.0
 11
262.9734283404291
 21
237.6488083608524
 31
0.0
  0
LINE
  5
13E2
330
1B
100
AcDbEntity
  8
7_ALL_FEATURES
  6
CONTINUOUS
 62
     7
100
AcDbLine
 10
262.5734283404288
 20
239.2828509099526
 30
0.0
 11
262.840095515729
 21
239.1466807134525
 31
0.0
  0
LINE
  5
13E3
330
1B
100
AcDbEntity
  8
7_ALL_FEATURES
  6
CONTINUOUS
 62
     7
100
AcDbLine
 10
262.9067626910289
 20
239.5551913030524
 30
0.0
 11
262.7067626910289
 21
239.6913614995524
 31
0.0
  0
LINE
  5
13E4
330
1B
100
AcDbEntity
  8
7_ALL_FEATURES
  6
CONTINUOUS
 62
     7
100
AcDbLine
 10
262.306762691029
 20
237.9211487777525
 30
0.0
 11
262.6400955157289
 21
237.7168934650525
 31
0.0
  0
LINE
  5
13E5
330
1B
100
AcDbEntity
  8
7_ALL_FEATURES
  6
CONTINUOUS
 62
     7
100
AcDbLine
 10
262.306762691029
 20
239.5551913030524
 30
0.0
 11
262.5734283404288
 21
239.2828509099526
 31
0.0
  0
LINE
  5
13E6
330
1B
100
AcDbEntity
  8
7_ALL_FEATURES
  6
CONTINUOUS
 62
     7
100
AcDbLine
 10
262.7067626910289
 20
238.1254040963524
 30
0.0
 11
262.5067626910291
 21
238.3296594388524
 31
0.0
  0
LINE
  5
13E7
330
1B
100
AcDbEntity
  8
7_ALL_FEATURES
  6
CONTINUOUS
 62
     7
100
AcDbLine
 10
262.106762691029
 20
238.2615743405525
 30
0.0
 11
262.306762691029
 21
237.9211487777525
 31
0.0
  0
LINE
  5
13E8
330
1B
100
AcDbEntity
  8
7_ALL_FEATURES
  6
CONTINUOUS
 62
     7
100
AcDbLine
 10
262.2400955157289
 20
239.8275316960526
 30
0.0
 11
262.306762691029
 21
239.5551913030524
 31
0.0
  0
LINE
  5
13E9
330
1B
100
AcDbEntity
  8
7_ALL_FEATURES
  6
CONTINUOUS
 62
     7
100
AcDbLine
 10
262.7067626910289
 20
239.6913614995524
 30
0.0
 11
262.6400955157289
 21
239.8956167943523
 31
0.0
  0
LINE
  5
13EA
330
1B
100
AcDbEntity
  8
7_ALL_FEATURES
  6
CONTINUOUS
 62
     7
100
AcDbLine
 10
262.5067626910291
 20
238.3296594388524
 30
0.0
 11
262.4400955157289
 21
238.5339147336525
 31
0.0
  0
LINE
  5
13EB
330
1B
100
AcDbEntity
  8
7_ALL_FEATURES
  6
CONTINUOUS
 62
     7
100
AcDbLine
 10
262.0400955157288
 20
238.5339147336525
 30
0.0
 11
262.106762691029
 21
238.2615743405525
 31
0.0
  0
LINE
  5
13EC
330
1B
100
AcDbEntity
  8
7_ALL_FEATURES
  6
CONTINUOUS
 62
     7
100
AcDbLine
 10
262.9067626910289
 20
240.3722126729524
 30
0.0
 11
263.106762691029
 21
240.4402977712525
 31
0.0
  0
LINE
  5
13ED
330
1B
100
AcDbEntity
  8
7_ALL_FEATURES
  6
CONTINUOUS
 62
     7
100
AcDbLine
 10
262.306762691029
 20
240.3722126729524
 30
0.0
 11
262.2400955157289
 21
240.0998722798525
 31
0.0
  0
LINE
  5
13EE
330
1B
100
AcDbEntity
  8
7_ALL_FEATURES
  6
CONTINUOUS
 62
     7
100
AcDbLine
 10
262.6400955157289
 20
239.8956167943523
 30
0.0
 11
262.6400955157289
 21
240.0317869908525
 31
0.0
  0
LINE
  5
13EF
330
1B
100
AcDbEntity
  8
7_ALL_FEATURES
  6
CONTINUOUS
 62
     7
100
AcDbLine
 10
262.2400955157289
 20
240.0998722798525
 30
0.0
 11
262.2400955157289
 21
239.8275316960526
 31
0.0
  0
LINE
  5
13F0
330
1B
100
AcDbEntity
  8
7_ALL_FEATURES
  6
CONTINUOUS
 62
     7
100
AcDbLine
 10
262.840095515729
 20
240.7807232625525
 30
0.0
 11
262.5734283404288
 21
240.6445530660525
 31
0.0
  0
LINE
  5
13F1
330
1B
100
AcDbEntity
  8
7_ALL_FEATURES
  6
CONTINUOUS
 62
     7
100
AcDbLine
 10
262.7067626910289
 20
240.2360424764526
 30
0.0
 11
262.9067626910289
 21
240.3722126729524
 31
0.0
  0
LINE
  5
13F2
330
1B
100
AcDbEntity
  8
7_ALL_FEATURES
  6
CONTINUOUS
 62
     2
100
AcDbLine
 10
262.538693138629
 20
239.3183252897525
 30
0.0
 11
262.8287048854291
 21
239.6083370366525
 31
0.0
  0
LINE
  5
13F3
330
1B
100
AcDbEntity
  8
7_ALL_FEATURES
  6
CONTINUOUS
 62
     7
100
AcDbLine
 10
262.5734283404288
 20
240.6445530660525
 30
0.0
 11
262.306762691029
 21
240.3722126729524
 31
0.0
  0
LINE
  5
13F4
330
1B
100
AcDbEntity
  8
7_ALL_FEATURES
  6
CONTINUOUS
 62
     7
100
AcDbLine
 10
262.6400955157289
 20
240.0317869908525
 30
0.0
 11
262.7067626910289
 21
240.2360424764526
 31
0.0
  0
LINE
  5
13F5
330
1B
100
AcDbEntity
  8
7_ALL_FEATURES
  6
CONTINUOUS
 62
     7
100
AcDbLine
 10
261.5067626910291
 20
240.8488083608524
 30
0.0
 11
261.5067626910291
 21
237.6488083608524
 31
0.0
  0
LINE
  5
13F6
330
1B
100
AcDbEntity
  8
7_ALL_FEATURES
  6
CONTINUOUS
 62
     7
100
AcDbLine
 10
263.4400955157289
 20
240.8488083608524
 30
0.0
 11
263.106762691029
 21
240.8488083608524
 31
0.0
  0
LINE
  5
13F7
330
1B
100
AcDbEntity
  8
7_ALL_FEATURES
  6
CONTINUOUS
 62
     7
100
AcDbLine
 10
263.106762691029
 20
240.4402977712525
 30
0.0
 11
263.5067626910291
 21
240.4402977712525
 31
0.0
  0
LINE
  5
13F8
330
1B
100
AcDbEntity
  8
7_ALL_FEATURES
  6
CONTINUOUS
 62
     7
100
AcDbLine
 10
263.5067626910291
 20
239.4871062047524
 30
0.0
 11
263.106762691029
 21
239.4871062047524
 31
0.0
  0
LINE
  5
13F9
330
1B
100
AcDbEntity
  8
7_ALL_FEATURES
  6
CONTINUOUS
 62
     7
100
AcDbLine
 10
263.106762691029
 20
239.0785956151525
 30
0.0
 11
263.5067626910291
 21
239.0785956151525
 31
0.0
  0
LINE
  5
13FA
330
1B
100
AcDbEntity
  8
7_ALL_FEATURES
  6
CONTINUOUS
 62
     7
100
AcDbLine
 10
263.5067626910291
 20
238.0573189981525
 30
0.0
 11
262.9734283404291
 21
238.0573189981525
 31
0.0
  0
LINE
  5
13FB
330
1B
100
AcDbEntity
  8
7_ALL_FEATURES
  6
CONTINUOUS
 62
     7
100
AcDbLine
 10
262.9734283404291
 20
237.6488083608524
 30
0.0
 11
263.5067626910291
 21
237.6488083608524
 31
0.0
  0
LINE
  5
13FC
330
1B
100
AcDbEntity
  8
7_ALL_FEATURES
  6
CONTINUOUS
 62
     7
100
AcDbLine
 10
267.7067626910289
 20
240.8488083608524
 30
0.0
 11
267.7067626910289
 21
237.6488083608524
 31
0.0
  0
LINE
  5
13FD
330
1B
100
AcDbEntity
  8
7_ALL_FEATURES
  6
CONTINUOUS
 62
     7
100
AcDbLine
 10
268.2400955157289
 20
240.8488083608524
 30
0.0
 11
268.640095515729
 21
240.8488083608524
 31
0.0
  0
LINE
  5
13FE
330
1B
100
AcDbEntity
  8
7_ALL_FEATURES
  6
CONTINUOUS
 62
     7
100
AcDbLine
 10
268.640095515729
 20
237.6488083608524
 30
0.0
 11
268.2400955157289
 21
237.6488083608524
 31
0.0
  0
LINE
  5
13FF
330
1B
100
AcDbEntity
  8
7_ALL_FEATURES
  6
CONTINUOUS
 62
     7
100
AcDbLine
 10
268.640095515729
 20
240.8488083608524
 30
0.0
 11
268.640095515729
 21
237.6488083608524
 31
0.0
  0
LINE
  5
1400
330
1B
100
AcDbEntity
  8
7_ALL_FEATURES
  6
CONTINUOUS
 62
     7
100
AcDbLine
 10
268.2400955157289
 20
237.6488083608524
 30
0.0
 11
268.2400955157289
 21
240.8488083608524
 31
0.0
  0
LINE
  5
1401
330
1B
100
AcDbEntity
  8
7_ALL_FEATURES
  6
CONTINUOUS
 62
     7
100
AcDbLine
 10
267.306762691029
 20
239.5551913030524
 30
0.0
 11
267.306762691029
 21
240.8488083608524
 31
0.0
  0
LINE
  5
1402
330
1B
100
AcDbEntity
  8
7_ALL_FEATURES
  6
CONTINUOUS
 62
     7
100
AcDbLine
 10
267.306762691029
 20
237.6488083608524
 30
0.0
 11
267.306762691029
 21
239.1466807134525
 31
0.0
  0
LINE
  5
1403
330
1B
100
AcDbEntity
  8
7_ALL_FEATURES
  6
CONTINUOUS
 62
     7
100
AcDbLine
 10
265.4400955157289
 20
239.1466807134525
 30
0.0
 11
265.4400955157289
 21
237.6488083608524
 31
0.0
  0
LINE
  5
1404
330
1B
100
AcDbEntity
  8
7_ALL_FEATURES
  6
CONTINUOUS
 62
     7
100
AcDbLine
 10
265.4400955157289
 20
240.8488083608524
 30
0.0
 11
265.4400955157289
 21
239.5551913030524
 31
0.0
  0
LINE
  5
1405
330
1B
100
AcDbEntity
  8
7_ALL_FEATURES
  6
CONTINUOUS
 62
     7
100
AcDbLine
 10
265.4400955157289
 20
239.5551913030524
 30
0.0
 11
267.306762691029
 21
239.5551913030524
 31
0.0
  0
LINE
  5
1406
330
1B
100
AcDbEntity
  8
7_ALL_FEATURES
  6
CONTINUOUS
 62
     7
100
AcDbLine
 10
267.306762691029
 20
239.1466807134525
 30
0.0
 11
265.4400955157289
 21
239.1466807134525
 31
0.0
  0
LINE
  5
1407
330
1B
100
AcDbEntity
  8
7_ALL_FEATURES
  6
CONTINUOUS
 62
     7
100
AcDbLine
 10
267.306762691029
 20
240.8488083608524
 30
0.0
 11
267.7067626910289
 21
240.8488083608524
 31
0.0
  0
LINE
  5
1408
330
1B
100
AcDbEntity
  8
7_ALL_FEATURES
  6
CONTINUOUS
 62
     7
100
AcDbLine
 10
267.7067626910289
 20
237.6488083608524
 30
0.0
 11
267.306762691029
 21
237.6488083608524
 31
0.0
  0
LINE
  5
1409
330
1B
100
AcDbEntity
  8
0
  6
CONTINUOUS
 62
     7
100
AcDbLine
 10
331.0400955157291
 20
145.3223008659523
 30
0.0
 11
331.0400955157291
 21
75.32230086595254
 31
0.0
  0
LINE
  5
140A
330
1B
100
AcDbEntity
  8
0
  6
CONTINUOUS
 62
     7
100
AcDbLine
 10
283.4400955157289
 20
93.82230086595255
 30
0.0
 11
283.4400955157289
 21
126.8223008659525
 31
0.0
  0
LINE
  5
140B
330
1B
100
AcDbEntity
  8
0
  6
CONTINUOUS
 62
     7
100
AcDbLine
 10
341.2400868692289
 20
102.8387698709525
 30
0.0
 11
341.2400955157291
 21
142.1327338531524
 31
0.0
  0
ARC
  5
140C
330
1B
100
AcDbEntity
  8
0
  6
CONTINUOUS
 62
     7
100
AcDbCircle
 10
338.2400955157289
 20
78.51186787865256
 30
0.0
 40
3.0
100
AcDbArc
 50
271.5000000000027
 51
0.0
  0
ARC
  5
140D
330
1B
100
AcDbEntity
  8
0
  6
CONTINUOUS
 62
     7
100
AcDbCircle
 10
282.4400955157289
 20
93.82230086595255
 30
0.0
 40
1.0
100
AcDbArc
 50
270.0
 51
0.0
  0
LINE
  5
140E
330
1B
100
AcDbEntity
  8
0
  6
CONTINUOUS
 62
     7
100
AcDbLine
 10
282.4400955157289
 20
106.3223008659525
 30
0.0
 11
280.2400955157289
 21
106.3223008659525
 31
0.0
  0
LINE
  5
140F
330
1B
100
AcDbEntity
  8
0
  6
CONTINUOUS
 62
     7
100
AcDbLine
 10
280.7400955157289
 20
110.8223008659525
 30
0.0
 11
281.7400955157289
 21
110.8223008659525
 31
0.0
  0
LINE
  5
1410
330
1B
100
AcDbEntity
  8
0
  6
CONTINUOUS
 62
     7
100
AcDbLine
 10
281.7400955157289
 20
109.8223008659525
 30
0.0
 11
280.7400955157289
 21
109.8223008659525
 31
0.0
  0
LINE
  5
1411
330
1B
100
AcDbEntity
  8
0
  6
CONTINUOUS
 62
     7
100
AcDbLine
 10
280.2400955157289
 20
114.3223008659525
 30
0.0
 11
282.4400955157289
 21
114.3223008659525
 31
0.0
  0
CIRCLE
  5
1412
330
1B
100
AcDbEntity
  8
0
  6
CONTINUOUS
 62
     7
100
AcDbCircle
 10
280.2400955157289
 20
110.3223008659525
 30
0.0
 40
2.547635303499999
  0
CIRCLE
  5
1413
330
1B
100
AcDbEntity
  8
0
  6
CONTINUOUS
 62
     7
100
AcDbCircle
 10
280.2400955157289
 20
110.3223008659525
 30
0.0
 40
2.649999999999999
  0
ARC
  5
1414
330
1B
100
AcDbEntity
  8
0
  6
CONTINUOUS
 62
     7
100
AcDbCircle
 10
280.2400955157289
 20
110.3223008659525
 30
0.0
 40
4.0
100
AcDbArc
 50
90.0
 51
270.0
  0
LINE
  5
1415
330
1B
100
AcDbEntity
  8
0
  6
CONTINUOUS
 62
     7
100
AcDbLine
 10
280.7400955157289
 20
109.8223008659525
 30
0.0
 11
280.7400955157289
 21
108.8223008659525
 31
0.0
  0
LINE
  5
1416
330
1B
100
AcDbEntity
  8
0
  6
CONTINUOUS
 62
     7
100
AcDbLine
 10
279.7400955157289
 20
108.8223008659525
 30
0.0
 11
279.7400955157289
 21
109.8223008659525
 31
0.0
  0
LINE
  5
1417
330
1B
100
AcDbEntity
  8
0
  6
CONTINUOUS
 62
     7
100
AcDbLine
 10
280.7400955157289
 20
108.8223008659525
 30
0.0
 11
279.7400955157289
 21
108.8223008659525
 31
0.0
  0
LINE
  5
1418
330
1B
100
AcDbEntity
  8
0
  6
CONTINUOUS
 62
     7
100
AcDbLine
 10
280.7400955157289
 20
111.8223008659525
 30
0.0
 11
280.7400955157289
 21
110.8223008659525
 31
0.0
  0
LINE
  5
1419
330
1B
100
AcDbEntity
  8
0
  6
CONTINUOUS
 62
     7
100
AcDbLine
 10
279.7400955157289
 20
110.8223008659525
 30
0.0
 11
279.7400955157289
 21
111.8223008659525
 31
0.0
  0
LINE
  5
141A
330
1B
100
AcDbEntity
  8
0
  6
CONTINUOUS
 62
     7
100
AcDbLine
 10
279.7400955157289
 20
111.8223008659525
 30
0.0
 11
280.7400955157289
 21
111.8223008659525
 31
0.0
  0
LINE
  5
141B
330
1B
100
AcDbEntity
  8
0
  6
CONTINUOUS
 62
     7
100
AcDbLine
 10
278.7400955157289
 20
109.8223008659525
 30
0.0
 11
278.7400955157289
 21
110.8223008659525
 31
0.0
  0
LINE
  5
141C
330
1B
100
AcDbEntity
  8
0
  6
CONTINUOUS
 62
     7
100
AcDbLine
 10
278.7400955157289
 20
110.8223008659525
 30
0.0
 11
279.7400955157289
 21
110.8223008659525
 31
0.0
  0
LINE
  5
141D
330
1B
100
AcDbEntity
  8
0
  6
CONTINUOUS
 62
     7
100
AcDbLine
 10
279.7400955157289
 20
109.8223008659525
 30
0.0
 11
278.7400955157289
 21
109.8223008659525
 31
0.0
  0
ARC
  5
141E
330
1B
100
AcDbEntity
  8
0
  6
CONTINUOUS
 62
     7
100
AcDbCircle
 10
282.4400955157289
 20
105.3223008659525
 30
0.0
 40
1.0
100
AcDbArc
 50
0.0
 51
90.0
  0
ARC
  5
141F
330
1B
100
AcDbEntity
  8
0
  6
CONTINUOUS
 62
     7
100
AcDbCircle
 10
282.4400955157289
 20
115.3223008659524
 30
0.0
 40
1.0
100
AcDbArc
 50
270.0
 51
0.0
  0
LINE
  5
1420
330
1B
100
AcDbEntity
  8
0
  6
CONTINUOUS
 62
     7
100
AcDbLine
 10
281.7400955157289
 20
110.8223008659525
 30
0.0
 11
281.7400955157289
 21
109.8223008659525
 31
0.0
  0
LINE
  5
1421
330
1B
100
AcDbEntity
  8
0
  6
CONTINUOUS
 62
     7
100
AcDbLine
 10
331.0400955157291
 20
75.32230086595254
 30
0.0
 11
338.318626360729
 21
75.51289590375254
 31
0.0
  0
LINE
  5
1422
330
1B
100
AcDbEntity
  8
0
  6
CONTINUOUS
 62
     7
100
AcDbLine
 10
341.240089351529
 20
99.80363892365259
 30
0.0
 11
341.2400955157291
 21
78.51186787865256
 31
0.0
  0
LINE
  5
1423
330
1B
100
AcDbEntity
  8
0
  6
CONTINUOUS
 62
     7
100
AcDbLine
 10
341.2400955157291
 20
108.0723008659525
 30
0.0
 11
347.9400955157289
 21
108.0723008659525
 31
0.0
  0
LINE
  5
1424
330
1B
100
AcDbEntity
  8
0
  6
CONTINUOUS
 62
     7
100
AcDbLine
 10
341.2400955157291
 20
98.5723008659526
 30
0.0
 11
347.9400955157289
 21
98.5723008659526
 31
0.0
  0
LWPOLYLINE
  5
1425
330
1B
100
AcDbEntity
  8
0
  6
CONTINUOUS
 62
     7
100
AcDbPolyline
 90
        5
 70
     0
 43
0.0
 10
341.2400893816289
 20
99.80363396825252
 10
341.231962914429
 20
100.4512399444525
 10
341.2225395204289
 20
101.3152741967525
 10
341.2317126085291
 20
102.1794020052525
 10
341.2400878346289
 20
102.8386341043525
  0
LINE
  5
1426
330
1B
100
AcDbEntity
  8
0
  6
CONTINUOUS
 62
     7
100
AcDbLine
 10
347.9400955157289
 20
108.0706647125525
 30
0.0
 11
347.9400955157289
 21
98.57393701925255
 31
0.0
  0
LINE
  5
1427
330
1B
100
AcDbEntity
  8
0
  6
CONTINUOUS
 62
     7
100
AcDbLine
 10
403.3740146428831
 20
250.8488083608524
 30
0.0
 11
403.7490146428834
 21
250.8488083608524
 31
0.0
  0
ARC
  5
1428
330
1B
100
AcDbEntity
  8
0
  6
CONTINUOUS
 62
     7
100
AcDbCircle
 10
401.2490141660832
 20
243.6488083608524
 30
0.0
 40
3.524437090899998
100
AcDbArc
 50
35.05763310840014
 51
144.9423668915998
  0
CIRCLE
  5
1429
330
1B
100
AcDbEntity
  8
0
  6
CONTINUOUS
 62
     7
100
AcDbCircle
 10
401.2490141660832
 20
243.6488083608524
 30
0.0
 40
2.649999999999999
  0
CIRCLE
  5
142A
330
1B
100
AcDbEntity
  8
0
  6
CONTINUOUS
 62
     7
100
AcDbCircle
 10
401.2490141660832
 20
243.6488083608524
 30
0.0
 40
2.547635303499999
  0
LINE
  5
142B
330
1B
100
AcDbEntity
  8
0
  6
CONTINUOUS
 62
     7
100
AcDbLine
 10
426.7490141660833
 20
180.6488083608525
 30
0.0
 11
393.7490141660833
 21
180.6488083608525
 31
0.0
  0
LINE
  5
142C
330
1B
100
AcDbEntity
  8
0
  6
CONTINUOUS
 62
     7
100
AcDbLine
 10
440.2490141660833
 20
190.6488083608525
 30
0.0
 11
380.2490141660833
 21
190.6488083608525
 31
0.0
  0
LINE
  5
142D
330
1B
100
AcDbEntity
  8
0
  6
CONTINUOUS
 62
     7
100
AcDbLine
 10
440.2490141660833
 20
250.6488083608525
 30
0.0
 11
380.2490141660833
 21
250.6488083608525
 31
0.0
  0
LINE
  5
142E
330
1B
100
AcDbEntity
  8
0
  6
CONTINUOUS
 62
     7
100
AcDbLine
 10
385.2490141660833
 20
250.7488083608525
 30
0.0
 11
435.2490141660833
 21
250.7488083608525
 31
0.0
  0
LINE
  5
142F
330
1B
100
AcDbEntity
  8
0
  6
CONTINUOUS
 62
     7
100
AcDbLine
 10
382.2490141660833
 20
195.6488083608524
 30
0.0
 11
414.2490141660833
 21
195.6488083608524
 31
0.0
  0
CIRCLE
  5
1430
330
1B
100
AcDbEntity
  8
0
  6
CONTINUOUS
 62
     7
100
AcDbCircle
 10
397.2490141660833
 20
227.4488083608524
 30
0.0
 40
7.25
  0
CIRCLE
  5
1431
330
1B
100
AcDbEntity
  8
0
  6
CONTINUOUS
 62
     7
100
AcDbCircle
 10
397.2490141660833
 20
227.4488083608524
 30
0.0
 40
7.5
  0
ARC
  5
1432
330
1B
100
AcDbEntity
  8
0
  6
CONTINUOUS
 62
     7
100
AcDbCircle
 10
401.2490141660832
 20
243.6488083608524
 30
0.0
 40
5.0
100
AcDbArc
 50
180.0
 51
0.0
  0
DIMENSION
  5
1433
330
1B
100
AcDbEntity
  8
1_ALL_DRAFT_DIMS
  6
CONTINUOUS
 62
     2
100
AcDbDimension
  2
*D21
 10
347.9400955157289
 20
270.7969963345525
 30
0.0
 11
355.4200955157289
 21
270.7969963345525
 31
0.0
 70
   160
  1
(<>)
  3
NABE
100
AcDbAlignedDimension
 13
341.2400955157291
 23
246.1488083608525
 33
0.0
 14
347.9400955157289
 24
232.6988083608525
 34
0.0
100
AcDbRotatedDimension
  0
ARC
  5
1434
330
1B
100
AcDbEntity
  8
0
  6
CONTINUOUS
 62
     7
100
AcDbCircle
 10
338.2400955157289
 20
247.4592413480525
 30
0.0
 40
3.0
100
AcDbArc
 50
0.0
 51
88.49999999999729
  0
ARC
  5
1435
330
1B
100
AcDbEntity
  8
0
  6
CONTINUOUS
 62
     7
100
AcDbCircle
 10
338.2400955157289
 20
193.8383753735525
 30
0.0
 40
3.0
100
AcDbArc
 50
271.5000000000027
 51
0.0
  0
ARC
  5
1436
330
1B
100
AcDbEntity
  8
0
  6
CONTINUOUS
 62
     7
100
AcDbCircle
 10
338.2400955157289
 20
142.1327338531524
 30
0.0
 40
3.0
100
AcDbArc
 50
0.0
 51
88.49999999999729
  0
LINE
  5
1437
330
1B
100
AcDbEntity
  8
0
  6
CONTINUOUS
 62
     7
100
AcDbLine
 10
331.0400955157291
 20
250.6488083608525
 30
0.0
 11
331.0400955157291
 21
190.6488083608525
 31
0.0
  0
TEXT
  5
1438
330
1B
100
AcDbEntity
  8
2_ALL_NOTES
  6
CONTINUOUS
 62
     2
100
AcDbText
 10
277.458172964929
 20
157.2182584076526
 30
0.0
 40
2.799999999999999
  1
1/4-20UNCユニファイネジ
 41
0.8
100
AcDbText
  0
TEXT
  5
1439
330
1B
100
AcDbEntity
  8
2_ALL_NOTES
  6
CONTINUOUS
 62
     2
100
AcDbText
 10
300.319517613729
 20
151.1801844389524
 30
0.0
 40
2.799999999999999
  1
M4ネジ
 41
0.8
100
AcDbText
  0
LINE
  5
143A
330
1B
100
AcDbEntity
  8
2_ALL_NOTES
  6
CONTINUOUS
 62
     2
100
AcDbLine
 10
300.319517613729
 20
150.4801844389524
 30
0.0
 11
309.2795176137288
 21
150.4801844389524
 31
0.0
  0
LINE
  5
143B
330
1B
100
AcDbEntity
  8
2_ALL_NOTES
  6
CONTINUOUS
 62
     2
100
AcDbLine
 10
277.458172964929
 20
156.5182584076525
 30
0.0
 11
313.2981729649291
 21
156.5182584076525
 31
0.0
  0
ARC
  5
143C
330
1B
100
AcDbEntity
  8
0
  6
CONTINUOUS
 62
     7
100
AcDbCircle
 10
282.4400955157289
 20
126.8223008659525
 30
0.0
 40
1.0
100
AcDbArc
 50
0.0
 51
90.0
  0
LINE
  5
143D
330
1B
100
AcDbEntity
  8
2_ALL_NOTES
  6
CONTINUOUS
 62
     2
100
AcDbLine
 10
275.458172964929
 20
156.5182584076525
 30
0.0
 11
277.458172964929
 21
156.5182584076525
 31
0.0
  0
LINE
  5
143E
330
1B
100
AcDbEntity
  8
2_ALL_NOTES
  6
CONTINUOUS
 62
     2
100
AcDbLine
 10
298.319517613729
 20
150.4801844389524
 30
0.0
 11
300.319517613729
 21
150.4801844389524
 31
0.0
  0
LINE
  5
143F
330
1B
100
AcDbEntity
  8
7_ALL_FEATURES
  6
CONTINUOUS
 62
     7
100
AcDbLine
 10
290.2317625003289
 20
200.6488083608524
 30
0.0
 11
289.2317620234289
 21
200.6488083608524
 31
0.0
  0
LINE
  5
1440
330
1B
100
AcDbEntity
  8
7_ALL_FEATURES
  6
CONTINUOUS
 62
     7
100
AcDbLine
 10
290.273428531229
 20
200.4360424287525
 30
0.0
 11
289.4817625003288
 21
200.4360424287525
 31
0.0
  0
LINE
  5
1441
330
1B
100
AcDbEntity
  8
7_ALL_FEATURES
  6
CONTINUOUS
 62
     7
100
AcDbLine
 10
289.4817625003288
 20
199.7977445132525
 30
0.0
 11
290.273428531229
 21
199.7977445132525
 31
0.0
  0
LINE
  5
1442
330
1B
100
AcDbEntity
  8
7_ALL_FEATURES
  6
CONTINUOUS
 62
     7
100
AcDbLine
 10
289.4817625003288
 20
199.5424253947525
 30
0.0
 11
290.1900955157289
 21
199.5424253947525
 31
0.0
  0
LINE
  5
1443
330
1B
100
AcDbEntity
  8
0
  6
CONTINUOUS
 62
     7
100
AcDbLine
 10
283.4400955157289
 20
190.6488083608525
 30
0.0
 11
283.4400955157289
 21
181.6488083608525
 31
0.0
  0
ARC
  5
1444
330
1B
100
AcDbEntity
  8
0
  6
CONTINUOUS
 62
     7
100
AcDbCircle
 10
282.4400955157289
 20
181.6488083608525
 30
0.0
 40
1.0
100
AcDbArc
 50
270.0
 51
0.0
  0
LINE
  5
1445
330
1B
100
AcDbEntity
  8
7_ALL_FEATURES
  6
CONTINUOUS
 62
     7
100
AcDbLine
 10
281.4817621836289
 20
200.1807233102523
 30
0.0
 11
281.5650955157289
 21
200.3509360559525
 31
0.0
  0
LINE
  5
1446
330
1B
100
AcDbEntity
  8
7_ALL_FEATURES
  6
CONTINUOUS
 62
     7
100
AcDbLine
 10
281.5650955157289
 20
198.9466806955523
 30
0.0
 11
281.4817621836289
 21
199.1168934710525
 31
0.0
  0
LINE
  5
1447
330
1B
100
AcDbEntity
  8
7_ALL_FEATURES
  6
CONTINUOUS
 62
     7
100
AcDbLine
 10
281.4400955157289
 20
199.9679572589525
 30
0.0
 11
281.4817621836289
 21
200.1807233102523
 31
0.0
  0
LINE
  5
1448
330
1B
100
AcDbEntity
  8
7_ALL_FEATURES
  6
CONTINUOUS
 62
     7
100
AcDbLine
 10
281.4400955157289
 20
199.3296594030526
 30
0.0
 11
281.4400955157289
 21
199.9679572589525
 31
0.0
  0
LINE
  5
1449
330
1B
100
AcDbEntity
  8
7_ALL_FEATURES
  6
CONTINUOUS
 62
     7
100
AcDbLine
 10
281.4817621836289
 20
199.1168934710525
 30
0.0
 11
281.4400955157289
 21
199.3296594030526
 31
0.0
  0
LINE
  5
144A
330
1B
100
AcDbEntity
  8
7_ALL_FEATURES
  6
CONTINUOUS
 62
     7
100
AcDbLine
 10
285.398428769629
 20
200.6488083608524
 30
0.0
 11
285.6484290080289
 21
200.6488083608524
 31
0.0
  0
LINE
  5
144B
330
1B
100
AcDbEntity
  8
7_ALL_FEATURES
  6
CONTINUOUS
 62
     7
100
AcDbLine
 10
286.8984290080289
 20
198.6488083608525
 30
0.0
 11
285.398428769629
 21
198.6488083608525
 31
0.0
  0
LINE
  5
144C
330
1B
100
AcDbEntity
  8
7_ALL_FEATURES
  6
CONTINUOUS
 62
     7
100
AcDbLine
 10
284.6067622619289
 20
198.6913615509526
 30
0.0
 11
284.398428769629
 21
198.6488083608525
 31
0.0
  0
LINE
  5
144D
330
1B
100
AcDbEntity
  8
7_ALL_FEATURES
  6
CONTINUOUS
 62
     7
100
AcDbLine
 10
284.5650955157289
 20
198.9466806955523
 30
0.0
 11
284.398428769629
 21
198.9041275091525
 31
0.0
  0
LINE
  5
144E
330
1B
100
AcDbEntity
  8
7_ALL_FEATURES
  6
CONTINUOUS
 62
     7
100
AcDbLine
 10
284.398428769629
 20
200.3934892423525
 30
0.0
 11
284.5650955157289
 21
200.3509360559525
 31
0.0
  0
LINE
  5
144F
330
1B
100
AcDbEntity
  8
7_ALL_FEATURES
  6
CONTINUOUS
 62
     7
100
AcDbLine
 10
284.398428769629
 20
200.6488083608524
 30
0.0
 11
284.6067622619289
 21
200.6062551744525
 31
0.0
  0
LINE
  5
1450
330
1B
100
AcDbEntity
  8
7_ALL_FEATURES
  6
CONTINUOUS
 62
     7
100
AcDbLine
 10
284.0650955157289
 20
200.6488083608524
 30
0.0
 11
284.398428769629
 21
200.6488083608524
 31
0.0
  0
LINE
  5
1451
330
1B
100
AcDbEntity
  8
7_ALL_FEATURES
  6
CONTINUOUS
 62
     7
100
AcDbLine
 10
284.0650955157289
 20
200.3934892423525
 30
0.0
 11
284.398428769629
 21
200.3934892423525
 31
0.0
  0
LINE
  5
1452
330
1B
100
AcDbEntity
  8
7_ALL_FEATURES
  6
CONTINUOUS
 62
     7
100
AcDbLine
 10
284.398428769629
 20
198.9041275091525
 30
0.0
 11
284.0650955157289
 21
198.9041275091525
 31
0.0
  0
LINE
  5
1453
330
1B
100
AcDbEntity
  8
7_ALL_FEATURES
  6
CONTINUOUS
 62
     7
100
AcDbLine
 10
284.398428769629
 20
198.6488083608525
 30
0.0
 11
284.0650955157289
 21
198.6488083608525
 31
0.0
  0
LINE
  5
1454
330
1B
100
AcDbEntity
  8
7_ALL_FEATURES
  6
CONTINUOUS
 62
     7
100
AcDbLine
 10
284.7734287696289
 20
198.7764679349524
 30
0.0
 11
284.6067622619289
 21
198.6913615509526
 31
0.0
  0
LINE
  5
1455
330
1B
100
AcDbEntity
  8
7_ALL_FEATURES
  6
CONTINUOUS
 62
     7
100
AcDbLine
 10
284.6900955157289
 20
199.0317870981524
 30
0.0
 11
284.5650955157289
 21
198.9466806955523
 31
0.0
  0
LINE
  5
1456
330
1B
100
AcDbEntity
  8
7_ALL_FEATURES
  6
CONTINUOUS
 62
     7
100
AcDbLine
 10
284.9400955157289
 20
198.9466806955523
 30
0.0
 11
284.7734287696289
 21
198.7764679349524
 31
0.0
  0
LINE
  5
1457
330
1B
100
AcDbEntity
  8
7_ALL_FEATURES
  6
CONTINUOUS
 62
     7
100
AcDbLine
 10
284.7734287696289
 20
199.1594466574525
 30
0.0
 11
284.6900955157289
 21
199.0317870981524
 31
0.0
  0
LINE
  5
1458
330
1B
100
AcDbEntity
  8
7_ALL_FEATURES
  6
CONTINUOUS
 62
     7
100
AcDbLine
 10
285.0234287696289
 20
199.1168934710525
 30
0.0
 11
284.9400955157289
 21
198.9466806955523
 31
0.0
  0
LINE
  5
1459
330
1B
100
AcDbEntity
  8
7_ALL_FEATURES
  6
CONTINUOUS
 62
     7
100
AcDbLine
 10
284.8150955157289
 20
199.3296594030526
 30
0.0
 11
284.7734287696289
 21
199.1594466574525
 31
0.0
  0
LINE
  5
145A
330
1B
100
AcDbEntity
  8
7_ALL_FEATURES
  6
CONTINUOUS
 62
     7
100
AcDbLine
 10
285.0650955157289
 20
199.3296594030526
 30
0.0
 11
285.0234287696289
 21
199.1168934710525
 31
0.0
  0
LINE
  5
145B
330
1B
100
AcDbEntity
  8
7_ALL_FEATURES
  6
CONTINUOUS
 62
     7
100
AcDbLine
 10
285.0234287696289
 20
200.1807233102523
 30
0.0
 11
285.0650955157289
 21
199.9679572589525
 31
0.0
  0
LINE
  5
145C
330
1B
100
AcDbEntity
  8
7_ALL_FEATURES
  6
CONTINUOUS
 62
     7
100
AcDbLine
 10
284.7734287696289
 20
200.1381700046525
 30
0.0
 11
284.8150955157289
 21
199.9679572589525
 31
0.0
  0
LINE
  5
145D
330
1B
100
AcDbEntity
  8
7_ALL_FEATURES
  6
CONTINUOUS
 62
     7
100
AcDbLine
 10
285.398428769629
 20
198.6488083608525
 30
0.0
 11
285.398428769629
 21
200.6488083608524
 31
0.0
  0
LINE
  5
145E
330
1B
100
AcDbEntity
  8
7_ALL_FEATURES
  6
CONTINUOUS
 62
     7
100
AcDbLine
 10
285.0650955157289
 20
199.9679572589525
 30
0.0
 11
285.0650955157289
 21
199.3296594030526
 31
0.0
  0
LINE
  5
145F
330
1B
100
AcDbEntity
  8
7_ALL_FEATURES
  6
CONTINUOUS
 62
     7
100
AcDbLine
 10
284.8150955157289
 20
199.9679572589525
 30
0.0
 11
284.8150955157289
 21
199.3296594030526
 31
0.0
  0
LINE
  5
1460
330
1B
100
AcDbEntity
  8
7_ALL_FEATURES
  6
CONTINUOUS
 62
     7
100
AcDbLine
 10
284.9400955157289
 20
200.3509360559525
 30
0.0
 11
285.0234287696289
 21
200.1807233102523
 31
0.0
  0
LINE
  5
1461
330
1B
100
AcDbEntity
  8
7_ALL_FEATURES
  6
CONTINUOUS
 62
     7
100
AcDbLine
 10
284.6900955157289
 20
200.2658296830525
 30
0.0
 11
284.7734287696289
 21
200.1381700046525
 31
0.0
  0
LINE
  5
1462
330
1B
100
AcDbEntity
  8
7_ALL_FEATURES
  6
CONTINUOUS
 62
     7
100
AcDbLine
 10
284.7734287696289
 20
200.5211488015525
 30
0.0
 11
284.9400955157289
 21
200.3509360559525
 31
0.0
  0
LINE
  5
1463
330
1B
100
AcDbEntity
  8
7_ALL_FEATURES
  6
CONTINUOUS
 62
     7
100
AcDbLine
 10
284.5650955157289
 20
200.3509360559525
 30
0.0
 11
284.6900955157289
 21
200.2658296830525
 31
0.0
  0
LINE
  5
1464
330
1B
100
AcDbEntity
  8
7_ALL_FEATURES
  6
CONTINUOUS
 62
     7
100
AcDbLine
 10
284.6067622619289
 20
200.6062551744525
 30
0.0
 11
284.7734287696289
 21
200.5211488015525
 31
0.0
  0
LINE
  5
1465
330
1B
100
AcDbEntity
  8
7_ALL_FEATURES
  6
CONTINUOUS
 62
     7
100
AcDbLine
 10
283.773428769629
 20
200.2658296830525
 30
0.0
 11
283.8984287696289
 21
200.3509360559525
 31
0.0
  0
LINE
  5
1466
330
1B
100
AcDbEntity
  8
7_ALL_FEATURES
  6
CONTINUOUS
 62
     7
100
AcDbLine
 10
283.8984287696289
 20
198.9466806955523
 30
0.0
 11
283.773428769629
 21
199.0317870981524
 31
0.0
  0
LINE
  5
1467
330
1B
100
AcDbEntity
  8
7_ALL_FEATURES
  6
CONTINUOUS
 62
     7
100
AcDbLine
 10
283.8567622619289
 20
200.6062551744525
 30
0.0
 11
284.0650955157289
 21
200.6488083608524
 31
0.0
  0
LINE
  5
1468
330
1B
100
AcDbEntity
  8
7_ALL_FEATURES
  6
CONTINUOUS
 62
     7
100
AcDbLine
 10
283.8984287696289
 20
200.3509360559525
 30
0.0
 11
284.0650955157289
 21
200.3934892423525
 31
0.0
  0
LINE
  5
1469
330
1B
100
AcDbEntity
  8
7_ALL_FEATURES
  6
CONTINUOUS
 62
     7
100
AcDbLine
 10
284.0650955157289
 20
198.9041275091525
 30
0.0
 11
283.8984287696289
 21
198.9466806955523
 31
0.0
  0
LINE
  5
146A
330
1B
100
AcDbEntity
  8
7_ALL_FEATURES
  6
CONTINUOUS
 62
     7
100
AcDbLine
 10
284.0650955157289
 20
198.6488083608525
 30
0.0
 11
283.8567622619289
 21
198.6913615509526
 31
0.0
  0
LINE
  5
146B
330
1B
100
AcDbEntity
  8
7_ALL_FEATURES
  6
CONTINUOUS
 62
     7
100
AcDbLine
 10
282.856762142729
 20
198.7764679349524
 30
0.0
 11
282.6900955157289
 21
198.6913615509526
 31
0.0
  0
LINE
  5
146C
330
1B
100
AcDbEntity
  8
7_ALL_FEATURES
  6
CONTINUOUS
 62
     7
100
AcDbLine
 10
282.6484288888289
 20
198.9466806955523
 30
0.0
 11
282.7734288888289
 21
199.0317870981524
 31
0.0
  0
LINE
  5
146D
330
1B
100
AcDbEntity
  8
7_ALL_FEATURES
  6
CONTINUOUS
 62
     7
100
AcDbLine
 10
283.0234288888289
 20
198.9466806955523
 30
0.0
 11
282.856762142729
 21
198.7764679349524
 31
0.0
  0
LINE
  5
146E
330
1B
100
AcDbEntity
  8
7_ALL_FEATURES
  6
CONTINUOUS
 62
     2
100
AcDbLine
 10
282.8004325091288
 20
200.1830950406525
 30
0.0
 11
282.9961414897289
 21
200.3788040212524
 31
0.0
  0
LINE
  5
146F
330
1B
100
AcDbEntity
  8
7_ALL_FEATURES
  6
CONTINUOUS
 62
     7
100
AcDbLine
 10
283.523428769629
 20
200.3509360559525
 30
0.0
 11
283.6900955157289
 21
200.5211488015525
 31
0.0
  0
LINE
  5
1470
330
1B
100
AcDbEntity
  8
7_ALL_FEATURES
  6
CONTINUOUS
 62
     7
100
AcDbLine
 10
283.4400955157289
 20
200.1807233102523
 30
0.0
 11
283.523428769629
 21
200.3509360559525
 31
0.0
  0
LINE
  5
1471
330
1B
100
AcDbEntity
  8
7_ALL_FEATURES
  6
CONTINUOUS
 62
     7
100
AcDbLine
 10
282.7734288888289
 20
199.0317870981524
 30
0.0
 11
282.8150955157289
 21
199.1594466574525
 31
0.0
  0
LINE
  5
1472
330
1B
100
AcDbEntity
  8
7_ALL_FEATURES
  6
CONTINUOUS
 62
     7
100
AcDbLine
 10
283.6484287696289
 20
199.9679572589525
 30
0.0
 11
283.6900955157289
 21
200.1381700046525
 31
0.0
  0
LINE
  5
1473
330
1B
100
AcDbEntity
  8
7_ALL_FEATURES
  6
CONTINUOUS
 62
     7
100
AcDbLine
 10
283.3984288888289
 20
199.9679572589525
 30
0.0
 11
283.4400955157289
 21
200.1807233102523
 31
0.0
  0
LINE
  5
1474
330
1B
100
AcDbEntity
  8
7_ALL_FEATURES
  6
CONTINUOUS
 62
     7
100
AcDbLine
 10
283.0650955157289
 20
199.1594466574525
 30
0.0
 11
283.0234288888289
 21
198.9466806955523
 31
0.0
  0
LINE
  5
1475
330
1B
100
AcDbEntity
  8
7_ALL_FEATURES
  6
CONTINUOUS
 62
     7
100
AcDbLine
 10
283.4400955157289
 20
199.1168934710525
 30
0.0
 11
283.3984288888289
 21
199.3296594030526
 31
0.0
  0
LINE
  5
1476
330
1B
100
AcDbEntity
  8
7_ALL_FEATURES
  6
CONTINUOUS
 62
     7
100
AcDbLine
 10
283.0234288888289
 20
200.3509360559525
 30
0.0
 11
283.0650955157289
 21
200.1381700046525
 31
0.0
  0
LINE
  5
1477
330
1B
100
AcDbEntity
  8
7_ALL_FEATURES
  6
CONTINUOUS
 62
     7
100
AcDbLine
 10
283.6484287696289
 20
199.3296594030526
 30
0.0
 11
283.6484287696289
 21
199.9679572589525
 31
0.0
  0
LINE
  5
1478
330
1B
100
AcDbEntity
  8
7_ALL_FEATURES
  6
CONTINUOUS
 62
     7
100
AcDbLine
 10
283.3984288888289
 20
199.3296594030526
 30
0.0
 11
283.3984288888289
 21
199.9679572589525
 31
0.0
  0
LINE
  5
1479
330
1B
100
AcDbEntity
  8
7_ALL_FEATURES
  6
CONTINUOUS
 62
     7
100
AcDbLine
 10
283.6900955157289
 20
199.1594466574525
 30
0.0
 11
283.6484287696289
 21
199.3296594030526
 31
0.0
  0
LINE
  5
147A
330
1B
100
AcDbEntity
  8
7_ALL_FEATURES
  6
CONTINUOUS
 62
     7
100
AcDbLine
 10
282.8150955157289
 20
200.1381700046525
 30
0.0
 11
282.7734288888289
 21
200.2658296830525
 31
0.0
  0
LINE
  5
147B
330
1B
100
AcDbEntity
  8
7_ALL_FEATURES
  6
CONTINUOUS
 62
     7
100
AcDbLine
 10
283.523428769629
 20
198.9466806955523
 30
0.0
 11
283.4400955157289
 21
199.1168934710525
 31
0.0
  0
LINE
  5
147C
330
1B
100
AcDbEntity
  8
7_ALL_FEATURES
  6
CONTINUOUS
 62
     7
100
AcDbLine
 10
282.1067622023288
 20
200.6488083608524
 30
0.0
 11
282.4817621427289
 21
200.6488083608524
 31
0.0
  0
LINE
  5
147D
330
1B
100
AcDbEntity
  8
7_ALL_FEATURES
  6
CONTINUOUS
 62
     7
100
AcDbLine
 10
282.4817621427289
 20
200.3934892423525
 30
0.0
 11
282.1067622023288
 21
200.3934892423525
 31
0.0
  0
LINE
  5
147E
330
1B
100
AcDbEntity
  8
7_ALL_FEATURES
  6
CONTINUOUS
 62
     7
100
AcDbLine
 10
283.0650955157289
 20
200.1381700046525
 30
0.0
 11
282.8150955157289
 21
200.1381700046525
 31
0.0
  0
LINE
  5
147F
330
1B
100
AcDbEntity
  8
7_ALL_FEATURES
  6
CONTINUOUS
 62
     7
100
AcDbLine
 10
282.6900955157289
 20
198.6913615509526
 30
0.0
 11
282.4817621427289
 21
198.6488083608525
 31
0.0
  0
LINE
  5
1480
330
1B
100
AcDbEntity
  8
7_ALL_FEATURES
  6
CONTINUOUS
 62
     7
100
AcDbLine
 10
282.1067622023288
 20
200.3934892423525
 30
0.0
 11
281.9400955157289
 21
200.3509360559525
 31
0.0
  0
LINE
  5
1481
330
1B
100
AcDbEntity
  8
7_ALL_FEATURES
  6
CONTINUOUS
 62
     7
100
AcDbLine
 10
282.4817621427289
 20
198.9041275091525
 30
0.0
 11
282.6484288888289
 21
198.9466806955523
 31
0.0
  0
LINE
  5
1482
330
1B
100
AcDbEntity
  8
7_ALL_FEATURES
  6
CONTINUOUS
 62
     7
100
AcDbLine
 10
282.856762142729
 20
200.5211488015525
 30
0.0
 11
283.0234288888289
 21
200.3509360559525
 31
0.0
  0
LINE
  5
1483
330
1B
100
AcDbEntity
  8
7_ALL_FEATURES
  6
CONTINUOUS
 62
     7
100
AcDbLine
 10
283.6900955157289
 20
198.7764679349524
 30
0.0
 11
283.523428769629
 21
198.9466806955523
 31
0.0
  0
LINE
  5
1484
330
1B
100
AcDbEntity
  8
7_ALL_FEATURES
  6
CONTINUOUS
 62
     7
100
AcDbLine
 10
282.7734288888289
 20
200.2658296830525
 30
0.0
 11
282.6484288888289
 21
200.3509360559525
 31
0.0
  0
LINE
  5
1485
330
1B
100
AcDbEntity
  8
7_ALL_FEATURES
  6
CONTINUOUS
 62
     7
100
AcDbLine
 10
282.6900955157289
 20
200.6062551744525
 30
0.0
 11
282.856762142729
 21
200.5211488015525
 31
0.0
  0
LINE
  5
1486
330
1B
100
AcDbEntity
  8
7_ALL_FEATURES
  6
CONTINUOUS
 62
     7
100
AcDbLine
 10
282.6484288888289
 20
200.3509360559525
 30
0.0
 11
282.4817621427289
 21
200.3934892423525
 31
0.0
  0
LINE
  5
1487
330
1B
100
AcDbEntity
  8
7_ALL_FEATURES
  6
CONTINUOUS
 62
     7
100
AcDbLine
 10
281.9400955157289
 20
198.9466806955523
 30
0.0
 11
282.1067622023288
 21
198.9041275091525
 31
0.0
  0
LINE
  5
1488
330
1B
100
AcDbEntity
  8
7_ALL_FEATURES
  6
CONTINUOUS
 62
     7
100
AcDbLine
 10
282.4817621427289
 20
200.6488083608524
 30
0.0
 11
282.6900955157289
 21
200.6062551744525
 31
0.0
  0
LINE
  5
1489
330
1B
100
AcDbEntity
  8
7_ALL_FEATURES
  6
CONTINUOUS
 62
     7
100
AcDbLine
 10
282.8150955157289
 20
199.1594466574525
 30
0.0
 11
283.0650955157289
 21
199.1594466574525
 31
0.0
  0
LINE
  5
148A
330
1B
100
AcDbEntity
  8
7_ALL_FEATURES
  6
CONTINUOUS
 62
     7
100
AcDbLine
 10
282.1067622023288
 20
198.9041275091525
 30
0.0
 11
282.4817621427289
 21
198.9041275091525
 31
0.0
  0
LINE
  5
148B
330
1B
100
AcDbEntity
  8
7_ALL_FEATURES
  6
CONTINUOUS
 62
     7
100
AcDbLine
 10
282.4817621427289
 20
198.6488083608525
 30
0.0
 11
282.1067622023288
 21
198.6488083608525
 31
0.0
  0
LINE
  5
148C
330
1B
100
AcDbEntity
  8
7_ALL_FEATURES
  6
CONTINUOUS
 62
     7
100
AcDbLine
 10
281.731762172529
 20
200.5211488015525
 30
0.0
 11
281.8984288590289
 21
200.6062551744525
 31
0.0
  0
LINE
  5
148D
330
1B
100
AcDbEntity
  8
7_ALL_FEATURES
  6
CONTINUOUS
 62
     2
100
AcDbLine
 10
281.5647414211289
 20
198.9474039526525
 30
0.0
 11
281.7495439549289
 21
199.1322064864526
 31
0.0
  0
LINE
  5
148E
330
1B
100
AcDbEntity
  8
7_ALL_FEATURES
  6
CONTINUOUS
 62
     7
100
AcDbLine
 10
281.5650955157289
 20
200.3509360559525
 30
0.0
 11
281.731762172529
 21
200.5211488015525
 31
0.0
  0
LINE
  5
148F
330
1B
100
AcDbEntity
  8
7_ALL_FEATURES
  6
CONTINUOUS
 62
     7
100
AcDbLine
 10
281.8150955157289
 20
200.2658296830525
 30
0.0
 11
281.731762172529
 21
200.1381700046525
 31
0.0
  0
LINE
  5
1490
330
1B
100
AcDbEntity
  8
7_ALL_FEATURES
  6
CONTINUOUS
 62
     7
100
AcDbLine
 10
281.731762172529
 20
200.1381700046525
 30
0.0
 11
281.6900955157289
 21
199.9679572589525
 31
0.0
  0
LINE
  5
1491
330
1B
100
AcDbEntity
  8
7_ALL_FEATURES
  6
CONTINUOUS
 62
     7
100
AcDbLine
 10
281.6900955157289
 20
199.9679572589525
 30
0.0
 11
281.6900955157289
 21
199.3296594030526
 31
0.0
  0
LINE
  5
1492
330
1B
100
AcDbEntity
  8
7_ALL_FEATURES
  6
CONTINUOUS
 62
     7
100
AcDbLine
 10
281.6900955157289
 20
199.3296594030526
 30
0.0
 11
281.731762172529
 21
199.1594466574525
 31
0.0
  0
LINE
  5
1493
330
1B
100
AcDbEntity
  8
7_ALL_FEATURES
  6
CONTINUOUS
 62
     7
100
AcDbLine
 10
281.731762172529
 20
199.1594466574525
 30
0.0
 11
281.8150955157289
 21
199.0317870981524
 31
0.0
  0
LINE
  5
1494
330
1B
100
AcDbEntity
  8
7_ALL_FEATURES
  6
CONTINUOUS
 62
     7
100
AcDbLine
 10
281.731762172529
 20
198.7764679349524
 30
0.0
 11
281.5650955157289
 21
198.9466806955523
 31
0.0
  0
LINE
  5
1495
330
1B
100
AcDbEntity
  8
7_ALL_FEATURES
  6
CONTINUOUS
 62
     7
100
AcDbLine
 10
281.8984288590289
 20
198.6913615509526
 30
0.0
 11
281.731762172529
 21
198.7764679349524
 31
0.0
  0
LINE
  5
1496
330
1B
100
AcDbEntity
  8
7_ALL_FEATURES
  6
CONTINUOUS
 62
     7
100
AcDbLine
 10
281.9400955157289
 20
200.3509360559525
 30
0.0
 11
281.8150955157289
 21
200.2658296830525
 31
0.0
  0
LINE
  5
1497
330
1B
100
AcDbEntity
  8
7_ALL_FEATURES
  6
CONTINUOUS
 62
     7
100
AcDbLine
 10
281.8984288590289
 20
200.6062551744525
 30
0.0
 11
282.1067622023288
 21
200.6488083608524
 31
0.0
  0
LINE
  5
1498
330
1B
100
AcDbEntity
  8
7_ALL_FEATURES
  6
CONTINUOUS
 62
     7
100
AcDbLine
 10
281.8150955157289
 20
199.0317870981524
 30
0.0
 11
281.9400955157289
 21
198.9466806955523
 31
0.0
  0
LINE
  5
1499
330
1B
100
AcDbEntity
  8
7_ALL_FEATURES
  6
CONTINUOUS
 62
     7
100
AcDbLine
 10
282.1067622023288
 20
198.6488083608525
 30
0.0
 11
281.8984288590289
 21
198.6913615509526
 31
0.0
  0
LINE
  5
149A
330
1B
100
AcDbEntity
  8
7_ALL_FEATURES
  6
CONTINUOUS
 62
     7
100
AcDbLine
 10
283.6900955157289
 20
200.5211488015525
 30
0.0
 11
283.8567622619289
 21
200.6062551744525
 31
0.0
  0
LINE
  5
149B
330
1B
100
AcDbEntity
  8
7_ALL_FEATURES
  6
CONTINUOUS
 62
     7
100
AcDbLine
 10
283.6900955157289
 20
200.1381700046525
 30
0.0
 11
283.773428769629
 21
200.2658296830525
 31
0.0
  0
LINE
  5
149C
330
1B
100
AcDbEntity
  8
7_ALL_FEATURES
  6
CONTINUOUS
 62
     7
100
AcDbLine
 10
283.773428769629
 20
199.0317870981524
 30
0.0
 11
283.6900955157289
 21
199.1594466574525
 31
0.0
  0
LINE
  5
149D
330
1B
100
AcDbEntity
  8
7_ALL_FEATURES
  6
CONTINUOUS
 62
     7
100
AcDbLine
 10
283.8567622619289
 20
198.6913615509526
 30
0.0
 11
283.6900955157289
 21
198.7764679349524
 31
0.0
  0
LINE
  5
149E
330
1B
100
AcDbEntity
  8
7_ALL_FEATURES
  6
CONTINUOUS
 62
     7
100
AcDbLine
 10
288.6067620234289
 20
198.7764679349524
 30
0.0
 11
288.4400955157289
 21
198.6913615509526
 31
0.0
  0
LINE
  5
149F
330
1B
100
AcDbEntity
  8
7_ALL_FEATURES
  6
CONTINUOUS
 62
     7
100
AcDbLine
 10
288.6067620234289
 20
199.1594466574525
 30
0.0
 11
288.5234290080289
 21
199.0317870981524
 31
0.0
  0
LINE
  5
14A0
330
1B
100
AcDbEntity
  8
7_ALL_FEATURES
  6
CONTINUOUS
 62
     7
100
AcDbLine
 10
288.5234290080289
 20
200.2658296830525
 30
0.0
 11
288.6067620234289
 21
200.1381700046525
 31
0.0
  0
LINE
  5
14A1
330
1B
100
AcDbEntity
  8
7_ALL_FEATURES
  6
CONTINUOUS
 62
     7
100
AcDbLine
 10
288.4400955157289
 20
200.6062551744525
 30
0.0
 11
288.6067620234289
 21
200.5211488015525
 31
0.0
  0
LINE
  5
14A2
330
1B
100
AcDbEntity
  8
7_ALL_FEATURES
  6
CONTINUOUS
 62
     7
100
AcDbLine
 10
288.5234290080289
 20
199.0317870981524
 30
0.0
 11
288.3984290080289
 21
198.9466806955523
 31
0.0
  0
LINE
  5
14A3
330
1B
100
AcDbEntity
  8
7_ALL_FEATURES
  6
CONTINUOUS
 62
     7
100
AcDbLine
 10
288.3984290080289
 20
200.3509360559525
 30
0.0
 11
288.5234290080289
 21
200.2658296830525
 31
0.0
  0
LINE
  5
14A4
330
1B
100
AcDbEntity
  8
7_ALL_FEATURES
  6
CONTINUOUS
 62
     7
100
AcDbLine
 10
288.2317620234289
 20
200.3934892423525
 30
0.0
 11
288.3984290080289
 21
200.3509360559525
 31
0.0
  0
LINE
  5
14A5
330
1B
100
AcDbEntity
  8
7_ALL_FEATURES
  6
CONTINUOUS
 62
     7
100
AcDbLine
 10
288.2317620234289
 20
200.6488083608524
 30
0.0
 11
288.4400955157289
 21
200.6062551744525
 31
0.0
  0
LINE
  5
14A6
330
1B
100
AcDbEntity
  8
7_ALL_FEATURES
  6
CONTINUOUS
 62
     7
100
AcDbLine
 10
288.4400955157289
 20
198.6913615509526
 30
0.0
 11
288.2317620234289
 21
198.6488083608525
 31
0.0
  0
LINE
  5
14A7
330
1B
100
AcDbEntity
  8
7_ALL_FEATURES
  6
CONTINUOUS
 62
     7
100
AcDbLine
 10
288.3984290080289
 20
198.9466806955523
 30
0.0
 11
288.2317620234289
 21
198.9041275091525
 31
0.0
  0
LINE
  5
14A8
330
1B
100
AcDbEntity
  8
7_ALL_FEATURES
  6
CONTINUOUS
 62
     7
100
AcDbLine
 10
288.7734290080289
 20
198.9466806955523
 30
0.0
 11
288.6067620234289
 21
198.7764679349524
 31
0.0
  0
LINE
  5
14A9
330
1B
100
AcDbEntity
  8
7_ALL_FEATURES
  6
CONTINUOUS
 62
     7
100
AcDbLine
 10
288.8567620234289
 20
199.1168934710525
 30
0.0
 11
288.7734290080289
 21
198.9466806955523
 31
0.0
  0
LINE
  5
14AA
330
1B
100
AcDbEntity
  8
7_ALL_FEATURES
  6
CONTINUOUS
 62
     7
100
AcDbLine
 10
288.6484290080289
 20
199.3296594030526
 30
0.0
 11
288.6067620234289
 21
199.1594466574525
 31
0.0
  0
LINE
  5
14AB
330
1B
100
AcDbEntity
  8
7_ALL_FEATURES
  6
CONTINUOUS
 62
     7
100
AcDbLine
 10
288.8984290080289
 20
199.3296594030526
 30
0.0
 11
288.8567620234289
 21
199.1168934710525
 31
0.0
  0
LINE
  5
14AC
330
1B
100
AcDbEntity
  8
7_ALL_FEATURES
  6
CONTINUOUS
 62
     7
100
AcDbLine
 10
288.8567620234289
 20
200.1807233102523
 30
0.0
 11
288.8984290080289
 21
199.9679572589525
 31
0.0
  0
LINE
  5
14AD
330
1B
100
AcDbEntity
  8
7_ALL_FEATURES
  6
CONTINUOUS
 62
     7
100
AcDbLine
 10
289.4817625003288
 20
198.6488083608525
 30
0.0
 11
289.4817625003288
 21
199.5424253947525
 31
0.0
  0
LINE
  5
14AE
330
1B
100
AcDbEntity
  8
7_ALL_FEATURES
  6
CONTINUOUS
 62
     7
100
AcDbLine
 10
289.4817625003288
 20
200.4360424287525
 30
0.0
 11
289.4817625003288
 21
199.7977445132525
 31
0.0
  0
LINE
  5
14AF
330
1B
100
AcDbEntity
  8
7_ALL_FEATURES
  6
CONTINUOUS
 62
     7
100
AcDbLine
 10
289.2317620234289
 20
200.6488083608524
 30
0.0
 11
289.2317620234289
 21
198.6488083608525
 31
0.0
  0
LINE
  5
14B0
330
1B
100
AcDbEntity
  8
7_ALL_FEATURES
  6
CONTINUOUS
 62
     7
100
AcDbLine
 10
288.8984290080289
 20
199.9679572589525
 30
0.0
 11
288.8984290080289
 21
199.3296594030526
 31
0.0
  0
LINE
  5
14B1
330
1B
100
AcDbEntity
  8
7_ALL_FEATURES
  6
CONTINUOUS
 62
     7
100
AcDbLine
 10
288.6484290080289
 20
199.9679572589525
 30
0.0
 11
288.6484290080289
 21
199.3296594030526
 31
0.0
  0
LINE
  5
14B2
330
1B
100
AcDbEntity
  8
7_ALL_FEATURES
  6
CONTINUOUS
 62
     7
100
AcDbLine
 10
288.6067620234289
 20
200.1381700046525
 30
0.0
 11
288.6484290080289
 21
199.9679572589525
 31
0.0
  0
LINE
  5
14B3
330
1B
100
AcDbEntity
  8
7_ALL_FEATURES
  6
CONTINUOUS
 62
     7
100
AcDbLine
 10
288.7734290080289
 20
200.3509360559525
 30
0.0
 11
288.8567620234289
 21
200.1807233102523
 31
0.0
  0
LINE
  5
14B4
330
1B
100
AcDbEntity
  8
7_ALL_FEATURES
  6
CONTINUOUS
 62
     7
100
AcDbLine
 10
288.6067620234289
 20
200.5211488015525
 30
0.0
 11
288.7734290080289
 21
200.3509360559525
 31
0.0
  0
LINE
  5
14B5
330
1B
100
AcDbEntity
  8
7_ALL_FEATURES
  6
CONTINUOUS
 62
     7
100
AcDbLine
 10
289.2317620234289
 20
198.6488083608525
 30
0.0
 11
289.4817625003288
 21
198.6488083608525
 31
0.0
  0
LINE
  5
14B6
330
1B
100
AcDbEntity
  8
7_ALL_FEATURES
  6
CONTINUOUS
 62
     7
100
AcDbLine
 10
287.8984290080289
 20
200.6488083608524
 30
0.0
 11
288.2317620234289
 21
200.6488083608524
 31
0.0
  0
LINE
  5
14B7
330
1B
100
AcDbEntity
  8
7_ALL_FEATURES
  6
CONTINUOUS
 62
     7
100
AcDbLine
 10
287.8984290080289
 20
200.3934892423525
 30
0.0
 11
288.2317620234289
 21
200.3934892423525
 31
0.0
  0
LINE
  5
14B8
330
1B
100
AcDbEntity
  8
7_ALL_FEATURES
  6
CONTINUOUS
 62
     7
100
AcDbLine
 10
288.2317620234289
 20
198.9041275091525
 30
0.0
 11
287.8984290080289
 21
198.9041275091525
 31
0.0
  0
LINE
  5
14B9
330
1B
100
AcDbEntity
  8
7_ALL_FEATURES
  6
CONTINUOUS
 62
     7
100
AcDbLine
 10
288.2317620234289
 20
198.6488083608525
 30
0.0
 11
287.8984290080289
 21
198.6488083608525
 31
0.0
  0
LINE
  5
14BA
330
1B
100
AcDbEntity
  8
7_ALL_FEATURES
  6
CONTINUOUS
 62
     7
100
AcDbLine
 10
287.5234290080289
 20
200.5211488015525
 30
0.0
 11
287.6900955157289
 21
200.6062551744525
 31
0.0
  0
LINE
  5
14BB
330
1B
100
AcDbEntity
  8
7_ALL_FEATURES
  6
CONTINUOUS
 62
     7
100
AcDbLine
 10
287.6067620234289
 20
200.2658296830525
 30
0.0
 11
287.7317620234289
 21
200.3509360559525
 31
0.0
  0
LINE
  5
14BC
330
1B
100
AcDbEntity
  8
7_ALL_FEATURES
  6
CONTINUOUS
 62
     7
100
AcDbLine
 10
287.3567620234289
 20
200.3509360559525
 30
0.0
 11
287.5234290080289
 21
200.5211488015525
 31
0.0
  0
LINE
  5
14BD
330
1B
100
AcDbEntity
  8
7_ALL_FEATURES
  6
CONTINUOUS
 62
     7
100
AcDbLine
 10
287.5234290080289
 20
200.1381700046525
 30
0.0
 11
287.6067620234289
 21
200.2658296830525
 31
0.0
  0
LINE
  5
14BE
330
1B
100
AcDbEntity
  8
7_ALL_FEATURES
  6
CONTINUOUS
 62
     7
100
AcDbLine
 10
287.2734290080289
 20
200.1807233102523
 30
0.0
 11
287.3567620234289
 21
200.3509360559525
 31
0.0
  0
LINE
  5
14BF
330
1B
100
AcDbEntity
  8
7_ALL_FEATURES
  6
CONTINUOUS
 62
     7
100
AcDbLine
 10
287.4817620234289
 20
199.9679572589525
 30
0.0
 11
287.5234290080289
 21
200.1381700046525
 31
0.0
  0
LINE
  5
14C0
330
1B
100
AcDbEntity
  8
7_ALL_FEATURES
  6
CONTINUOUS
 62
     7
100
AcDbLine
 10
287.2317620234289
 20
199.9679572589525
 30
0.0
 11
287.2734290080289
 21
200.1807233102523
 31
0.0
  0
LINE
  5
14C1
330
1B
100
AcDbEntity
  8
7_ALL_FEATURES
  6
CONTINUOUS
 62
     7
100
AcDbLine
 10
287.4817620234289
 20
199.3296594030526
 30
0.0
 11
287.4817620234289
 21
199.9679572589525
 31
0.0
  0
LINE
  5
14C2
330
1B
100
AcDbEntity
  8
7_ALL_FEATURES
  6
CONTINUOUS
 62
     7
100
AcDbLine
 10
287.2317620234289
 20
199.3296594030526
 30
0.0
 11
287.2317620234289
 21
199.9679572589525
 31
0.0
  0
LINE
  5
14C3
330
1B
100
AcDbEntity
  8
7_ALL_FEATURES
  6
CONTINUOUS
 62
     7
100
AcDbLine
 10
286.8984290080289
 20
198.9041275091525
 30
0.0
 11
286.8984290080289
 21
198.6488083608525
 31
0.0
  0
LINE
  5
14C4
330
1B
100
AcDbEntity
  8
7_ALL_FEATURES
  6
CONTINUOUS
 62
     7
100
AcDbLine
 10
287.2734290080289
 20
199.1168934710525
 30
0.0
 11
287.2317620234289
 21
199.3296594030526
 31
0.0
  0
LINE
  5
14C5
330
1B
100
AcDbEntity
  8
7_ALL_FEATURES
  6
CONTINUOUS
 62
     7
100
AcDbLine
 10
287.5234290080289
 20
199.1594466574525
 30
0.0
 11
287.4817620234289
 21
199.3296594030526
 31
0.0
  0
LINE
  5
14C6
330
1B
100
AcDbEntity
  8
7_ALL_FEATURES
  6
CONTINUOUS
 62
     7
100
AcDbLine
 10
287.3567620234289
 20
198.9466806955523
 30
0.0
 11
287.2734290080289
 21
199.1168934710525
 31
0.0
  0
LINE
  5
14C7
330
1B
100
AcDbEntity
  8
7_ALL_FEATURES
  6
CONTINUOUS
 62
     7
100
AcDbLine
 10
287.6067620234289
 20
199.0317870981524
 30
0.0
 11
287.5234290080289
 21
199.1594466574525
 31
0.0
  0
LINE
  5
14C8
330
1B
100
AcDbEntity
  8
7_ALL_FEATURES
  6
CONTINUOUS
 62
     7
100
AcDbLine
 10
287.5234290080289
 20
198.7764679349524
 30
0.0
 11
287.3567620234289
 21
198.9466806955523
 31
0.0
  0
LINE
  5
14C9
330
1B
100
AcDbEntity
  8
7_ALL_FEATURES
  6
CONTINUOUS
 62
     7
100
AcDbLine
 10
287.7317620234289
 20
198.9466806955523
 30
0.0
 11
287.6067620234289
 21
199.0317870981524
 31
0.0
  0
LINE
  5
14CA
330
1B
100
AcDbEntity
  8
7_ALL_FEATURES
  6
CONTINUOUS
 62
     7
100
AcDbLine
 10
287.6900955157289
 20
198.6913615509526
 30
0.0
 11
287.5234290080289
 21
198.7764679349524
 31
0.0
  0
LINE
  5
14CB
330
1B
100
AcDbEntity
  8
7_ALL_FEATURES
  6
CONTINUOUS
 62
     7
100
AcDbLine
 10
285.6484290080289
 20
200.6488083608524
 30
0.0
 11
285.6484290080289
 21
198.9041275091525
 31
0.0
  0
LINE
  5
14CC
330
1B
100
AcDbEntity
  8
7_ALL_FEATURES
  6
CONTINUOUS
 62
     7
100
AcDbLine
 10
285.6484290080289
 20
198.9041275091525
 30
0.0
 11
286.8984290080289
 21
198.9041275091525
 31
0.0
  0
LINE
  5
14CD
330
1B
100
AcDbEntity
  8
7_ALL_FEATURES
  6
CONTINUOUS
 62
     7
100
AcDbLine
 10
287.6900955157289
 20
200.6062551744525
 30
0.0
 11
287.8984290080289
 21
200.6488083608524
 31
0.0
  0
LINE
  5
14CE
330
1B
100
AcDbEntity
  8
7_ALL_FEATURES
  6
CONTINUOUS
 62
     7
100
AcDbLine
 10
287.7317620234289
 20
200.3509360559525
 30
0.0
 11
287.8984290080289
 21
200.3934892423525
 31
0.0
  0
LINE
  5
14CF
330
1B
100
AcDbEntity
  8
7_ALL_FEATURES
  6
CONTINUOUS
 62
     7
100
AcDbLine
 10
287.8984290080289
 20
198.9041275091525
 30
0.0
 11
287.7317620234289
 21
198.9466806955523
 31
0.0
  0
LINE
  5
14D0
330
1B
100
AcDbEntity
  8
7_ALL_FEATURES
  6
CONTINUOUS
 62
     7
100
AcDbLine
 10
287.8984290080289
 20
198.6488083608525
 30
0.0
 11
287.6900955157289
 21
198.6913615509526
 31
0.0
  0
LINE
  5
14D1
330
1B
100
AcDbEntity
  8
7_ALL_FEATURES
  6
CONTINUOUS
 62
     7
100
AcDbLine
 10
297.4817615466288
 20
200.6488083608524
 30
0.0
 11
298.1067615466288
 21
198.8615743227524
 31
0.0
  0
LINE
  5
14D2
330
1B
100
AcDbEntity
  8
7_ALL_FEATURES
  6
CONTINUOUS
 62
     7
100
AcDbLine
 10
297.9400955157289
 20
198.6488083608525
 30
0.0
 11
297.3567625003289
 21
200.2232764966525
 31
0.0
  0
LINE
  5
14D3
330
1B
100
AcDbEntity
  8
7_ALL_FEATURES
  6
CONTINUOUS
 62
     7
100
AcDbLine
 10
293.648428531229
 20
198.9466806955523
 30
0.0
 11
293.8150955157289
 21
198.9041275091525
 31
0.0
  0
LINE
  5
14D4
330
1B
100
AcDbEntity
  8
7_ALL_FEATURES
  6
CONTINUOUS
 62
     7
100
AcDbLine
 10
293.6067625003289
 20
200.6062551744525
 30
0.0
 11
293.8150955157289
 21
200.6488083608524
 31
0.0
  0
LINE
  5
14D5
330
1B
100
AcDbEntity
  8
7_ALL_FEATURES
  6
CONTINUOUS
 62
     7
100
AcDbLine
 10
293.8150955157289
 20
200.3934892423525
 30
0.0
 11
293.648428531229
 21
200.3509360559525
 31
0.0
  0
LINE
  5
14D6
330
1B
100
AcDbEntity
  8
7_ALL_FEATURES
  6
CONTINUOUS
 62
     7
100
AcDbLine
 10
293.8150955157289
 20
198.6488083608525
 30
0.0
 11
293.6067625003289
 21
198.6913615509526
 31
0.0
  0
LINE
  5
14D7
330
1B
100
AcDbEntity
  8
7_ALL_FEATURES
  6
CONTINUOUS
 62
     7
100
AcDbLine
 10
293.4400955157289
 20
200.5211488015525
 30
0.0
 11
293.6067625003289
 21
200.6062551744525
 31
0.0
  0
LINE
  5
14D8
330
1B
100
AcDbEntity
  8
7_ALL_FEATURES
  6
CONTINUOUS
 62
     7
100
AcDbLine
 10
293.648428531229
 20
200.3509360559525
 30
0.0
 11
293.523428531229
 21
200.2658296830525
 31
0.0
  0
LINE
  5
14D9
330
1B
100
AcDbEntity
  8
7_ALL_FEATURES
  6
CONTINUOUS
 62
     2
100
AcDbLine
 10
293.3575257416289
 20
198.8607943492525
 30
0.0
 11
293.526456734629
 21
199.0297253421524
 31
0.0
  0
LINE
  5
14DA
330
1B
100
AcDbEntity
  8
7_ALL_FEATURES
  6
CONTINUOUS
 62
     7
100
AcDbLine
 10
293.273428531229
 20
200.3509360559525
 30
0.0
 11
293.4400955157289
 21
200.5211488015525
 31
0.0
  0
LINE
  5
14DB
330
1B
100
AcDbEntity
  8
7_ALL_FEATURES
  6
CONTINUOUS
 62
     7
100
AcDbLine
 10
293.523428531229
 20
200.2658296830525
 30
0.0
 11
293.4400955157289
 21
200.1381700046525
 31
0.0
  0
LINE
  5
14DC
330
1B
100
AcDbEntity
  8
7_ALL_FEATURES
  6
CONTINUOUS
 62
     7
100
AcDbLine
 10
293.1900955157289
 20
200.1807233102523
 30
0.0
 11
293.273428531229
 21
200.3509360559525
 31
0.0
  0
LINE
  5
14DD
330
1B
100
AcDbEntity
  8
7_ALL_FEATURES
  6
CONTINUOUS
 62
     7
100
AcDbLine
 10
293.4400955157289
 20
200.1381700046525
 30
0.0
 11
293.398428531229
 21
199.9679572589525
 31
0.0
  0
LINE
  5
14DE
330
1B
100
AcDbEntity
  8
7_ALL_FEATURES
  6
CONTINUOUS
 62
     7
100
AcDbLine
 10
293.148428531229
 20
199.9679572589525
 30
0.0
 11
293.1900955157289
 21
200.1807233102523
 31
0.0
  0
LINE
  5
14DF
330
1B
100
AcDbEntity
  8
7_ALL_FEATURES
  6
CONTINUOUS
 62
     7
100
AcDbLine
 10
293.398428531229
 20
199.9679572589525
 30
0.0
 11
293.398428531229
 21
199.3296594030526
 31
0.0
  0
LINE
  5
14E0
330
1B
100
AcDbEntity
  8
7_ALL_FEATURES
  6
CONTINUOUS
 62
     7
100
AcDbLine
 10
293.148428531229
 20
199.3296594030526
 30
0.0
 11
293.148428531229
 21
199.9679572589525
 31
0.0
  0
LINE
  5
14E1
330
1B
100
AcDbEntity
  8
7_ALL_FEATURES
  6
CONTINUOUS
 62
     7
100
AcDbLine
 10
293.1900955157289
 20
199.1168934710525
 30
0.0
 11
293.148428531229
 21
199.3296594030526
 31
0.0
  0
LINE
  5
14E2
330
1B
100
AcDbEntity
  8
7_ALL_FEATURES
  6
CONTINUOUS
 62
     7
100
AcDbLine
 10
293.398428531229
 20
199.3296594030526
 30
0.0
 11
293.4400955157289
 21
199.1594466574525
 31
0.0
  0
LINE
  5
14E3
330
1B
100
AcDbEntity
  8
7_ALL_FEATURES
  6
CONTINUOUS
 62
     7
100
AcDbLine
 10
293.273428531229
 20
198.9466806955523
 30
0.0
 11
293.1900955157289
 21
199.1168934710525
 31
0.0
  0
LINE
  5
14E4
330
1B
100
AcDbEntity
  8
7_ALL_FEATURES
  6
CONTINUOUS
 62
     7
100
AcDbLine
 10
293.4400955157289
 20
199.1594466574525
 30
0.0
 11
293.523428531229
 21
199.0317870981524
 31
0.0
  0
LINE
  5
14E5
330
1B
100
AcDbEntity
  8
7_ALL_FEATURES
  6
CONTINUOUS
 62
     7
100
AcDbLine
 10
293.4400955157289
 20
198.7764679349524
 30
0.0
 11
293.273428531229
 21
198.9466806955523
 31
0.0
  0
LINE
  5
14E6
330
1B
100
AcDbEntity
  8
7_ALL_FEATURES
  6
CONTINUOUS
 62
     7
100
AcDbLine
 10
293.523428531229
 20
199.0317870981524
 30
0.0
 11
293.648428531229
 21
198.9466806955523
 31
0.0
  0
LINE
  5
14E7
330
1B
100
AcDbEntity
  8
7_ALL_FEATURES
  6
CONTINUOUS
 62
     7
100
AcDbLine
 10
293.6067625003289
 20
198.6913615509526
 30
0.0
 11
293.4400955157289
 21
198.7764679349524
 31
0.0
  0
LINE
  5
14E8
330
1B
100
AcDbEntity
  8
7_ALL_FEATURES
  6
CONTINUOUS
 62
     7
100
AcDbLine
 10
290.273428531229
 20
199.7977445132525
 30
0.0
 11
290.398428531229
 21
199.8402976996525
 31
0.0
  0
LINE
  5
14E9
330
1B
100
AcDbEntity
  8
7_ALL_FEATURES
  6
CONTINUOUS
 62
     7
100
AcDbLine
 10
290.4400955157289
 20
199.6275317676525
 30
0.0
 11
290.6067625003288
 21
199.7126381404524
 31
0.0
  0
LINE
  5
14EA
330
1B
100
AcDbEntity
  8
7_ALL_FEATURES
  6
CONTINUOUS
 62
     7
100
AcDbLine
 10
290.398428531229
 20
199.8402976996525
 30
0.0
 11
290.4817625003289
 21
199.9254040725525
 31
0.0
  0
LINE
  5
14EB
330
1B
100
AcDbEntity
  8
7_ALL_FEATURES
  6
CONTINUOUS
 62
     7
100
AcDbLine
 10
290.6067625003288
 20
199.7126381404524
 30
0.0
 11
290.7317625003289
 21
199.8828508861525
 31
0.0
  0
LINE
  5
14EC
330
1B
100
AcDbEntity
  8
7_ALL_FEATURES
  6
CONTINUOUS
 62
     7
100
AcDbLine
 10
290.7317625003289
 20
199.8828508861525
 30
0.0
 11
290.773428531229
 21
200.0105104453524
 31
0.0
  0
LINE
  5
14ED
330
1B
100
AcDbEntity
  8
7_ALL_FEATURES
  6
CONTINUOUS
 62
     7
100
AcDbLine
 10
290.4817625003289
 20
199.9254040725525
 30
0.0
 11
290.523428531229
 21
200.0530636317525
 31
0.0
  0
LINE
  5
14EE
330
1B
100
AcDbEntity
  8
7_ALL_FEATURES
  6
CONTINUOUS
 62
     7
100
AcDbLine
 10
290.773428531229
 20
200.1807233102523
 30
0.0
 11
290.7317625003289
 21
200.3083828694525
 31
0.0
  0
LINE
  5
14EF
330
1B
100
AcDbEntity
  8
7_ALL_FEATURES
  6
CONTINUOUS
 62
     7
100
AcDbLine
 10
290.773428531229
 20
200.0105104453524
 30
0.0
 11
290.773428531229
 21
200.1807233102523
 31
0.0
  0
LINE
  5
14F0
330
1B
100
AcDbEntity
  8
7_ALL_FEATURES
  6
CONTINUOUS
 62
     7
100
AcDbLine
 10
290.523428531229
 20
200.0530636317525
 30
0.0
 11
290.523428531229
 21
200.1807233102523
 31
0.0
  0
LINE
  5
14F1
330
1B
100
AcDbEntity
  8
7_ALL_FEATURES
  6
CONTINUOUS
 62
     7
100
AcDbLine
 10
290.523428531229
 20
200.1807233102523
 30
0.0
 11
290.4817625003289
 21
200.3083828694525
 31
0.0
  0
LINE
  5
14F2
330
1B
100
AcDbEntity
  8
7_ALL_FEATURES
  6
CONTINUOUS
 62
     7
100
AcDbLine
 10
290.1900955157289
 20
199.5424253947525
 30
0.0
 11
290.523428531229
 21
198.6488083608525
 31
0.0
  0
LINE
  5
14F3
330
1B
100
AcDbEntity
  8
7_ALL_FEATURES
  6
CONTINUOUS
 62
     7
100
AcDbLine
 10
290.8150955157289
 20
198.6488083608525
 30
0.0
 11
290.4400955157289
 21
199.6275317676525
 31
0.0
  0
LINE
  5
14F4
330
1B
100
AcDbEntity
  8
7_ALL_FEATURES
  6
CONTINUOUS
 62
     7
100
AcDbLine
 10
290.7317625003289
 20
200.3083828694525
 30
0.0
 11
290.6067625003288
 21
200.4785956151525
 31
0.0
  0
LINE
  5
14F5
330
1B
100
AcDbEntity
  8
7_ALL_FEATURES
  6
CONTINUOUS
 62
     7
100
AcDbLine
 10
290.4817625003289
 20
200.3083828694525
 30
0.0
 11
290.398428531229
 21
200.3934892423525
 31
0.0
  0
LINE
  5
14F6
330
1B
100
AcDbEntity
  8
7_ALL_FEATURES
  6
CONTINUOUS
 62
     7
100
AcDbLine
 10
290.6067625003288
 20
200.4785956151525
 30
0.0
 11
290.4400955157289
 21
200.6062551744525
 31
0.0
  0
LINE
  5
14F7
330
1B
100
AcDbEntity
  8
7_ALL_FEATURES
  6
CONTINUOUS
 62
     7
100
AcDbLine
 10
290.398428531229
 20
200.3934892423525
 30
0.0
 11
290.273428531229
 21
200.4360424287525
 31
0.0
  0
LINE
  5
14F8
330
1B
100
AcDbEntity
  8
7_ALL_FEATURES
  6
CONTINUOUS
 62
     7
100
AcDbLine
 10
290.4400955157289
 20
200.6062551744525
 30
0.0
 11
290.2317625003289
 21
200.6488083608524
 31
0.0
  0
LINE
  5
14F9
330
1B
100
AcDbEntity
  8
7_ALL_FEATURES
  6
CONTINUOUS
 62
     7
100
AcDbLine
 10
290.523428531229
 20
198.6488083608525
 30
0.0
 11
290.8150955157289
 21
198.6488083608525
 31
0.0
  0
LINE
  5
14FA
330
1B
100
AcDbEntity
  8
7_ALL_FEATURES
  6
CONTINUOUS
 62
     7
100
AcDbLine
 10
296.523428531229
 20
198.6488083608525
 30
0.0
 11
296.3567625003289
 21
199.1594466574525
 31
0.0
  0
LINE
  5
14FB
330
1B
100
AcDbEntity
  8
7_ALL_FEATURES
  6
CONTINUOUS
 62
     7
100
AcDbLine
 10
296.773428531229
 20
198.6488083608525
 30
0.0
 11
296.523428531229
 21
198.6488083608525
 31
0.0
  0
LINE
  5
14FC
330
1B
100
AcDbEntity
  8
7_ALL_FEATURES
  6
CONTINUOUS
 62
     7
100
AcDbLine
 10
297.3567625003289
 20
200.2232764966525
 30
0.0
 11
297.3567625003289
 21
198.6488083608525
 31
0.0
  0
LINE
  5
14FD
330
1B
100
AcDbEntity
  8
7_ALL_FEATURES
  6
CONTINUOUS
 62
     7
100
AcDbLine
 10
297.1067625003289
 20
198.6488083608525
 30
0.0
 11
297.1067625003289
 21
200.6488083608524
 31
0.0
  0
LINE
  5
14FE
330
1B
100
AcDbEntity
  8
7_ALL_FEATURES
  6
CONTINUOUS
 62
     7
100
AcDbLine
 10
297.1067625003289
 20
200.6488083608524
 30
0.0
 11
297.4817615466288
 21
200.6488083608524
 31
0.0
  0
LINE
  5
14FF
330
1B
100
AcDbEntity
  8
7_ALL_FEATURES
  6
CONTINUOUS
 62
     7
100
AcDbLine
 10
297.3567625003289
 20
198.6488083608525
 30
0.0
 11
297.1067625003289
 21
198.6488083608525
 31
0.0
  0
LINE
  5
1500
330
1B
100
AcDbEntity
  8
7_ALL_FEATURES
  6
CONTINUOUS
 62
     7
100
AcDbLine
 10
295.9400955157289
 20
200.4785956151525
 30
0.0
 11
296.3150955157289
 21
199.3296594030526
 31
0.0
  0
LINE
  5
1501
330
1B
100
AcDbEntity
  8
7_ALL_FEATURES
  6
CONTINUOUS
 62
     7
100
AcDbLine
 10
296.1067625003289
 20
200.6488083608524
 30
0.0
 11
296.773428531229
 21
198.6488083608525
 31
0.0
  0
LINE
  5
1502
330
1B
100
AcDbEntity
  8
7_ALL_FEATURES
  6
CONTINUOUS
 62
     7
100
AcDbLine
 10
294.5650955157289
 20
198.7764679349524
 30
0.0
 11
294.398428531229
 21
198.6913615509526
 31
0.0
  0
LINE
  5
1503
330
1B
100
AcDbEntity
  8
7_ALL_FEATURES
  6
CONTINUOUS
 62
     7
100
AcDbLine
 10
294.3567625003288
 20
198.9466806955523
 30
0.0
 11
294.4817625003289
 21
199.0317870981524
 31
0.0
  0
LINE
  5
1504
330
1B
100
AcDbEntity
  8
7_ALL_FEATURES
  6
CONTINUOUS
 62
     2
100
AcDbLine
 10
294.6349013970289
 20
200.1381700046525
 30
0.0
 11
294.750743200829
 21
200.2540118083525
 31
0.0
  0
LINE
  5
1505
330
1B
100
AcDbEntity
  8
7_ALL_FEATURES
  6
CONTINUOUS
 62
     7
100
AcDbLine
 10
294.7317625003289
 20
198.9466806955523
 30
0.0
 11
294.5650955157289
 21
198.7764679349524
 31
0.0
  0
LINE
  5
1506
330
1B
100
AcDbEntity
  8
7_ALL_FEATURES
  6
CONTINUOUS
 62
     7
100
AcDbLine
 10
295.1067625003289
 20
198.6488083608525
 30
0.0
 11
295.773428531229
 21
200.6488083608524
 31
0.0
  0
LINE
  5
1507
330
1B
100
AcDbEntity
  8
7_ALL_FEATURES
  6
CONTINUOUS
 62
     7
100
AcDbLine
 10
295.523428531229
 20
199.1594466574525
 30
0.0
 11
295.3567625003289
 21
198.6488083608525
 31
0.0
  0
LINE
  5
1508
330
1B
100
AcDbEntity
  8
7_ALL_FEATURES
  6
CONTINUOUS
 62
     7
100
AcDbLine
 10
294.4817625003289
 20
199.0317870981524
 30
0.0
 11
294.523428531229
 21
199.1594466574525
 31
0.0
  0
LINE
  5
1509
330
1B
100
AcDbEntity
  8
7_ALL_FEATURES
  6
CONTINUOUS
 62
     7
100
AcDbLine
 10
294.773428531229
 20
199.1594466574525
 30
0.0
 11
294.7317625003289
 21
198.9466806955523
 31
0.0
  0
LINE
  5
150A
330
1B
100
AcDbEntity
  8
7_ALL_FEATURES
  6
CONTINUOUS
 62
     7
100
AcDbLine
 10
294.7317625003289
 20
200.3509360559525
 30
0.0
 11
294.773428531229
 21
200.1381700046525
 31
0.0
  0
LINE
  5
150B
330
1B
100
AcDbEntity
  8
7_ALL_FEATURES
  6
CONTINUOUS
 62
     7
100
AcDbLine
 10
294.523428531229
 20
200.1381700046525
 30
0.0
 11
294.4817625003289
 21
200.2658296830525
 31
0.0
  0
LINE
  5
150C
330
1B
100
AcDbEntity
  8
7_ALL_FEATURES
  6
CONTINUOUS
 62
     7
100
AcDbLine
 10
294.5650955157289
 20
200.5211488015525
 30
0.0
 11
294.7317625003289
 21
200.3509360559525
 31
0.0
  0
LINE
  5
150D
330
1B
100
AcDbEntity
  8
7_ALL_FEATURES
  6
CONTINUOUS
 62
     7
100
AcDbLine
 10
294.4817625003289
 20
200.2658296830525
 30
0.0
 11
294.3567625003288
 21
200.3509360559525
 31
0.0
  0
LINE
  5
150E
330
1B
100
AcDbEntity
  8
7_ALL_FEATURES
  6
CONTINUOUS
 62
     7
100
AcDbLine
 10
294.398428531229
 20
200.6062551744525
 30
0.0
 11
294.5650955157289
 21
200.5211488015525
 31
0.0
  0
LINE
  5
150F
330
1B
100
AcDbEntity
  8
7_ALL_FEATURES
  6
CONTINUOUS
 62
     7
100
AcDbLine
 10
294.3567625003288
 20
200.3509360559525
 30
0.0
 11
294.1900955157289
 21
200.3934892423525
 31
0.0
  0
LINE
  5
1510
330
1B
100
AcDbEntity
  8
7_ALL_FEATURES
  6
CONTINUOUS
 62
     7
100
AcDbLine
 10
294.1900955157289
 20
200.6488083608524
 30
0.0
 11
294.398428531229
 21
200.6062551744525
 31
0.0
  0
LINE
  5
1511
330
1B
100
AcDbEntity
  8
7_ALL_FEATURES
  6
CONTINUOUS
 62
     7
100
AcDbLine
 10
294.773428531229
 20
200.1381700046525
 30
0.0
 11
294.523428531229
 21
200.1381700046525
 31
0.0
  0
LINE
  5
1512
330
1B
100
AcDbEntity
  8
7_ALL_FEATURES
  6
CONTINUOUS
 62
     7
100
AcDbLine
 10
294.523428531229
 20
199.1594466574525
 30
0.0
 11
294.773428531229
 21
199.1594466574525
 31
0.0
  0
LINE
  5
1513
330
1B
100
AcDbEntity
  8
7_ALL_FEATURES
  6
CONTINUOUS
 62
     7
100
AcDbLine
 10
295.3567625003289
 20
198.6488083608525
 30
0.0
 11
295.1067625003289
 21
198.6488083608525
 31
0.0
  0
LINE
  5
1514
330
1B
100
AcDbEntity
  8
7_ALL_FEATURES
  6
CONTINUOUS
 62
     7
100
AcDbLine
 10
294.398428531229
 20
198.6913615509526
 30
0.0
 11
294.1900955157289
 21
198.6488083608525
 31
0.0
  0
LINE
  5
1515
330
1B
100
AcDbEntity
  8
7_ALL_FEATURES
  6
CONTINUOUS
 62
     7
100
AcDbLine
 10
294.1900955157289
 20
198.9041275091525
 30
0.0
 11
294.3567625003288
 21
198.9466806955523
 31
0.0
  0
LINE
  5
1516
330
1B
100
AcDbEntity
  8
7_ALL_FEATURES
  6
CONTINUOUS
 62
     7
100
AcDbLine
 10
293.8150955157289
 20
200.6488083608524
 30
0.0
 11
294.1900955157289
 21
200.6488083608524
 31
0.0
  0
LINE
  5
1517
330
1B
100
AcDbEntity
  8
7_ALL_FEATURES
  6
CONTINUOUS
 62
     7
100
AcDbLine
 10
294.1900955157289
 20
200.3934892423525
 30
0.0
 11
293.8150955157289
 21
200.3934892423525
 31
0.0
  0
LINE
  5
1518
330
1B
100
AcDbEntity
  8
7_ALL_FEATURES
  6
CONTINUOUS
 62
     7
100
AcDbLine
 10
293.8150955157289
 20
198.9041275091525
 30
0.0
 11
294.1900955157289
 21
198.9041275091525
 31
0.0
  0
LINE
  5
1519
330
1B
100
AcDbEntity
  8
7_ALL_FEATURES
  6
CONTINUOUS
 62
     7
100
AcDbLine
 10
294.1900955157289
 20
198.6488083608525
 30
0.0
 11
293.8150955157289
 21
198.6488083608525
 31
0.0
  0
LINE
  5
151A
330
1B
100
AcDbEntity
  8
7_ALL_FEATURES
  6
CONTINUOUS
 62
     7
100
AcDbLine
 10
295.5650955157289
 20
199.3296594030526
 30
0.0
 11
295.9400955157289
 21
200.4785956151525
 31
0.0
  0
LINE
  5
151B
330
1B
100
AcDbEntity
  8
7_ALL_FEATURES
  6
CONTINUOUS
 62
     7
100
AcDbLine
 10
295.773428531229
 20
200.6488083608524
 30
0.0
 11
296.1067625003289
 21
200.6488083608524
 31
0.0
  0
LINE
  5
151C
330
1B
100
AcDbEntity
  8
7_ALL_FEATURES
  6
CONTINUOUS
 62
     7
100
AcDbLine
 10
296.3150955157289
 20
199.3296594030526
 30
0.0
 11
295.5650955157289
 21
199.3296594030526
 31
0.0
  0
LINE
  5
151D
330
1B
100
AcDbEntity
  8
7_ALL_FEATURES
  6
CONTINUOUS
 62
     7
100
AcDbLine
 10
296.3567625003289
 20
199.1594466574525
 30
0.0
 11
295.523428531229
 21
199.1594466574525
 31
0.0
  0
LINE
  5
151E
330
1B
100
AcDbEntity
  8
7_ALL_FEATURES
  6
CONTINUOUS
 62
     7
100
AcDbLine
 10
301.5234294848287
 20
199.5424253947525
 30
0.0
 11
302.2317615466288
 21
199.5424253947525
 31
0.0
  0
LINE
  5
151F
330
1B
100
AcDbEntity
  8
7_ALL_FEATURES
  6
CONTINUOUS
 62
     7
100
AcDbLine
 10
302.2734294848287
 20
200.6488083608524
 30
0.0
 11
301.2734294848288
 21
200.6488083608524
 31
0.0
  0
LINE
  5
1520
330
1B
100
AcDbEntity
  8
7_ALL_FEATURES
  6
CONTINUOUS
 62
     7
100
AcDbLine
 10
302.3150955157289
 20
200.4360424287525
 30
0.0
 11
301.5234294848287
 21
200.4360424287525
 31
0.0
  0
LINE
  5
1521
330
1B
100
AcDbEntity
  8
7_ALL_FEATURES
  6
CONTINUOUS
 62
     7
100
AcDbLine
 10
301.5234294848287
 20
199.7977445132525
 30
0.0
 11
302.3150955157289
 21
199.7977445132525
 31
0.0
  0
LINE
  5
1522
330
1B
100
AcDbEntity
  8
7_ALL_FEATURES
  6
CONTINUOUS
 62
     7
100
AcDbLine
 10
301.2734294848288
 20
198.6488083608525
 30
0.0
 11
301.5234294848287
 21
198.6488083608525
 31
0.0
  0
LINE
  5
1523
330
1B
100
AcDbEntity
  8
7_ALL_FEATURES
  6
CONTINUOUS
 62
     7
100
AcDbLine
 10
300.773429484829
 20
199.8402976996525
 30
0.0
 11
300.773429484829
 21
199.5849785811524
 31
0.0
  0
LINE
  5
1524
330
1B
100
AcDbEntity
  8
7_ALL_FEATURES
  6
CONTINUOUS
 62
     7
100
AcDbLine
 10
301.5234294848287
 20
198.6488083608525
 30
0.0
 11
301.5234294848287
 21
199.5424253947525
 31
0.0
  0
LINE
  5
1525
330
1B
100
AcDbEntity
  8
7_ALL_FEATURES
  6
CONTINUOUS
 62
     7
100
AcDbLine
 10
301.5234294848287
 20
200.4360424287525
 30
0.0
 11
301.5234294848287
 21
199.7977445132525
 31
0.0
  0
LINE
  5
1526
330
1B
100
AcDbEntity
  8
7_ALL_FEATURES
  6
CONTINUOUS
 62
     7
100
AcDbLine
 10
301.2734294848288
 20
200.6488083608524
 30
0.0
 11
301.2734294848288
 21
198.6488083608525
 31
0.0
  0
LINE
  5
1527
330
1B
100
AcDbEntity
  8
7_ALL_FEATURES
  6
CONTINUOUS
 62
     7
100
AcDbLine
 10
300.9400955157289
 20
198.9041275091525
 30
0.0
 11
300.9400955157289
 21
198.6488083608525
 31
0.0
  0
LINE
  5
1528
330
1B
100
AcDbEntity
  8
7_ALL_FEATURES
  6
CONTINUOUS
 62
     7
100
AcDbLine
 10
300.9400955157289
 20
200.6488083608524
 30
0.0
 11
300.9400955157289
 21
200.3934892423525
 31
0.0
  0
LINE
  5
1529
330
1B
100
AcDbEntity
  8
7_ALL_FEATURES
  6
CONTINUOUS
 62
     7
100
AcDbLine
 10
298.8567615466288
 20
200.2232764966525
 30
0.0
 11
298.2734294848288
 21
198.6488083608525
 31
0.0
  0
LINE
  5
152A
330
1B
100
AcDbEntity
  8
7_ALL_FEATURES
  6
CONTINUOUS
 62
     7
100
AcDbLine
 10
299.6900955157289
 20
199.5849785811524
 30
0.0
 11
299.6900955157289
 21
198.9041275091525
 31
0.0
  0
LINE
  5
152B
330
1B
100
AcDbEntity
  8
7_ALL_FEATURES
  6
CONTINUOUS
 62
     7
100
AcDbLine
 10
299.6900955157289
 20
200.3934892423525
 30
0.0
 11
299.6900955157289
 21
199.8402976996525
 31
0.0
  0
LINE
  5
152C
330
1B
100
AcDbEntity
  8
7_ALL_FEATURES
  6
CONTINUOUS
 62
     7
100
AcDbLine
 10
299.4400955157289
 20
198.6488083608525
 30
0.0
 11
299.4400955157289
 21
200.6488083608524
 31
0.0
  0
LINE
  5
152D
330
1B
100
AcDbEntity
  8
7_ALL_FEATURES
  6
CONTINUOUS
 62
     7
100
AcDbLine
 10
299.1067615466288
 20
200.6488083608524
 30
0.0
 11
299.1067615466288
 21
198.6488083608525
 31
0.0
  0
LINE
  5
152E
330
1B
100
AcDbEntity
  8
7_ALL_FEATURES
  6
CONTINUOUS
 62
     7
100
AcDbLine
 10
298.8567615466288
 20
198.6488083608525
 30
0.0
 11
298.8567615466288
 21
200.2232764966525
 31
0.0
  0
LINE
  5
152F
330
1B
100
AcDbEntity
  8
7_ALL_FEATURES
  6
CONTINUOUS
 62
     7
100
AcDbLine
 10
298.7317615466291
 20
200.6488083608524
 30
0.0
 11
299.1067615466288
 21
200.6488083608524
 31
0.0
  0
LINE
  5
1530
330
1B
100
AcDbEntity
  8
7_ALL_FEATURES
  6
CONTINUOUS
 62
     7
100
AcDbLine
 10
299.1067615466288
 20
198.6488083608525
 30
0.0
 11
298.8567615466288
 21
198.6488083608525
 31
0.0
  0
LINE
  5
1531
330
1B
100
AcDbEntity
  8
7_ALL_FEATURES
  6
CONTINUOUS
 62
     7
100
AcDbLine
 10
298.1067615466288
 20
198.8615743227524
 30
0.0
 11
298.7317615466291
 21
200.6488083608524
 31
0.0
  0
LINE
  5
1532
330
1B
100
AcDbEntity
  8
7_ALL_FEATURES
  6
CONTINUOUS
 62
     7
100
AcDbLine
 10
298.2734294848288
 20
198.6488083608525
 30
0.0
 11
297.9400955157289
 21
198.6488083608525
 31
0.0
  0
LINE
  5
1533
330
1B
100
AcDbEntity
  8
7_ALL_FEATURES
  6
CONTINUOUS
 62
     7
100
AcDbLine
 10
299.4400955157289
 20
200.6488083608524
 30
0.0
 11
300.9400955157289
 21
200.6488083608524
 31
0.0
  0
LINE
  5
1534
330
1B
100
AcDbEntity
  8
7_ALL_FEATURES
  6
CONTINUOUS
 62
     7
100
AcDbLine
 10
300.9400955157289
 20
200.3934892423525
 30
0.0
 11
299.6900955157289
 21
200.3934892423525
 31
0.0
  0
LINE
  5
1535
330
1B
100
AcDbEntity
  8
7_ALL_FEATURES
  6
CONTINUOUS
 62
     7
100
AcDbLine
 10
299.6900955157289
 20
198.9041275091525
 30
0.0
 11
300.9400955157289
 21
198.9041275091525
 31
0.0
  0
LINE
  5
1536
330
1B
100
AcDbEntity
  8
7_ALL_FEATURES
  6
CONTINUOUS
 62
     7
100
AcDbLine
 10
300.9400955157289
 20
198.6488083608525
 30
0.0
 11
299.4400955157289
 21
198.6488083608525
 31
0.0
  0
LINE
  5
1537
330
1B
100
AcDbEntity
  8
7_ALL_FEATURES
  6
CONTINUOUS
 62
     7
100
AcDbLine
 10
299.6900955157289
 20
199.8402976996525
 30
0.0
 11
300.773429484829
 21
199.8402976996525
 31
0.0
  0
LINE
  5
1538
330
1B
100
AcDbEntity
  8
7_ALL_FEATURES
  6
CONTINUOUS
 62
     7
100
AcDbLine
 10
300.773429484829
 20
199.5849785811524
 30
0.0
 11
299.6900955157289
 21
199.5849785811524
 31
0.0
  0
LINE
  5
1539
330
1B
100
AcDbEntity
  8
7_ALL_FEATURES
  6
CONTINUOUS
 62
     7
100
AcDbLine
 10
304.8567615466288
 20
198.6488083608525
 30
0.0
 11
304.6067615466288
 21
198.6488083608525
 31
0.0
  0
LINE
  5
153A
330
1B
100
AcDbEntity
  8
7_ALL_FEATURES
  6
CONTINUOUS
 62
     7
100
AcDbLine
 10
304.6067615466288
 20
198.6488083608525
 30
0.0
 11
304.4400955157289
 21
199.1594466574525
 31
0.0
  0
LINE
  5
153B
330
1B
100
AcDbEntity
  8
7_ALL_FEATURES
  6
CONTINUOUS
 62
     7
100
AcDbLine
 10
304.1900955157289
 20
200.6488083608524
 30
0.0
 11
304.8567615466288
 21
198.6488083608525
 31
0.0
  0
LINE
  5
153C
330
1B
100
AcDbEntity
  8
7_ALL_FEATURES
  6
CONTINUOUS
 62
     7
100
AcDbLine
 10
302.5650955157289
 20
198.6488083608525
 30
0.0
 11
302.8567615466288
 21
198.6488083608525
 31
0.0
  0
LINE
  5
153D
330
1B
100
AcDbEntity
  8
7_ALL_FEATURES
  6
CONTINUOUS
 62
     7
100
AcDbLine
 10
303.4400955157289
 20
198.6488083608525
 30
0.0
 11
303.1900955157289
 21
198.6488083608525
 31
0.0
  0
LINE
  5
153E
330
1B
100
AcDbEntity
  8
7_ALL_FEATURES
  6
CONTINUOUS
 62
     7
100
AcDbLine
 10
302.3150955157289
 20
199.7977445132525
 30
0.0
 11
302.4400955157289
 21
199.8402976996525
 31
0.0
  0
LINE
  5
153F
330
1B
100
AcDbEntity
  8
7_ALL_FEATURES
  6
CONTINUOUS
 62
     7
100
AcDbLine
 10
302.4817615466289
 20
199.6275317676525
 30
0.0
 11
302.6484294848287
 21
199.7126381404524
 31
0.0
  0
LINE
  5
1540
330
1B
100
AcDbEntity
  8
7_ALL_FEATURES
  6
CONTINUOUS
 62
     7
100
AcDbLine
 10
302.4400955157289
 20
199.8402976996525
 30
0.0
 11
302.5234294848288
 21
199.9254040725525
 31
0.0
  0
LINE
  5
1541
330
1B
100
AcDbEntity
  8
7_ALL_FEATURES
  6
CONTINUOUS
 62
     7
100
AcDbLine
 10
302.6484294848287
 20
199.7126381404524
 30
0.0
 11
302.7734294848288
 21
199.8828508861525
 31
0.0
  0
LINE
  5
1542
330
1B
100
AcDbEntity
  8
7_ALL_FEATURES
  6
CONTINUOUS
 62
     7
100
AcDbLine
 10
303.1900955157289
 20
198.6488083608525
 30
0.0
 11
303.8567615466291
 21
200.6488083608524
 31
0.0
  0
LINE
  5
1543
330
1B
100
AcDbEntity
  8
7_ALL_FEATURES
  6
CONTINUOUS
 62
     7
100
AcDbLine
 10
303.6067615466289
 20
199.1594466574525
 30
0.0
 11
303.4400955157289
 21
198.6488083608525
 31
0.0
  0
LINE
  5
1544
330
1B
100
AcDbEntity
  8
7_ALL_FEATURES
  6
CONTINUOUS
 62
     7
100
AcDbLine
 10
303.6484294848288
 20
199.3296594030526
 30
0.0
 11
304.0234294848287
 21
200.4785956151525
 31
0.0
  0
LINE
  5
1545
330
1B
100
AcDbEntity
  8
7_ALL_FEATURES
  6
CONTINUOUS
 62
     7
100
AcDbLine
 10
302.7734294848288
 20
199.8828508861525
 30
0.0
 11
302.8150955157289
 21
200.0105104453524
 31
0.0
  0
LINE
  5
1546
330
1B
100
AcDbEntity
  8
7_ALL_FEATURES
  6
CONTINUOUS
 62
     7
100
AcDbLine
 10
302.5234294848288
 20
199.9254040725525
 30
0.0
 11
302.5650955157289
 21
200.0530636317525
 31
0.0
  0
LINE
  5
1547
330
1B
100
AcDbEntity
  8
7_ALL_FEATURES
  6
CONTINUOUS
 62
     7
100
AcDbLine
 10
302.8150955157289
 20
200.0105104453524
 30
0.0
 11
302.8150955157289
 21
200.1807233102523
 31
0.0
  0
LINE
  5
1548
330
1B
100
AcDbEntity
  8
7_ALL_FEATURES
  6
CONTINUOUS
 62
     7
100
AcDbLine
 10
302.8150955157289
 20
200.1807233102523
 30
0.0
 11
302.7734294848288
 21
200.3083828694525
 31
0.0
  0
LINE
  5
1549
330
1B
100
AcDbEntity
  8
7_ALL_FEATURES
  6
CONTINUOUS
 62
     7
100
AcDbLine
 10
302.5650955157289
 20
200.0530636317525
 30
0.0
 11
302.5650955157289
 21
200.1807233102523
 31
0.0
  0
LINE
  5
154A
330
1B
100
AcDbEntity
  8
7_ALL_FEATURES
  6
CONTINUOUS
 62
     7
100
AcDbLine
 10
302.5650955157289
 20
200.1807233102523
 30
0.0
 11
302.5234294848288
 21
200.3083828694525
 31
0.0
  0
LINE
  5
154B
330
1B
100
AcDbEntity
  8
7_ALL_FEATURES
  6
CONTINUOUS
 62
     7
100
AcDbLine
 10
302.8567615466288
 20
198.6488083608525
 30
0.0
 11
302.4817615466289
 21
199.6275317676525
 31
0.0
  0
LINE
  5
154C
330
1B
100
AcDbEntity
  8
7_ALL_FEATURES
  6
CONTINUOUS
 62
     7
100
AcDbLine
 10
302.7734294848288
 20
200.3083828694525
 30
0.0
 11
302.6484294848287
 21
200.4785956151525
 31
0.0
  0
LINE
  5
154D
330
1B
100
AcDbEntity
  8
7_ALL_FEATURES
  6
CONTINUOUS
 62
     7
100
AcDbLine
 10
302.5234294848288
 20
200.3083828694525
 30
0.0
 11
302.4400955157289
 21
200.3934892423525
 31
0.0
  0
LINE
  5
154E
330
1B
100
AcDbEntity
  8
7_ALL_FEATURES
  6
CONTINUOUS
 62
     7
100
AcDbLine
 10
302.6484294848287
 20
200.4785956151525
 30
0.0
 11
302.4817615466289
 21
200.6062551744525
 31
0.0
  0
LINE
  5
154F
330
1B
100
AcDbEntity
  8
7_ALL_FEATURES
  6
CONTINUOUS
 62
     7
100
AcDbLine
 10
302.4400955157289
 20
200.3934892423525
 30
0.0
 11
302.3150955157289
 21
200.4360424287525
 31
0.0
  0
LINE
  5
1550
330
1B
100
AcDbEntity
  8
7_ALL_FEATURES
  6
CONTINUOUS
 62
     7
100
AcDbLine
 10
302.4817615466289
 20
200.6062551744525
 30
0.0
 11
302.2734294848287
 21
200.6488083608524
 31
0.0
  0
LINE
  5
1551
330
1B
100
AcDbEntity
  8
7_ALL_FEATURES
  6
CONTINUOUS
 62
     7
100
AcDbLine
 10
302.2317615466288
 20
199.5424253947525
 30
0.0
 11
302.5650955157289
 21
198.6488083608525
 31
0.0
  0
LINE
  5
1552
330
1B
100
AcDbEntity
  8
7_ALL_FEATURES
  6
CONTINUOUS
 62
     7
100
AcDbLine
 10
303.8567615466291
 20
200.6488083608524
 30
0.0
 11
304.1900955157289
 21
200.6488083608524
 31
0.0
  0
LINE
  5
1553
330
1B
100
AcDbEntity
  8
7_ALL_FEATURES
  6
CONTINUOUS
 62
     7
100
AcDbLine
 10
304.3984294848288
 20
199.3296594030526
 30
0.0
 11
303.6484294848288
 21
199.3296594030526
 31
0.0
  0
LINE
  5
1554
330
1B
100
AcDbEntity
  8
7_ALL_FEATURES
  6
CONTINUOUS
 62
     7
100
AcDbLine
 10
304.4400955157289
 20
199.1594466574525
 30
0.0
 11
303.6067615466289
 21
199.1594466574525
 31
0.0
  0
LINE
  5
1555
330
1B
100
AcDbEntity
  8
7_ALL_FEATURES
  6
CONTINUOUS
 62
     7
100
AcDbLine
 10
304.0234294848287
 20
200.4785956151525
 30
0.0
 11
304.3984294848288
 21
199.3296594030526
 31
0.0
  0
LINE
  5
1556
330
1B
100
AcDbEntity
  8
0
  6
CONTINUOUS
 62
     7
100
AcDbLine
 10
331.0400955157291
 20
145.3223008659523
 30
0.0
 11
338.318626360729
 21
145.1317058280525
 31
0.0
  0
LINE
  5
1557
330
1B
100
AcDbEntity
  8
7_ALL_FEATURES
  6
CONTINUOUS
 62
     7
100
AcDbLine
 10
322.065095992629
 20
199.0317870832525
 30
0.0
 11
322.3775955157289
 21
198.9679573036524
 31
0.0
  0
LINE
  5
1558
330
1B
100
AcDbEntity
  8
7_ALL_FEATURES
  6
CONTINUOUS
 62
     7
100
AcDbLine
 10
322.0025955157289
 20
198.7126381460525
 30
0.0
 11
322.3775955157289
 21
198.6488083608525
 31
0.0
  0
LINE
  5
1559
330
1B
100
AcDbEntity
  8
7_ALL_FEATURES
  6
CONTINUOUS
 62
     7
100
AcDbLine
 10
322.3775955157289
 20
201.3296594626524
 30
0.0
 11
322.065095992629
 21
201.2658296830525
 31
0.0
  0
LINE
  5
155A
330
1B
100
AcDbEntity
  8
7_ALL_FEATURES
  6
CONTINUOUS
 62
     7
100
AcDbLine
 10
322.3775955157289
 20
201.6488083608525
 30
0.0
 11
322.0025955157289
 21
201.5849785811524
 31
0.0
  0
LINE
  5
155B
330
1B
100
AcDbEntity
  8
7_ALL_FEATURES
  6
CONTINUOUS
 62
     7
100
AcDbLine
 10
308.8150955753288
 20
201.2019999034526
 30
0.0
 11
308.8775955157289
 21
200.8828508265525
 31
0.0
  0
LINE
  5
155C
330
1B
100
AcDbEntity
  8
7_ALL_FEATURES
  6
CONTINUOUS
 62
     7
100
AcDbLine
 10
309.7525953965289
 20
201.6488083608525
 30
0.0
 11
309.7525953965289
 21
198.6488083608525
 31
0.0
  0
LINE
  5
155D
330
1B
100
AcDbEntity
  8
7_ALL_FEATURES
  6
CONTINUOUS
 62
     7
100
AcDbLine
 10
309.3775955753288
 20
198.6488083608525
 30
0.0
 11
309.3775955753288
 21
201.6488083608525
 31
0.0
  0
LINE
  5
155E
330
1B
100
AcDbEntity
  8
7_ALL_FEATURES
  6
CONTINUOUS
 62
     7
100
AcDbLine
 10
308.4400955753288
 20
201.0743403441526
 30
0.0
 11
308.2525955753288
 21
201.2019999034526
 31
0.0
  0
LINE
  5
155F
330
1B
100
AcDbEntity
  8
7_ALL_FEATURES
  6
CONTINUOUS
 62
     7
100
AcDbLine
 10
308.8150955753288
 20
199.0956168628526
 30
0.0
 11
308.5650954561291
 21
198.8402977220524
 31
0.0
  0
LINE
  5
1560
330
1B
100
AcDbEntity
  8
7_ALL_FEATURES
  6
CONTINUOUS
 62
     7
100
AcDbLine
 10
308.4400955753288
 20
199.2232764668524
 30
0.0
 11
308.5025955157289
 21
199.4147658057525
 31
0.0
  0
LINE
  5
1561
330
1B
100
AcDbEntity
  8
7_ALL_FEATURES
  6
CONTINUOUS
 62
     7
100
AcDbLine
 10
308.8775955157289
 20
199.4147658057525
 30
0.0
 11
308.8150955753288
 21
199.0956168628526
 31
0.0
  0
LINE
  5
1562
330
1B
100
AcDbEntity
  8
7_ALL_FEATURES
  6
CONTINUOUS
 62
     7
100
AcDbLine
 10
308.5025955157289
 20
200.8828508265525
 30
0.0
 11
308.4400955753288
 21
201.0743403441526
 31
0.0
  0
LINE
  5
1563
330
1B
100
AcDbEntity
  8
7_ALL_FEATURES
  6
CONTINUOUS
 62
     7
100
AcDbLine
 10
308.8775955157289
 20
200.8828508265525
 30
0.0
 11
308.5025955157289
 21
200.8828508265525
 31
0.0
  0
LINE
  5
1564
330
1B
100
AcDbEntity
  8
7_ALL_FEATURES
  6
CONTINUOUS
 62
     7
100
AcDbLine
 10
308.5025955157289
 20
199.4147658057525
 30
0.0
 11
308.8775955157289
 21
199.4147658057525
 31
0.0
  0
LINE
  5
1565
330
1B
100
AcDbEntity
  8
7_ALL_FEATURES
  6
CONTINUOUS
 62
     7
100
AcDbLine
 10
309.7525953965289
 20
198.6488083608525
 30
0.0
 11
309.3775955753288
 21
198.6488083608525
 31
0.0
  0
LINE
  5
1566
330
1B
100
AcDbEntity
  8
7_ALL_FEATURES
  6
CONTINUOUS
 62
     7
100
AcDbLine
 10
308.5650954561291
 20
198.8402977220524
 30
0.0
 11
308.3150955157289
 21
198.7126381460525
 31
0.0
  0
LINE
  5
1567
330
1B
100
AcDbEntity
  8
7_ALL_FEATURES
  6
CONTINUOUS
 62
     7
100
AcDbLine
 10
308.2525955753288
 20
199.0956168628526
 30
0.0
 11
308.4400955753288
 21
199.2232764668524
 31
0.0
  0
LINE
  5
1568
330
1B
100
AcDbEntity
  8
7_ALL_FEATURES
  6
CONTINUOUS
 62
     7
100
AcDbLine
 10
308.5650954561291
 20
201.4573190219525
 30
0.0
 11
308.8150955753288
 21
201.2019999034526
 31
0.0
  0
LINE
  5
1569
330
1B
100
AcDbEntity
  8
7_ALL_FEATURES
  6
CONTINUOUS
 62
     7
100
AcDbLine
 10
309.3775955753288
 20
201.6488083608525
 30
0.0
 11
309.7525953965289
 21
201.6488083608525
 31
0.0
  0
LINE
  5
156A
330
1B
100
AcDbEntity
  8
7_ALL_FEATURES
  6
CONTINUOUS
 62
     7
100
AcDbLine
 10
308.3150955157289
 20
201.5849785811524
 30
0.0
 11
308.5650954561291
 21
201.4573190219525
 31
0.0
  0
LINE
  5
156B
330
1B
100
AcDbEntity
  8
7_ALL_FEATURES
  6
CONTINUOUS
 62
     7
100
AcDbLine
 10
307.1900955157289
 20
201.2019999034526
 30
0.0
 11
307.0025955157289
 21
201.0743403441526
 31
0.0
  0
LINE
  5
156C
330
1B
100
AcDbEntity
  8
7_ALL_FEATURES
  6
CONTINUOUS
 62
     7
100
AcDbLine
 10
306.5025955176289
 20
200.9466807849525
 30
0.0
 11
306.6275955157289
 21
201.2019999034526
 31
0.0
  0
LINE
  5
156D
330
1B
100
AcDbEntity
  8
7_ALL_FEATURES
  6
CONTINUOUS
 62
     2
100
AcDbLine
 10
306.4400955157289
 20
200.0639701994524
 30
0.0
 11
306.8150955157289
 21
200.4389701994525
 31
0.0
  0
LINE
  5
156E
330
1B
100
AcDbEntity
  8
7_ALL_FEATURES
  6
CONTINUOUS
 62
     7
100
AcDbLine
 10
307.0025955157289
 20
201.0743403441526
 30
0.0
 11
306.8775955008289
 21
200.8828508265525
 31
0.0
  0
LINE
  5
156F
330
1B
100
AcDbEntity
  8
7_ALL_FEATURES
  6
CONTINUOUS
 62
     7
100
AcDbLine
 10
306.8775955008289
 20
200.8828508265525
 30
0.0
 11
306.8150955157289
 21
200.6275317080525
 31
0.0
  0
LINE
  5
1570
330
1B
100
AcDbEntity
  8
7_ALL_FEATURES
  6
CONTINUOUS
 62
     7
100
AcDbLine
 10
306.4400955157289
 20
200.6275317080525
 30
0.0
 11
306.5025955176289
 21
200.9466807849525
 31
0.0
  0
LINE
  5
1571
330
1B
100
AcDbEntity
  8
7_ALL_FEATURES
  6
CONTINUOUS
 62
     7
100
AcDbLine
 10
306.5025955176289
 20
199.3509360260525
 30
0.0
 11
306.4400955157289
 21
199.6700849242525
 31
0.0
  0
LINE
  5
1572
330
1B
100
AcDbEntity
  8
7_ALL_FEATURES
  6
CONTINUOUS
 62
     7
100
AcDbLine
 10
306.8150955157289
 20
200.6275317080525
 30
0.0
 11
306.8150955157289
 21
199.6700849242525
 31
0.0
  0
LINE
  5
1573
330
1B
100
AcDbEntity
  8
7_ALL_FEATURES
  6
CONTINUOUS
 62
     7
100
AcDbLine
 10
306.4400955157289
 20
199.6700849242525
 30
0.0
 11
306.4400955157289
 21
200.6275317080525
 31
0.0
  0
LINE
  5
1574
330
1B
100
AcDbEntity
  8
7_ALL_FEATURES
  6
CONTINUOUS
 62
     7
100
AcDbLine
 10
306.8150955157289
 20
199.6700849242525
 30
0.0
 11
306.8775955008289
 21
199.4147658057525
 31
0.0
  0
LINE
  5
1575
330
1B
100
AcDbEntity
  8
7_ALL_FEATURES
  6
CONTINUOUS
 62
     7
100
AcDbLine
 10
306.6275955157289
 20
199.0956168628526
 30
0.0
 11
306.5025955176289
 21
199.3509360260525
 31
0.0
  0
LINE
  5
1576
330
1B
100
AcDbEntity
  8
7_ALL_FEATURES
  6
CONTINUOUS
 62
     7
100
AcDbLine
 10
306.8775955008289
 20
199.4147658057525
 30
0.0
 11
307.0025955157289
 21
199.2232764668524
 31
0.0
  0
LINE
  5
1577
330
1B
100
AcDbEntity
  8
7_ALL_FEATURES
  6
CONTINUOUS
 62
     7
100
AcDbLine
 10
306.8775955008289
 20
198.8402977220524
 30
0.0
 11
306.6275955157289
 21
199.0956168628526
 31
0.0
  0
LINE
  5
1578
330
1B
100
AcDbEntity
  8
7_ALL_FEATURES
  6
CONTINUOUS
 62
     7
100
AcDbLine
 10
307.0025955157289
 20
199.2232764668524
 30
0.0
 11
307.1900955157289
 21
199.0956168628526
 31
0.0
  0
LINE
  5
1579
330
1B
100
AcDbEntity
  8
7_ALL_FEATURES
  6
CONTINUOUS
 62
     7
100
AcDbLine
 10
307.127595530629
 20
198.7126381460525
 30
0.0
 11
306.8775955008289
 21
198.8402977220524
 31
0.0
  0
LINE
  5
157A
330
1B
100
AcDbEntity
  8
7_ALL_FEATURES
  6
CONTINUOUS
 62
     7
100
AcDbLine
 10
307.1900955157289
 20
199.0956168628526
 30
0.0
 11
307.440095545529
 21
199.0317870832525
 31
0.0
  0
LINE
  5
157B
330
1B
100
AcDbEntity
  8
7_ALL_FEATURES
  6
CONTINUOUS
 62
     7
100
AcDbLine
 10
307.440095545529
 20
198.6488083608525
 30
0.0
 11
307.127595530629
 21
198.7126381460525
 31
0.0
  0
LINE
  5
157C
330
1B
100
AcDbEntity
  8
7_ALL_FEATURES
  6
CONTINUOUS
 62
     7
100
AcDbLine
 10
307.440095545529
 20
199.0317870832525
 30
0.0
 11
308.002595456129
 21
199.0317870832525
 31
0.0
  0
LINE
  5
157D
330
1B
100
AcDbEntity
  8
7_ALL_FEATURES
  6
CONTINUOUS
 62
     7
100
AcDbLine
 10
308.002595456129
 20
198.6488083608525
 30
0.0
 11
307.440095545529
 21
198.6488083608525
 31
0.0
  0
LINE
  5
157E
330
1B
100
AcDbEntity
  8
7_ALL_FEATURES
  6
CONTINUOUS
 62
     7
100
AcDbLine
 10
306.6275955157289
 20
201.2019999034526
 30
0.0
 11
306.8775955008289
 21
201.4573190219525
 31
0.0
  0
LINE
  5
157F
330
1B
100
AcDbEntity
  8
7_ALL_FEATURES
  6
CONTINUOUS
 62
     7
100
AcDbLine
 10
308.002595456129
 20
201.2658296830525
 30
0.0
 11
307.440095545529
 21
201.2658296830525
 31
0.0
  0
LINE
  5
1580
330
1B
100
AcDbEntity
  8
7_ALL_FEATURES
  6
CONTINUOUS
 62
     7
100
AcDbLine
 10
307.440095545529
 20
201.2658296830525
 30
0.0
 11
307.1900955157289
 21
201.2019999034526
 31
0.0
  0
LINE
  5
1581
330
1B
100
AcDbEntity
  8
7_ALL_FEATURES
  6
CONTINUOUS
 62
     7
100
AcDbLine
 10
307.440095545529
 20
201.6488083608525
 30
0.0
 11
308.002595456129
 21
201.6488083608525
 31
0.0
  0
LINE
  5
1582
330
1B
100
AcDbEntity
  8
7_ALL_FEATURES
  6
CONTINUOUS
 62
     7
100
AcDbLine
 10
307.127595530629
 20
201.5849785811524
 30
0.0
 11
307.440095545529
 21
201.6488083608525
 31
0.0
  0
LINE
  5
1583
330
1B
100
AcDbEntity
  8
7_ALL_FEATURES
  6
CONTINUOUS
 62
     7
100
AcDbLine
 10
306.8775955008289
 20
201.4573190219525
 30
0.0
 11
307.127595530629
 21
201.5849785811524
 31
0.0
  0
LINE
  5
1584
330
1B
100
AcDbEntity
  8
7_ALL_FEATURES
  6
CONTINUOUS
 62
     2
100
AcDbLine
 10
307.6419549994289
 20
201.2658296830525
 30
0.0
 11
308.021144863229
 21
201.6450195469525
 31
0.0
  0
LINE
  5
1585
330
1B
100
AcDbEntity
  8
7_ALL_FEATURES
  6
CONTINUOUS
 62
     7
100
AcDbLine
 10
308.3150955157289
 20
198.7126381460525
 30
0.0
 11
308.002595456129
 21
198.6488083608525
 31
0.0
  0
LINE
  5
1586
330
1B
100
AcDbEntity
  8
7_ALL_FEATURES
  6
CONTINUOUS
 62
     7
100
AcDbLine
 10
308.002595456129
 20
199.0317870832525
 30
0.0
 11
308.2525955753288
 21
199.0956168628526
 31
0.0
  0
LINE
  5
1587
330
1B
100
AcDbEntity
  8
7_ALL_FEATURES
  6
CONTINUOUS
 62
     7
100
AcDbLine
 10
308.2525955753288
 20
201.2019999034526
 30
0.0
 11
308.002595456129
 21
201.2658296830525
 31
0.0
  0
LINE
  5
1588
330
1B
100
AcDbEntity
  8
7_ALL_FEATURES
  6
CONTINUOUS
 62
     7
100
AcDbLine
 10
308.002595456129
 20
201.6488083608525
 30
0.0
 11
308.3150955157289
 21
201.5849785811524
 31
0.0
  0
LINE
  5
1589
330
1B
100
AcDbEntity
  8
7_ALL_FEATURES
  6
CONTINUOUS
 62
     7
100
AcDbLine
 10
313.1275957541288
 20
200.0530636913523
 30
0.0
 11
314.002595277329
 21
200.0530636913523
 31
0.0
  0
LINE
  5
158A
330
1B
100
AcDbEntity
  8
7_ALL_FEATURES
  6
CONTINUOUS
 62
     7
100
AcDbLine
 10
314.002595277329
 20
199.7339147038524
 30
0.0
 11
313.1275957541288
 21
199.7339147038524
 31
0.0
  0
LINE
  5
158B
330
1B
100
AcDbEntity
  8
7_ALL_FEATURES
  6
CONTINUOUS
 62
     7
100
AcDbLine
 10
313.1275957541288
 20
199.7339147038524
 30
0.0
 11
313.1275957541288
 21
200.0530636913523
 31
0.0
  0
LINE
  5
158C
330
1B
100
AcDbEntity
  8
7_ALL_FEATURES
  6
CONTINUOUS
 62
     7
100
AcDbLine
 10
314.002595277329
 20
200.0530636913523
 30
0.0
 11
314.002595277329
 21
199.7339147038524
 31
0.0
  0
LINE
  5
158D
330
1B
100
AcDbEntity
  8
7_ALL_FEATURES
  6
CONTINUOUS
 62
     7
100
AcDbLine
 10
312.6275955157289
 20
201.6488083608525
 30
0.0
 11
312.6275955157289
 21
201.3296594626524
 31
0.0
  0
LINE
  5
158E
330
1B
100
AcDbEntity
  8
7_ALL_FEATURES
  6
CONTINUOUS
 62
     7
100
AcDbLine
 10
311.6275953965287
 20
201.3296594626524
 30
0.0
 11
311.6275953965287
 21
198.6488083608525
 31
0.0
  0
LINE
  5
158F
330
1B
100
AcDbEntity
  8
7_ALL_FEATURES
  6
CONTINUOUS
 62
     7
100
AcDbLine
 10
311.252595396529
 20
198.6488083608525
 30
0.0
 11
311.252595396529
 21
201.3296594626524
 31
0.0
  0
LINE
  5
1590
330
1B
100
AcDbEntity
  8
7_ALL_FEATURES
  6
CONTINUOUS
 62
     7
100
AcDbLine
 10
311.6275953965287
 20
198.6488083608525
 30
0.0
 11
311.252595396529
 21
198.6488083608525
 31
0.0
  0
LINE
  5
1591
330
1B
100
AcDbEntity
  8
7_ALL_FEATURES
  6
CONTINUOUS
 62
     7
100
AcDbLine
 10
310.2525956349291
 20
201.3296594626524
 30
0.0
 11
310.2525956349291
 21
201.6488083608525
 31
0.0
  0
LINE
  5
1592
330
1B
100
AcDbEntity
  8
7_ALL_FEATURES
  6
CONTINUOUS
 62
     7
100
AcDbLine
 10
311.252595396529
 20
201.3296594626524
 30
0.0
 11
310.2525956349291
 21
201.3296594626524
 31
0.0
  0
LINE
  5
1593
330
1B
100
AcDbEntity
  8
7_ALL_FEATURES
  6
CONTINUOUS
 62
     7
100
AcDbLine
 10
312.6275955157289
 20
201.3296594626524
 30
0.0
 11
311.6275953965287
 21
201.3296594626524
 31
0.0
  0
LINE
  5
1594
330
1B
100
AcDbEntity
  8
7_ALL_FEATURES
  6
CONTINUOUS
 62
     7
100
AcDbLine
 10
310.2525956349291
 20
201.6488083608525
 30
0.0
 11
312.6275955157289
 21
201.6488083608525
 31
0.0
  0
LINE
  5
1595
330
1B
100
AcDbEntity
  8
7_ALL_FEATURES
  6
CONTINUOUS
 62
     7
100
AcDbLine
 10
318.1900957541289
 20
198.9679573036524
 30
0.0
 11
317.940095277329
 21
199.0317870832525
 31
0.0
  0
LINE
  5
1596
330
1B
100
AcDbEntity
  8
7_ALL_FEATURES
  6
CONTINUOUS
 62
     7
100
AcDbLine
 10
317.8775955157289
 20
198.7126381460525
 30
0.0
 11
318.1900957541289
 21
198.6488083608525
 31
0.0
  0
LINE
  5
1597
330
1B
100
AcDbEntity
  8
7_ALL_FEATURES
  6
CONTINUOUS
 62
     7
100
AcDbLine
 10
318.1900957541289
 20
200.5637019283525
 30
0.0
 11
317.8775955157289
 21
200.4998721487525
 31
0.0
  0
LINE
  5
1598
330
1B
100
AcDbEntity
  8
7_ALL_FEATURES
  6
CONTINUOUS
 62
     7
100
AcDbLine
 10
317.940095277329
 20
200.1807232506525
 30
0.0
 11
318.1900957541289
 21
200.2445530302524
 31
0.0
  0
LINE
  5
1599
330
1B
100
AcDbEntity
  8
7_ALL_FEATURES
  6
CONTINUOUS
 62
     7
100
AcDbLine
 10
319.3775955157289
 20
201.6488083608525
 30
0.0
 11
317.2525957541289
 21
201.6488083608525
 31
0.0
  0
LINE
  5
159A
330
1B
100
AcDbEntity
  8
7_ALL_FEATURES
  6
CONTINUOUS
 62
     7
100
AcDbLine
 10
317.565095277329
 20
201.3296594626524
 30
0.0
 11
319.3775955157289
 21
201.3296594626524
 31
0.0
  0
LINE
  5
159B
330
1B
100
AcDbEntity
  8
7_ALL_FEATURES
  6
CONTINUOUS
 62
     7
100
AcDbLine
 10
317.2525957541289
 20
201.6488083608525
 30
0.0
 11
317.2525957541289
 21
199.9892339117524
 31
0.0
  0
LINE
  5
159C
330
1B
100
AcDbEntity
  8
7_ALL_FEATURES
  6
CONTINUOUS
 62
     7
100
AcDbLine
 10
316.6900957541288
 20
200.8190210468525
 30
0.0
 11
316.5650955157289
 21
201.1381701238524
 31
0.0
  0
LINE
  5
159D
330
1B
100
AcDbEntity
  8
7_ALL_FEATURES
  6
CONTINUOUS
 62
     7
100
AcDbLine
 10
317.565095277329
 20
200.3083828098525
 30
0.0
 11
317.565095277329
 21
201.3296594626524
 31
0.0
  0
LINE
  5
159E
330
1B
100
AcDbEntity
  8
7_ALL_FEATURES
  6
CONTINUOUS
 62
     7
100
AcDbLine
 10
317.2525957541289
 20
199.4147658057525
 30
0.0
 11
317.377595277329
 21
199.1594466425525
 31
0.0
  0
LINE
  5
159F
330
1B
100
AcDbEntity
  8
7_ALL_FEATURES
  6
CONTINUOUS
 62
     7
100
AcDbLine
 10
317.2525957541289
 20
199.9892339117524
 30
0.0
 11
317.6900955157289
 21
199.9892339117524
 31
0.0
  0
LINE
  5
15A0
330
1B
100
AcDbEntity
  8
7_ALL_FEATURES
  6
CONTINUOUS
 62
     7
100
AcDbLine
 10
317.6275957541288
 20
199.4147658057525
 30
0.0
 11
317.2525957541289
 21
199.4147658057525
 31
0.0
  0
LINE
  5
15A1
330
1B
100
AcDbEntity
  8
7_ALL_FEATURES
  6
CONTINUOUS
 62
     7
100
AcDbLine
 10
316.5650955157289
 20
199.1594466425525
 30
0.0
 11
316.6900957541288
 21
199.4785955853524
 31
0.0
  0
LINE
  5
15A2
330
1B
100
AcDbEntity
  8
7_ALL_FEATURES
  6
CONTINUOUS
 62
     7
100
AcDbLine
 10
316.7525955157289
 20
200.3722125895525
 30
0.0
 11
316.6900957541288
 21
200.8190210468525
 31
0.0
  0
LINE
  5
15A3
330
1B
100
AcDbEntity
  8
7_ALL_FEATURES
  6
CONTINUOUS
 62
     7
100
AcDbLine
 10
316.6900957541288
 20
199.4785955853524
 30
0.0
 11
316.7525955157289
 21
199.9254041321525
 31
0.0
  0
LINE
  5
15A4
330
1B
100
AcDbEntity
  8
7_ALL_FEATURES
  6
CONTINUOUS
 62
     7
100
AcDbLine
 10
316.7525955157289
 20
199.9254041321525
 30
0.0
 11
316.7525955157289
 21
200.3722125895525
 31
0.0
  0
LINE
  5
15A5
330
1B
100
AcDbEntity
  8
7_ALL_FEATURES
  6
CONTINUOUS
 62
     7
100
AcDbLine
 10
317.6900955157289
 20
199.9892339117524
 30
0.0
 11
317.940095277329
 21
200.1807232506525
 31
0.0
  0
LINE
  5
15A6
330
1B
100
AcDbEntity
  8
7_ALL_FEATURES
  6
CONTINUOUS
 62
     2
100
AcDbLine
 10
317.3934188673289
 20
199.1378996270524
 30
0.0
 11
317.6416264640288
 21
199.3861072237525
 31
0.0
  0
LINE
  5
15A7
330
1B
100
AcDbEntity
  8
7_ALL_FEATURES
  6
CONTINUOUS
 62
     7
100
AcDbLine
 10
317.8775955157289
 20
200.4998721487525
 30
0.0
 11
317.565095277329
 21
200.3083828098525
 31
0.0
  0
LINE
  5
15A8
330
1B
100
AcDbEntity
  8
7_ALL_FEATURES
  6
CONTINUOUS
 62
     7
100
AcDbLine
 10
317.752595277329
 20
199.1594466425525
 30
0.0
 11
317.6275957541288
 21
199.4147658057525
 31
0.0
  0
LINE
  5
15A9
330
1B
100
AcDbEntity
  8
7_ALL_FEATURES
  6
CONTINUOUS
 62
     7
100
AcDbLine
 10
317.377595277329
 20
199.1594466425525
 30
0.0
 11
317.565095277329
 21
198.9041275016525
 31
0.0
  0
LINE
  5
15AA
330
1B
100
AcDbEntity
  8
7_ALL_FEATURES
  6
CONTINUOUS
 62
     7
100
AcDbLine
 10
317.940095277329
 20
199.0317870832525
 30
0.0
 11
317.752595277329
 21
199.1594466425525
 31
0.0
  0
LINE
  5
15AB
330
1B
100
AcDbEntity
  8
7_ALL_FEATURES
  6
CONTINUOUS
 62
     7
100
AcDbLine
 10
317.565095277329
 20
198.9041275016525
 30
0.0
 11
317.8775955157289
 21
198.7126381460525
 31
0.0
  0
LINE
  5
15AC
330
1B
100
AcDbEntity
  8
7_ALL_FEATURES
  6
CONTINUOUS
 62
     7
100
AcDbLine
 10
316.3775955157289
 20
199.5424253649526
 30
0.0
 11
316.3150957541288
 21
199.3509360260525
 31
0.0
  0
LINE
  5
15AD
330
1B
100
AcDbEntity
  8
7_ALL_FEATURES
  6
CONTINUOUS
 62
     7
100
AcDbLine
 10
316.3150957541288
 20
200.4360423691526
 30
0.0
 11
316.3775955157289
 21
200.6275317080525
 31
0.0
  0
LINE
  5
15AE
330
1B
100
AcDbEntity
  8
7_ALL_FEATURES
  6
CONTINUOUS
 62
     7
100
AcDbLine
 10
316.440095277329
 20
199.9254041321525
 30
0.0
 11
316.3775955157289
 21
199.5424253649526
 31
0.0
  0
LINE
  5
15AF
330
1B
100
AcDbEntity
  8
7_ALL_FEATURES
  6
CONTINUOUS
 62
     7
100
AcDbLine
 10
316.440095277329
 20
200.0530636913523
 30
0.0
 11
316.440095277329
 21
199.9254041321525
 31
0.0
  0
LINE
  5
15B0
330
1B
100
AcDbEntity
  8
7_ALL_FEATURES
  6
CONTINUOUS
 62
     7
100
AcDbLine
 10
316.3775955157289
 20
200.6275317080525
 30
0.0
 11
316.3775955157289
 21
200.7551912672524
 31
0.0
  0
LINE
  5
15B1
330
1B
100
AcDbEntity
  8
7_ALL_FEATURES
  6
CONTINUOUS
 62
     7
100
AcDbLine
 10
316.3775955157289
 20
200.7551912672524
 30
0.0
 11
316.3150957541288
 21
200.9466807849525
 31
0.0
  0
LINE
  5
15B2
330
1B
100
AcDbEntity
  8
7_ALL_FEATURES
  6
CONTINUOUS
 62
     7
100
AcDbLine
 10
316.3775955157289
 20
198.9041275016525
 30
0.0
 11
316.5650955157289
 21
199.1594466425525
 31
0.0
  0
LINE
  5
15B3
330
1B
100
AcDbEntity
  8
7_ALL_FEATURES
  6
CONTINUOUS
 62
     7
100
AcDbLine
 10
316.5650955157289
 20
201.1381701238524
 30
0.0
 11
316.3775955157289
 21
201.3934892423525
 31
0.0
  0
LINE
  5
15B4
330
1B
100
AcDbEntity
  8
7_ALL_FEATURES
  6
CONTINUOUS
 62
     7
100
AcDbLine
 10
315.0025957541288
 20
201.1381701238524
 30
0.0
 11
314.8775955157289
 21
200.9466807849525
 31
0.0
  0
LINE
  5
15B5
330
1B
100
AcDbEntity
  8
7_ALL_FEATURES
  6
CONTINUOUS
 62
     7
100
AcDbLine
 10
314.6275957541289
 20
201.1381701238524
 30
0.0
 11
314.5025955157289
 21
200.8190210468525
 31
0.0
  0
LINE
  5
15B6
330
1B
100
AcDbEntity
  8
7_ALL_FEATURES
  6
CONTINUOUS
 62
     7
100
AcDbLine
 10
316.0025955157289
 20
199.0317870832525
 30
0.0
 11
315.8150955157289
 21
198.9679573036524
 31
0.0
  0
LINE
  5
15B7
330
1B
100
AcDbEntity
  8
7_ALL_FEATURES
  6
CONTINUOUS
 62
     7
100
AcDbLine
 10
315.8150955157289
 20
200.0530636913523
 30
0.0
 11
316.0025955157289
 21
200.1168934710525
 31
0.0
  0
LINE
  5
15B8
330
1B
100
AcDbEntity
  8
7_ALL_FEATURES
  6
CONTINUOUS
 62
     7
100
AcDbLine
 10
316.1900955157289
 20
199.1594466425525
 30
0.0
 11
316.0025955157289
 21
199.0317870832525
 31
0.0
  0
LINE
  5
15B9
330
1B
100
AcDbEntity
  8
7_ALL_FEATURES
  6
CONTINUOUS
 62
     7
100
AcDbLine
 10
316.0025955157289
 20
200.1168934710525
 30
0.0
 11
316.1900955157289
 21
200.2445530302524
 31
0.0
  0
LINE
  5
15BA
330
1B
100
AcDbEntity
  8
7_ALL_FEATURES
  6
CONTINUOUS
 62
     7
100
AcDbLine
 10
314.8775955157289
 20
200.9466807849525
 30
0.0
 11
314.8150957541289
 21
200.7551912672524
 31
0.0
  0
LINE
  5
15BB
330
1B
100
AcDbEntity
  8
7_ALL_FEATURES
  6
CONTINUOUS
 62
     7
100
AcDbLine
 10
314.8150957541289
 20
200.7551912672524
 30
0.0
 11
314.8150957541289
 21
200.6275317080525
 31
0.0
  0
LINE
  5
15BC
330
1B
100
AcDbEntity
  8
7_ALL_FEATURES
  6
CONTINUOUS
 62
     7
100
AcDbLine
 10
314.5025955157289
 20
200.8190210468525
 30
0.0
 11
314.5025955157289
 21
200.5637019283525
 31
0.0
  0
LINE
  5
15BD
330
1B
100
AcDbEntity
  8
7_ALL_FEATURES
  6
CONTINUOUS
 62
     7
100
AcDbLine
 10
314.8150957541289
 20
200.6275317080525
 30
0.0
 11
314.8775955157289
 21
200.4360423691526
 31
0.0
  0
LINE
  5
15BE
330
1B
100
AcDbEntity
  8
7_ALL_FEATURES
  6
CONTINUOUS
 62
     7
100
AcDbLine
 10
314.6275957541289
 20
199.3509360260525
 30
0.0
 11
314.6900955157289
 21
199.1594466425525
 31
0.0
  0
LINE
  5
15BF
330
1B
100
AcDbEntity
  8
7_ALL_FEATURES
  6
CONTINUOUS
 62
     7
100
AcDbLine
 10
314.5025955157289
 20
200.5637019283525
 30
0.0
 11
314.6275957541289
 21
200.2445530302524
 31
0.0
  0
LINE
  5
15C0
330
1B
100
AcDbEntity
  8
7_ALL_FEATURES
  6
CONTINUOUS
 62
     7
100
AcDbLine
 10
314.8775955157289
 20
200.4360423691526
 30
0.0
 11
315.0025957541288
 21
200.2445530302524
 31
0.0
  0
LINE
  5
15C1
330
1B
100
AcDbEntity
  8
7_ALL_FEATURES
  6
CONTINUOUS
 62
     7
100
AcDbLine
 10
315.0650955157289
 20
199.1594466425525
 30
0.0
 11
314.940095277329
 21
199.3509360260525
 31
0.0
  0
LINE
  5
15C2
330
1B
100
AcDbEntity
  8
7_ALL_FEATURES
  6
CONTINUOUS
 62
     7
100
AcDbLine
 10
314.6275957541289
 20
200.2445530302524
 30
0.0
 11
314.8150957541289
 21
199.9892339117524
 31
0.0
  0
LINE
  5
15C3
330
1B
100
AcDbEntity
  8
7_ALL_FEATURES
  6
CONTINUOUS
 62
     7
100
AcDbLine
 10
314.6900955157289
 20
199.1594466425525
 30
0.0
 11
314.8775955157289
 21
198.9041275016525
 31
0.0
  0
LINE
  5
15C4
330
1B
100
AcDbEntity
  8
7_ALL_FEATURES
  6
CONTINUOUS
 62
     7
100
AcDbLine
 10
315.0025957541288
 20
200.2445530302524
 30
0.0
 11
315.1900957541288
 21
200.1168934710525
 31
0.0
  0
LINE
  5
15C5
330
1B
100
AcDbEntity
  8
7_ALL_FEATURES
  6
CONTINUOUS
 62
     7
100
AcDbLine
 10
315.2525955157289
 20
199.0317870832525
 30
0.0
 11
315.0650955157289
 21
199.1594466425525
 31
0.0
  0
LINE
  5
15C6
330
1B
100
AcDbEntity
  8
7_ALL_FEATURES
  6
CONTINUOUS
 62
     7
100
AcDbLine
 10
314.8150957541289
 20
199.9892339117524
 30
0.0
 11
315.127595277329
 21
199.7977445728525
 31
0.0
  0
LINE
  5
15C7
330
1B
100
AcDbEntity
  8
7_ALL_FEATURES
  6
CONTINUOUS
 62
     7
100
AcDbLine
 10
314.8775955157289
 20
198.9041275016525
 30
0.0
 11
315.1900957541288
 21
198.7126381460525
 31
0.0
  0
LINE
  5
15C8
330
1B
100
AcDbEntity
  8
7_ALL_FEATURES
  6
CONTINUOUS
 62
     7
100
AcDbLine
 10
315.1900957541288
 20
200.1168934710525
 30
0.0
 11
315.3775957541288
 21
200.0530636913523
 31
0.0
  0
LINE
  5
15C9
330
1B
100
AcDbEntity
  8
7_ALL_FEATURES
  6
CONTINUOUS
 62
     7
100
AcDbLine
 10
315.4400955157289
 20
198.9679573036524
 30
0.0
 11
315.2525955157289
 21
199.0317870832525
 31
0.0
  0
LINE
  5
15CA
330
1B
100
AcDbEntity
  8
7_ALL_FEATURES
  6
CONTINUOUS
 62
     7
100
AcDbLine
 10
315.127595277329
 20
199.7977445728525
 30
0.0
 11
315.4400955157289
 21
199.7339147038524
 31
0.0
  0
LINE
  5
15CB
330
1B
100
AcDbEntity
  8
7_ALL_FEATURES
  6
CONTINUOUS
 62
     7
100
AcDbLine
 10
315.1900957541288
 20
198.7126381460525
 30
0.0
 11
315.502595277329
 21
198.6488083608525
 31
0.0
  0
LINE
  5
15CC
330
1B
100
AcDbEntity
  8
7_ALL_FEATURES
  6
CONTINUOUS
 62
     7
100
AcDbLine
 10
315.3775957541288
 20
200.0530636913523
 30
0.0
 11
315.8150955157289
 21
200.0530636913523
 31
0.0
  0
LINE
  5
15CD
330
1B
100
AcDbEntity
  8
7_ALL_FEATURES
  6
CONTINUOUS
 62
     7
100
AcDbLine
 10
315.4400955157289
 20
199.7339147038524
 30
0.0
 11
315.7525957541289
 21
199.7339147038524
 31
0.0
  0
LINE
  5
15CE
330
1B
100
AcDbEntity
  8
7_ALL_FEATURES
  6
CONTINUOUS
 62
     7
100
AcDbLine
 10
314.940095277329
 20
199.3509360260525
 30
0.0
 11
314.6275957541289
 21
199.3509360260525
 31
0.0
  0
LINE
  5
15CF
330
1B
100
AcDbEntity
  8
7_ALL_FEATURES
  6
CONTINUOUS
 62
     7
100
AcDbLine
 10
315.8150955157289
 20
198.9679573036524
 30
0.0
 11
315.4400955157289
 21
198.9679573036524
 31
0.0
  0
LINE
  5
15D0
330
1B
100
AcDbEntity
  8
7_ALL_FEATURES
  6
CONTINUOUS
 62
     7
100
AcDbLine
 10
315.502595277329
 20
198.6488083608525
 30
0.0
 11
315.7525957541289
 21
198.6488083608525
 31
0.0
  0
LINE
  5
15D1
330
1B
100
AcDbEntity
  8
7_ALL_FEATURES
  6
CONTINUOUS
 62
     7
100
AcDbLine
 10
315.7525957541289
 20
199.7339147038524
 30
0.0
 11
316.065095277329
 21
199.7977445728525
 31
0.0
  0
LINE
  5
15D2
330
1B
100
AcDbEntity
  8
7_ALL_FEATURES
  6
CONTINUOUS
 62
     7
100
AcDbLine
 10
315.7525957541289
 20
198.6488083608525
 30
0.0
 11
316.065095277329
 21
198.7126381460525
 31
0.0
  0
LINE
  5
15D3
330
1B
100
AcDbEntity
  8
7_ALL_FEATURES
  6
CONTINUOUS
 62
     7
100
AcDbLine
 10
315.127595277329
 20
201.5849785811524
 30
0.0
 11
314.8150957541289
 21
201.3934892423525
 31
0.0
  0
LINE
  5
15D4
330
1B
100
AcDbEntity
  8
7_ALL_FEATURES
  6
CONTINUOUS
 62
     7
100
AcDbLine
 10
315.1900957541288
 20
201.2658296830525
 30
0.0
 11
315.0025957541288
 21
201.1381701238524
 31
0.0
  0
LINE
  5
15D5
330
1B
100
AcDbEntity
  8
7_ALL_FEATURES
  6
CONTINUOUS
 62
     7
100
AcDbLine
 10
314.8150957541289
 20
201.3934892423525
 30
0.0
 11
314.6275957541289
 21
201.1381701238524
 31
0.0
  0
LINE
  5
15D6
330
1B
100
AcDbEntity
  8
7_ALL_FEATURES
  6
CONTINUOUS
 62
     7
100
AcDbLine
 10
315.3775957541288
 20
201.3296594626524
 30
0.0
 11
315.1900957541288
 21
201.2658296830525
 31
0.0
  0
LINE
  5
15D7
330
1B
100
AcDbEntity
  8
7_ALL_FEATURES
  6
CONTINUOUS
 62
     7
100
AcDbLine
 10
316.1900955157289
 20
201.1381701238524
 30
0.0
 11
316.0025955157289
 21
201.2658296830525
 31
0.0
  0
LINE
  5
15D8
330
1B
100
AcDbEntity
  8
7_ALL_FEATURES
  6
CONTINUOUS
 62
     7
100
AcDbLine
 10
316.0025955157289
 20
201.2658296830525
 30
0.0
 11
315.8150955157289
 21
201.3296594626524
 31
0.0
  0
LINE
  5
15D9
330
1B
100
AcDbEntity
  8
7_ALL_FEATURES
  6
CONTINUOUS
 62
     7
100
AcDbLine
 10
315.8150955157289
 20
201.3296594626524
 30
0.0
 11
315.3775957541288
 21
201.3296594626524
 31
0.0
  0
LINE
  5
15DA
330
1B
100
AcDbEntity
  8
7_ALL_FEATURES
  6
CONTINUOUS
 62
     7
100
AcDbLine
 10
316.065095277329
 20
201.5849785811524
 30
0.0
 11
315.7525957541289
 21
201.6488083608525
 31
0.0
  0
LINE
  5
15DB
330
1B
100
AcDbEntity
  8
7_ALL_FEATURES
  6
CONTINUOUS
 62
     7
100
AcDbLine
 10
315.7525957541289
 20
201.6488083608525
 30
0.0
 11
315.4400955157289
 21
201.6488083608525
 31
0.0
  0
LINE
  5
15DC
330
1B
100
AcDbEntity
  8
7_ALL_FEATURES
  6
CONTINUOUS
 62
     7
100
AcDbLine
 10
315.4400955157289
 20
201.6488083608525
 30
0.0
 11
315.127595277329
 21
201.5849785811524
 31
0.0
  0
LINE
  5
15DD
330
1B
100
AcDbEntity
  8
7_ALL_FEATURES
  6
CONTINUOUS
 62
     7
100
AcDbLine
 10
316.3150957541288
 20
200.9466807849525
 30
0.0
 11
316.1900955157289
 21
201.1381701238524
 31
0.0
  0
LINE
  5
15DE
330
1B
100
AcDbEntity
  8
7_ALL_FEATURES
  6
CONTINUOUS
 62
     7
100
AcDbLine
 10
316.3150957541288
 20
199.3509360260525
 30
0.0
 11
316.1900955157289
 21
199.1594466425525
 31
0.0
  0
LINE
  5
15DF
330
1B
100
AcDbEntity
  8
7_ALL_FEATURES
  6
CONTINUOUS
 62
     7
100
AcDbLine
 10
316.1900955157289
 20
200.2445530302524
 30
0.0
 11
316.3150957541288
 21
200.4360423691526
 31
0.0
  0
LINE
  5
15E0
330
1B
100
AcDbEntity
  8
7_ALL_FEATURES
  6
CONTINUOUS
 62
     7
100
AcDbLine
 10
316.065095277329
 20
198.7126381460525
 30
0.0
 11
316.3775955157289
 21
198.9041275016525
 31
0.0
  0
LINE
  5
15E1
330
1B
100
AcDbEntity
  8
7_ALL_FEATURES
  6
CONTINUOUS
 62
     7
100
AcDbLine
 10
316.065095277329
 20
199.7977445728525
 30
0.0
 11
316.440095277329
 21
200.0530636913523
 31
0.0
  0
LINE
  5
15E2
330
1B
100
AcDbEntity
  8
7_ALL_FEATURES
  6
CONTINUOUS
 62
     7
100
AcDbLine
 10
316.3775955157289
 20
201.3934892423525
 30
0.0
 11
316.065095277329
 21
201.5849785811524
 31
0.0
  0
LINE
  5
15E3
330
1B
100
AcDbEntity
  8
7_ALL_FEATURES
  6
CONTINUOUS
 62
     7
100
AcDbLine
 10
320.752595992629
 20
201.6488083608525
 30
0.0
 11
320.752595992629
 21
198.6488083608525
 31
0.0
  0
LINE
  5
15E4
330
1B
100
AcDbEntity
  8
7_ALL_FEATURES
  6
CONTINUOUS
 62
     7
100
AcDbLine
 10
321.5025959926291
 20
201.2019999034526
 30
0.0
 11
321.377595038929
 21
200.9466807849525
 31
0.0
  0
LINE
  5
15E5
330
1B
100
AcDbEntity
  8
7_ALL_FEATURES
  6
CONTINUOUS
 62
     7
100
AcDbLine
 10
321.877595992629
 20
201.1381701238524
 30
0.0
 11
321.6275955157289
 21
200.7551912672524
 31
0.0
  0
LINE
  5
15E6
330
1B
100
AcDbEntity
  8
7_ALL_FEATURES
  6
CONTINUOUS
 62
     7
100
AcDbLine
 10
320.3775959926291
 20
198.6488083608525
 30
0.0
 11
320.3775959926291
 21
201.1381701238524
 31
0.0
  0
LINE
  5
15E7
330
1B
100
AcDbEntity
  8
7_ALL_FEATURES
  6
CONTINUOUS
 62
     7
100
AcDbLine
 10
321.377595038929
 20
199.3509360260525
 30
0.0
 11
321.5025959926291
 21
199.0956168628526
 31
0.0
  0
LINE
  5
15E8
330
1B
100
AcDbEntity
  8
7_ALL_FEATURES
  6
CONTINUOUS
 62
     7
100
AcDbLine
 10
321.377595038929
 20
200.9466807849525
 30
0.0
 11
321.3150959926291
 21
200.7551912672524
 31
0.0
  0
LINE
  5
15E9
330
1B
100
AcDbEntity
  8
7_ALL_FEATURES
  6
CONTINUOUS
 62
     7
100
AcDbLine
 10
321.3150959926291
 20
200.7551912672524
 30
0.0
 11
321.2525955157289
 21
200.4360423691526
 31
0.0
  0
LINE
  5
15EA
330
1B
100
AcDbEntity
  8
7_ALL_FEATURES
  6
CONTINUOUS
 62
     7
100
AcDbLine
 10
321.2525955157289
 20
200.4360423691526
 30
0.0
 11
321.2525955157289
 21
199.8615743525526
 31
0.0
  0
LINE
  5
15EB
330
1B
100
AcDbEntity
  8
7_ALL_FEATURES
  6
CONTINUOUS
 62
     7
100
AcDbLine
 10
321.2525955157289
 20
199.8615743525526
 30
0.0
 11
321.3150959926291
 21
199.5424253649526
 31
0.0
  0
LINE
  5
15EC
330
1B
100
AcDbEntity
  8
7_ALL_FEATURES
  6
CONTINUOUS
 62
     7
100
AcDbLine
 10
321.3150959926291
 20
199.5424253649526
 30
0.0
 11
321.377595038929
 21
199.3509360260525
 31
0.0
  0
LINE
  5
15ED
330
1B
100
AcDbEntity
  8
7_ALL_FEATURES
  6
CONTINUOUS
 62
     7
100
AcDbLine
 10
321.6275955157289
 20
200.7551912672524
 30
0.0
 11
321.5650950389288
 21
200.3722125895525
 31
0.0
  0
LINE
  5
15EE
330
1B
100
AcDbEntity
  8
7_ALL_FEATURES
  6
CONTINUOUS
 62
     7
100
AcDbLine
 10
321.5650950389288
 20
200.3722125895525
 30
0.0
 11
321.5650950389288
 21
199.9254041321525
 31
0.0
  0
LINE
  5
15EF
330
1B
100
AcDbEntity
  8
7_ALL_FEATURES
  6
CONTINUOUS
 62
     7
100
AcDbLine
 10
321.5650950389288
 20
199.9254041321525
 30
0.0
 11
321.6275955157289
 21
199.5424253649526
 31
0.0
  0
LINE
  5
15F0
330
1B
100
AcDbEntity
  8
7_ALL_FEATURES
  6
CONTINUOUS
 62
     7
100
AcDbLine
 10
321.6275955157289
 20
199.5424253649526
 30
0.0
 11
321.877595992629
 21
199.1594466425525
 31
0.0
  0
LINE
  5
15F1
330
1B
100
AcDbEntity
  8
7_ALL_FEATURES
  6
CONTINUOUS
 62
     7
100
AcDbLine
 10
321.5025959926291
 20
199.0956168628526
 30
0.0
 11
321.6900959926291
 21
198.9041275016525
 31
0.0
  0
LINE
  5
15F2
330
1B
100
AcDbEntity
  8
7_ALL_FEATURES
  6
CONTINUOUS
 62
     7
100
AcDbLine
 10
321.877595992629
 20
199.1594466425525
 30
0.0
 11
322.065095992629
 21
199.0317870832525
 31
0.0
  0
LINE
  5
15F3
330
1B
100
AcDbEntity
  8
7_ALL_FEATURES
  6
CONTINUOUS
 62
     7
100
AcDbLine
 10
321.6900959926291
 20
198.9041275016525
 30
0.0
 11
322.0025955157289
 21
198.7126381460525
 31
0.0
  0
LINE
  5
15F4
330
1B
100
AcDbEntity
  8
7_ALL_FEATURES
  6
CONTINUOUS
 62
     7
100
AcDbLine
 10
320.752595992629
 20
198.6488083608525
 30
0.0
 11
320.3775959926291
 21
198.6488083608525
 31
0.0
  0
LINE
  5
15F5
330
1B
100
AcDbEntity
  8
7_ALL_FEATURES
  6
CONTINUOUS
 62
     7
100
AcDbLine
 10
322.0025955157289
 20
201.5849785811524
 30
0.0
 11
321.6900959926291
 21
201.3934892423525
 31
0.0
  0
LINE
  5
15F6
330
1B
100
AcDbEntity
  8
7_ALL_FEATURES
  6
CONTINUOUS
 62
     7
100
AcDbLine
 10
322.065095992629
 20
201.2658296830525
 30
0.0
 11
321.877595992629
 21
201.1381701238524
 31
0.0
  0
LINE
  5
15F7
330
1B
100
AcDbEntity
  8
7_ALL_FEATURES
  6
CONTINUOUS
 62
     7
100
AcDbLine
 10
321.6900959926291
 20
201.3934892423525
 30
0.0
 11
321.5025959926291
 21
201.2019999034526
 31
0.0
  0
LINE
  5
15F8
330
1B
100
AcDbEntity
  8
7_ALL_FEATURES
  6
CONTINUOUS
 62
     7
100
AcDbLine
 10
320.3775959926291
 20
201.6488083608525
 30
0.0
 11
320.752595992629
 21
201.6488083608525
 31
0.0
  0
LINE
  5
15F9
330
1B
100
AcDbEntity
  8
7_ALL_FEATURES
  6
CONTINUOUS
 62
     7
100
AcDbLine
 10
320.0025959926291
 20
200.6913614876524
 30
0.0
 11
320.0025959926291
 21
201.2019999034526
 31
0.0
  0
LINE
  5
15FA
330
1B
100
AcDbEntity
  8
7_ALL_FEATURES
  6
CONTINUOUS
 62
     7
100
AcDbLine
 10
318.8775959926291
 20
198.7126381460525
 30
0.0
 11
319.1900955157289
 21
198.9041275016525
 31
0.0
  0
LINE
  5
15FB
330
1B
100
AcDbEntity
  8
7_ALL_FEATURES
  6
CONTINUOUS
 62
     7
100
AcDbLine
 10
319.0025955157289
 20
199.1594466425525
 30
0.0
 11
318.8150955157289
 21
199.0317870832525
 31
0.0
  0
LINE
  5
15FC
330
1B
100
AcDbEntity
  8
7_ALL_FEATURES
  6
CONTINUOUS
 62
     2
100
AcDbLine
 10
318.500072270529
 20
200.2445530302524
 30
0.0
 11
318.7761186170289
 21
200.5205993767525
 31
0.0
  0
LINE
  5
15FD
330
1B
100
AcDbEntity
  8
7_ALL_FEATURES
  6
CONTINUOUS
 62
     7
100
AcDbLine
 10
319.1900955157289
 20
198.9041275016525
 30
0.0
 11
319.3775955157289
 21
199.1594466425525
 31
0.0
  0
LINE
  5
15FE
330
1B
100
AcDbEntity
  8
7_ALL_FEATURES
  6
CONTINUOUS
 62
     7
100
AcDbLine
 10
319.1275950389288
 20
199.3509360260525
 30
0.0
 11
319.0025955157289
 21
199.1594466425525
 31
0.0
  0
LINE
  5
15FF
330
1B
100
AcDbEntity
  8
7_ALL_FEATURES
  6
CONTINUOUS
 62
     7
100
AcDbLine
 10
319.3775955157289
 20
199.1594466425525
 30
0.0
 11
319.5025950389288
 21
199.4785955853524
 31
0.0
  0
LINE
  5
1600
330
1B
100
AcDbEntity
  8
7_ALL_FEATURES
  6
CONTINUOUS
 62
     7
100
AcDbLine
 10
319.1900955157289
 20
199.5424253649526
 30
0.0
 11
319.1275950389288
 21
199.3509360260525
 31
0.0
  0
LINE
  5
1601
330
1B
100
AcDbEntity
  8
7_ALL_FEATURES
  6
CONTINUOUS
 62
     7
100
AcDbLine
 10
319.5025950389288
 20
199.4785955853524
 30
0.0
 11
319.5025950389288
 21
199.7339147038524
 31
0.0
  0
LINE
  5
1602
330
1B
100
AcDbEntity
  8
7_ALL_FEATURES
  6
CONTINUOUS
 62
     7
100
AcDbLine
 10
319.1900955157289
 20
199.6700849242525
 30
0.0
 11
319.1900955157289
 21
199.5424253649526
 31
0.0
  0
LINE
  5
1603
330
1B
100
AcDbEntity
  8
7_ALL_FEATURES
  6
CONTINUOUS
 62
     7
100
AcDbLine
 10
319.1275950389288
 20
199.8615743525526
 30
0.0
 11
319.1900955157289
 21
199.6700849242525
 31
0.0
  0
LINE
  5
1604
330
1B
100
AcDbEntity
  8
7_ALL_FEATURES
  6
CONTINUOUS
 62
     7
100
AcDbLine
 10
319.5025950389288
 20
199.7339147038524
 30
0.0
 11
319.3775955157289
 21
200.0530636913523
 31
0.0
  0
LINE
  5
1605
330
1B
100
AcDbEntity
  8
7_ALL_FEATURES
  6
CONTINUOUS
 62
     7
100
AcDbLine
 10
319.0025955157289
 20
200.0530636913523
 30
0.0
 11
319.1275950389288
 21
199.8615743525526
 31
0.0
  0
LINE
  5
1606
330
1B
100
AcDbEntity
  8
7_ALL_FEATURES
  6
CONTINUOUS
 62
     7
100
AcDbLine
 10
319.3775955157289
 20
200.0530636913523
 30
0.0
 11
319.1900955157289
 21
200.3083828098525
 31
0.0
  0
LINE
  5
1607
330
1B
100
AcDbEntity
  8
7_ALL_FEATURES
  6
CONTINUOUS
 62
     7
100
AcDbLine
 10
318.8150955157289
 20
200.1807232506525
 30
0.0
 11
319.0025955157289
 21
200.0530636913523
 31
0.0
  0
LINE
  5
1608
330
1B
100
AcDbEntity
  8
7_ALL_FEATURES
  6
CONTINUOUS
 62
     7
100
AcDbLine
 10
319.1900955157289
 20
200.3083828098525
 30
0.0
 11
318.8775959926291
 21
200.4998721487525
 31
0.0
  0
LINE
  5
1609
330
1B
100
AcDbEntity
  8
7_ALL_FEATURES
  6
CONTINUOUS
 62
     7
100
AcDbLine
 10
318.5650950389288
 20
200.2445530302524
 30
0.0
 11
318.8150955157289
 21
200.1807232506525
 31
0.0
  0
LINE
  5
160A
330
1B
100
AcDbEntity
  8
7_ALL_FEATURES
  6
CONTINUOUS
 62
     7
100
AcDbLine
 10
318.8775959926291
 20
200.4998721487525
 30
0.0
 11
318.5650950389288
 21
200.5637019283525
 31
0.0
  0
LINE
  5
160B
330
1B
100
AcDbEntity
  8
7_ALL_FEATURES
  6
CONTINUOUS
 62
     7
100
AcDbLine
 10
318.5650950389288
 20
198.6488083608525
 30
0.0
 11
318.8775959926291
 21
198.7126381460525
 31
0.0
  0
LINE
  5
160C
330
1B
100
AcDbEntity
  8
7_ALL_FEATURES
  6
CONTINUOUS
 62
     7
100
AcDbLine
 10
318.8150955157289
 20
199.0317870832525
 30
0.0
 11
318.5650950389288
 21
198.9679573036524
 31
0.0
  0
LINE
  5
160D
330
1B
100
AcDbEntity
  8
7_ALL_FEATURES
  6
CONTINUOUS
 62
     7
100
AcDbLine
 10
318.5650950389288
 20
200.5637019283525
 30
0.0
 11
318.1900957541289
 21
200.5637019283525
 31
0.0
  0
LINE
  5
160E
330
1B
100
AcDbEntity
  8
7_ALL_FEATURES
  6
CONTINUOUS
 62
     7
100
AcDbLine
 10
318.1900957541289
 20
200.2445530302524
 30
0.0
 11
318.5650950389288
 21
200.2445530302524
 31
0.0
  0
LINE
  5
160F
330
1B
100
AcDbEntity
  8
7_ALL_FEATURES
  6
CONTINUOUS
 62
     7
100
AcDbLine
 10
318.5650950389288
 20
198.9679573036524
 30
0.0
 11
318.1900957541289
 21
198.9679573036524
 31
0.0
  0
LINE
  5
1610
330
1B
100
AcDbEntity
  8
7_ALL_FEATURES
  6
CONTINUOUS
 62
     7
100
AcDbLine
 10
318.1900957541289
 20
198.6488083608525
 30
0.0
 11
318.5650950389288
 21
198.6488083608525
 31
0.0
  0
LINE
  5
1611
330
1B
100
AcDbEntity
  8
7_ALL_FEATURES
  6
CONTINUOUS
 62
     7
100
AcDbLine
 10
319.3775955157289
 20
201.3296594626524
 30
0.0
 11
319.3775955157289
 21
201.6488083608525
 31
0.0
  0
LINE
  5
1612
330
1B
100
AcDbEntity
  8
7_ALL_FEATURES
  6
CONTINUOUS
 62
     7
100
AcDbLine
 10
320.3775959926291
 20
201.1381701238524
 30
0.0
 11
320.0025959926291
 21
200.6913614876524
 31
0.0
  0
LINE
  5
1613
330
1B
100
AcDbEntity
  8
7_ALL_FEATURES
  6
CONTINUOUS
 62
     7
100
AcDbLine
 10
320.0025959926291
 20
201.2019999034526
 30
0.0
 11
320.3775959926291
 21
201.6488083608525
 31
0.0
  0
LINE
  5
1614
330
1B
100
AcDbEntity
  8
7_ALL_FEATURES
  6
CONTINUOUS
 62
     7
100
AcDbLine
 10
325.5025950389291
 20
198.9679573036524
 30
0.0
 11
326.4400950389291
 21
201.6488083608525
 31
0.0
  0
LINE
  5
1615
330
1B
100
AcDbEntity
  8
7_ALL_FEATURES
  6
CONTINUOUS
 62
     7
100
AcDbLine
 10
326.6275950389291
 20
201.0105105645524
 30
0.0
 11
325.7525955157289
 21
198.6488083608525
 31
0.0
  0
LINE
  5
1616
330
1B
100
AcDbEntity
  8
7_ALL_FEATURES
  6
CONTINUOUS
 62
     7
100
AcDbLine
 10
324.5650950389288
 20
201.6488083608525
 30
0.0
 11
325.5025950389291
 21
198.9679573036524
 31
0.0
  0
LINE
  5
1617
330
1B
100
AcDbEntity
  8
7_ALL_FEATURES
  6
CONTINUOUS
 62
     7
100
AcDbLine
 10
325.7525955157289
 20
198.6488083608525
 30
0.0
 11
325.2525959926291
 21
198.6488083608525
 31
0.0
  0
LINE
  5
1618
330
1B
100
AcDbEntity
  8
7_ALL_FEATURES
  6
CONTINUOUS
 62
     7
100
AcDbLine
 10
324.002595038929
 20
198.6488083608525
 30
0.0
 11
324.002595038929
 21
201.6488083608525
 31
0.0
  0
LINE
  5
1619
330
1B
100
AcDbEntity
  8
7_ALL_FEATURES
  6
CONTINUOUS
 62
     7
100
AcDbLine
 10
323.377595992629
 20
200.9466807849525
 30
0.0
 11
323.2525950389291
 21
201.2019999034526
 31
0.0
  0
LINE
  5
161A
330
1B
100
AcDbEntity
  8
7_ALL_FEATURES
  6
CONTINUOUS
 62
     7
100
AcDbLine
 10
323.1275955157289
 20
200.7551912672524
 30
0.0
 11
322.877595038929
 21
201.1381701238524
 31
0.0
  0
LINE
  5
161B
330
1B
100
AcDbEntity
  8
7_ALL_FEATURES
  6
CONTINUOUS
 62
     7
100
AcDbLine
 10
323.0650950389291
 20
198.9041275016525
 30
0.0
 11
323.2525950389291
 21
199.0956168628526
 31
0.0
  0
LINE
  5
161C
330
1B
100
AcDbEntity
  8
7_ALL_FEATURES
  6
CONTINUOUS
 62
     7
100
AcDbLine
 10
322.877595038929
 20
199.1594466425525
 30
0.0
 11
323.1275955157289
 21
199.5424253649526
 31
0.0
  0
LINE
  5
161D
330
1B
100
AcDbEntity
  8
7_ALL_FEATURES
  6
CONTINUOUS
 62
     7
100
AcDbLine
 10
323.2525950389291
 20
199.0956168628526
 30
0.0
 11
323.377595992629
 21
199.3509360260525
 31
0.0
  0
LINE
  5
161E
330
1B
100
AcDbEntity
  8
7_ALL_FEATURES
  6
CONTINUOUS
 62
     7
100
AcDbLine
 10
323.377595992629
 20
199.3509360260525
 30
0.0
 11
323.4400950389288
 21
199.5424253649526
 31
0.0
  0
LINE
  5
161F
330
1B
100
AcDbEntity
  8
7_ALL_FEATURES
  6
CONTINUOUS
 62
     7
100
AcDbLine
 10
323.4400950389288
 20
199.5424253649526
 30
0.0
 11
323.5025955157289
 21
199.8615743525526
 31
0.0
  0
LINE
  5
1620
330
1B
100
AcDbEntity
  8
7_ALL_FEATURES
  6
CONTINUOUS
 62
     7
100
AcDbLine
 10
323.190095992629
 20
200.3722125895525
 30
0.0
 11
323.1275955157289
 21
200.7551912672524
 31
0.0
  0
LINE
  5
1621
330
1B
100
AcDbEntity
  8
7_ALL_FEATURES
  6
CONTINUOUS
 62
     7
100
AcDbLine
 10
322.7525955157289
 20
198.7126381460525
 30
0.0
 11
323.0650950389291
 21
198.9041275016525
 31
0.0
  0
LINE
  5
1622
330
1B
100
AcDbEntity
  8
7_ALL_FEATURES
  6
CONTINUOUS
 62
     7
100
AcDbLine
 10
322.690095038929
 20
199.0317870832525
 30
0.0
 11
322.877595038929
 21
199.1594466425525
 31
0.0
  0
LINE
  5
1623
330
1B
100
AcDbEntity
  8
7_ALL_FEATURES
  6
CONTINUOUS
 62
     7
100
AcDbLine
 10
323.1275955157289
 20
199.5424253649526
 30
0.0
 11
323.190095992629
 21
199.9254041321525
 31
0.0
  0
LINE
  5
1624
330
1B
100
AcDbEntity
  8
7_ALL_FEATURES
  6
CONTINUOUS
 62
     7
100
AcDbLine
 10
324.3775950389291
 20
201.0105105645524
 30
0.0
 11
324.3775950389291
 21
198.6488083608525
 31
0.0
  0
LINE
  5
1625
330
1B
100
AcDbEntity
  8
7_ALL_FEATURES
  6
CONTINUOUS
 62
     7
100
AcDbLine
 10
323.5025955157289
 20
199.8615743525526
 30
0.0
 11
323.5025955157289
 21
200.4360423691526
 31
0.0
  0
LINE
  5
1626
330
1B
100
AcDbEntity
  8
7_ALL_FEATURES
  6
CONTINUOUS
 62
     7
100
AcDbLine
 10
323.190095992629
 20
199.9254041321525
 30
0.0
 11
323.190095992629
 21
200.3722125895525
 31
0.0
  0
LINE
  5
1627
330
1B
100
AcDbEntity
  8
7_ALL_FEATURES
  6
CONTINUOUS
 62
     7
100
AcDbLine
 10
323.5025955157289
 20
200.4360423691526
 30
0.0
 11
323.4400950389288
 21
200.7551912672524
 31
0.0
  0
LINE
  5
1628
330
1B
100
AcDbEntity
  8
7_ALL_FEATURES
  6
CONTINUOUS
 62
     7
100
AcDbLine
 10
323.4400950389288
 20
200.7551912672524
 30
0.0
 11
323.377595992629
 21
200.9466807849525
 31
0.0
  0
LINE
  5
1629
330
1B
100
AcDbEntity
  8
7_ALL_FEATURES
  6
CONTINUOUS
 62
     7
100
AcDbLine
 10
324.3775950389291
 20
198.6488083608525
 30
0.0
 11
324.002595038929
 21
198.6488083608525
 31
0.0
  0
LINE
  5
162A
330
1B
100
AcDbEntity
  8
7_ALL_FEATURES
  6
CONTINUOUS
 62
     7
100
AcDbLine
 10
322.3775955157289
 20
198.6488083608525
 30
0.0
 11
322.7525955157289
 21
198.7126381460525
 31
0.0
  0
LINE
  5
162B
330
1B
100
AcDbEntity
  8
7_ALL_FEATURES
  6
CONTINUOUS
 62
     7
100
AcDbLine
 10
322.3775955157289
 20
198.9679573036524
 30
0.0
 11
322.690095038929
 21
199.0317870832525
 31
0.0
  0
LINE
  5
162C
330
1B
100
AcDbEntity
  8
7_ALL_FEATURES
  6
CONTINUOUS
 62
     7
100
AcDbLine
 10
323.0650950389291
 20
201.3934892423525
 30
0.0
 11
322.7525955157289
 21
201.5849785811524
 31
0.0
  0
LINE
  5
162D
330
1B
100
AcDbEntity
  8
7_ALL_FEATURES
  6
CONTINUOUS
 62
     7
100
AcDbLine
 10
323.2525950389291
 20
201.2019999034526
 30
0.0
 11
323.0650950389291
 21
201.3934892423525
 31
0.0
  0
LINE
  5
162E
330
1B
100
AcDbEntity
  8
7_ALL_FEATURES
  6
CONTINUOUS
 62
     7
100
AcDbLine
 10
322.877595038929
 20
201.1381701238524
 30
0.0
 11
322.690095038929
 21
201.2658296830525
 31
0.0
  0
LINE
  5
162F
330
1B
100
AcDbEntity
  8
7_ALL_FEATURES
  6
CONTINUOUS
 62
     7
100
AcDbLine
 10
322.690095038929
 20
201.2658296830525
 30
0.0
 11
322.3775955157289
 21
201.3296594626524
 31
0.0
  0
LINE
  5
1630
330
1B
100
AcDbEntity
  8
7_ALL_FEATURES
  6
CONTINUOUS
 62
     7
100
AcDbLine
 10
322.7525955157289
 20
201.5849785811524
 30
0.0
 11
322.3775955157289
 21
201.6488083608525
 31
0.0
  0
LINE
  5
1631
330
1B
100
AcDbEntity
  8
7_ALL_FEATURES
  6
CONTINUOUS
 62
     7
100
AcDbLine
 10
325.2525959926291
 20
198.6488083608525
 30
0.0
 11
324.3775950389291
 21
201.0105105645524
 31
0.0
  0
LINE
  5
1632
330
1B
100
AcDbEntity
  8
7_ALL_FEATURES
  6
CONTINUOUS
 62
     7
100
AcDbLine
 10
324.002595038929
 20
201.6488083608525
 30
0.0
 11
324.5650950389288
 21
201.6488083608525
 31
0.0
  0
LINE
  5
1633
330
1B
100
AcDbEntity
  8
7_ALL_FEATURES
  6
CONTINUOUS
 62
     7
100
AcDbLine
 10
327.002595038929
 20
201.6488083608525
 30
0.0
 11
327.002595038929
 21
198.6488083608525
 31
0.0
  0
LINE
  5
1634
330
1B
100
AcDbEntity
  8
7_ALL_FEATURES
  6
CONTINUOUS
 62
     7
100
AcDbLine
 10
326.6275950389291
 20
198.6488083608525
 30
0.0
 11
326.6275950389291
 21
201.0105105645524
 31
0.0
  0
LINE
  5
1635
330
1B
100
AcDbEntity
  8
7_ALL_FEATURES
  6
CONTINUOUS
 62
     7
100
AcDbLine
 10
327.002595038929
 20
198.6488083608525
 30
0.0
 11
326.6275950389291
 21
198.6488083608525
 31
0.0
  0
LINE
  5
1636
330
1B
100
AcDbEntity
  8
7_ALL_FEATURES
  6
CONTINUOUS
 62
     7
100
AcDbLine
 10
326.4400950389291
 20
201.6488083608525
 30
0.0
 11
327.002595038929
 21
201.6488083608525
 31
0.0
  0
LINE
  5
1637
330
1B
100
AcDbEntity
  8
0
  6
CONTINUOUS
 62
     7
100
AcDbLine
 10
331.0400955157291
 20
190.6488083608525
 30
0.0
 11
338.318626360729
 21
190.8394033986525
 31
0.0
  0
LINE
  5
1638
330
1B
100
AcDbEntity
  8
0
  6
CONTINUOUS
 62
     7
100
AcDbLine
 10
297.5400955157288
 20
250.7488083608525
 30
0.0
 11
329.0400955157291
 21
250.7488083608525
 31
0.0
  0
ARC
  5
1639
330
1B
100
AcDbEntity
  8
0
  6
CONTINUOUS
 62
     7
100
AcDbCircle
 10
280.2400955157289
 20
242.1488083608525
 30
0.0
 40
9.9874921777
100
AcDbArc
 50
81.36218697280284
 51
87.13042380410177
  0
LINE
  5
163A
330
1B
100
AcDbEntity
  8
0
  6
CONTINUOUS
 62
     7
100
AcDbLine
 10
277.692460212229
 20
251.8188421953525
 30
0.0
 11
282.787730819329
 21
251.8188421953525
 31
0.0
  0
LINE
  5
163B
330
1B
100
AcDbEntity
  8
0
  6
CONTINUOUS
 62
     7
100
AcDbLine
 10
280.7400955157289
 20
252.1237770324525
 30
0.0
 11
280.7400955157289
 21
252.0230171898525
 31
0.0
  0
LINE
  5
163C
330
1B
100
AcDbEntity
  8
0
  6
CONTINUOUS
 62
     7
100
AcDbLine
 10
279.7400955157289
 20
252.0230171898525
 30
0.0
 11
279.7400955157289
 21
252.1237770324525
 31
0.0
  0
ARC
  5
163D
330
1B
100
AcDbEntity
  8
0
  6
CONTINUOUS
 62
     7
100
AcDbCircle
 10
280.2400955157289
 20
242.1488083608525
 30
0.0
 40
9.886859966599999
100
AcDbArc
 50
87.10119134839962
 51
92.89880865160041
  0
LINE
  5
163E
330
1B
100
AcDbEntity
  8
0
  6
CONTINUOUS
 62
     7
100
AcDbLine
 10
278.7400955157289
 20
252.0230171898525
 30
0.0
 11
278.7400955157289
 21
252.0356683274524
 31
0.0
  0
LINE
  5
163F
330
1B
100
AcDbEntity
  8
0
  6
CONTINUOUS
 62
     7
100
AcDbLine
 10
277.692460212229
 20
251.8188421953525
 30
0.0
 11
277.590095515729
 21
250.6488083608525
 31
0.0
  0
LINE
  5
1640
330
1B
100
AcDbEntity
  8
0
  6
CONTINUOUS
 62
     7
100
AcDbLine
 10
278.7400955157289
 20
252.0356683274524
 30
0.0
 11
277.692460212229
 21
251.8188421953525
 31
0.0
  0
ARC
  5
1641
330
1B
100
AcDbEntity
  8
0
  6
CONTINUOUS
 62
     7
100
AcDbCircle
 10
280.2400955157289
 20
242.1488083608525
 30
0.0
 40
9.9874921777
100
AcDbArc
 50
92.86957619589824
 51
98.63781302719715
  0
LINE
  5
1642
330
1B
100
AcDbEntity
  8
0
  6
CONTINUOUS
 62
     7
100
AcDbLine
 10
282.787730819329
 20
251.8188421953525
 30
0.0
 11
282.890095515729
 21
250.6488083608525
 31
0.0
  0
LINE
  5
1643
330
1B
100
AcDbEntity
  8
0
  6
CONTINUOUS
 62
     7
100
AcDbLine
 10
281.7400955157289
 20
252.0356683274524
 30
0.0
 11
281.7400955157289
 21
252.0230171898525
 31
0.0
  0
LINE
  5
1644
330
1B
100
AcDbEntity
  8
0
  6
CONTINUOUS
 62
     7
100
AcDbLine
 10
281.7400955157289
 20
252.0356683274524
 30
0.0
 11
282.787730819329
 21
251.8188421953525
 31
0.0
  0
LINE
  5
1645
330
1B
100
AcDbEntity
  8
0
  6
CONTINUOUS
 62
     7
100
AcDbLine
 10
297.5400955157288
 20
250.6488083608525
 30
0.0
 11
297.5400955157288
 21
250.7488083608525
 31
0.0
  0
LINE
  5
1646
330
1B
100
AcDbEntity
  8
0
  6
CONTINUOUS
 62
     7
100
AcDbLine
 10
301.0400955157288
 20
250.8488083608524
 30
0.0
 11
304.0400955157288
 21
250.8488083608524
 31
0.0
  0
LINE
  5
1647
330
1B
100
AcDbEntity
  8
0
  6
CONTINUOUS
 62
     7
100
AcDbLine
 10
301.0400955157288
 20
250.7488083608525
 30
0.0
 11
301.0400955157288
 21
250.8488083608524
 31
0.0
  0
LINE
  5
1648
330
1B
100
AcDbEntity
  8
0
  6
CONTINUOUS
 62
     7
100
AcDbLine
 10
304.0400955157288
 20
250.7488083608525
 30
0.0
 11
304.0400955157288
 21
250.8488083608524
 31
0.0
  0
LINE
  5
1649
330
1B
100
AcDbEntity
  8
0
  6
CONTINUOUS
 62
     7
100
AcDbLine
 10
329.0400955157291
 20
250.6488083608525
 30
0.0
 11
329.0400955157291
 21
250.7488083608525
 31
0.0
  0
LINE
  5
164A
330
1B
100
AcDbEntity
  8
0
  6
CONTINUOUS
 62
     7
100
AcDbLine
 10
331.0400955157291
 20
250.6488083608525
 30
0.0
 11
338.318626360729
 21
250.4582133229525
 31
0.0
  0
ARC
  5
164B
330
1B
100
AcDbEntity
  8
0
  6
CONTINUOUS
 62
     7
100
AcDbCircle
 10
389.2490141660833
 20
202.6488083608525
 30
0.0
 40
6.0
100
AcDbArc
 50
23.55646430910201
 51
156.4435356908979
  0
LINE
  5
164C
330
1B
100
AcDbEntity
  8
0
  6
CONTINUOUS
 62
     7
100
AcDbLine
 10
375.2490141660833
 20
245.6488083608524
 30
0.0
 11
375.2490141660833
 21
195.6488083608524
 31
0.0
  0
LINE
  5
164D
330
1B
100
AcDbEntity
  8
0
  6
CONTINUOUS
 62
     7
100
AcDbLine
 10
380.2490141660833
 20
243.6488083608524
 30
0.0
 11
380.2490141660833
 21
197.6488083608524
 31
0.0
  0
LINE
  5
164E
330
1B
100
AcDbEntity
  8
0
  6
CONTINUOUS
 62
     7
100
AcDbLine
 10
341.2400955157291
 20
247.4592413480525
 30
0.0
 11
341.2400955157291
 21
193.8383753735525
 31
0.0
  0
LINE
  5
164F
330
1B
100
AcDbEntity
  8
0
  6
CONTINUOUS
 62
     7
100
AcDbLine
 10
341.2400955157291
 20
134.3223008659526
 30
0.0
 11
368.2400955157291
 21
134.3223008659526
 31
0.0
  0
LINE
  5
1650
330
1B
100
AcDbEntity
  8
0
  6
CONTINUOUS
 62
     7
100
AcDbLine
 10
341.2400955157291
 20
131.3223008659525
 30
0.0
 11
368.2400955157291
 21
131.3223008659525
 31
0.0
  0
LINE
  5
1651
330
1B
100
AcDbEntity
  8
0
  6
CONTINUOUS
 62
     7
100
AcDbLine
 10
341.2400955157291
 20
128.3223008659525
 30
0.0
 11
368.2400955157291
 21
128.3223008659525
 31
0.0
  0
LINE
  5
1652
330
1B
100
AcDbEntity
  8
0
  6
CONTINUOUS
 62
     7
100
AcDbLine
 10
341.2400955157291
 20
128.0723008659525
 30
0.0
 11
347.9400955157289
 21
128.0723008659525
 31
0.0
  0
LINE
  5
1653
330
1B
100
AcDbEntity
  8
0
  6
CONTINUOUS
 62
     7
100
AcDbLine
 10
341.2400955157291
 20
118.5723008659525
 30
0.0
 11
347.9400955157289
 21
118.5723008659525
 31
0.0
  0
LINE
  5
1654
330
1B
100
AcDbEntity
  8
0
  6
CONTINUOUS
 62
     7
100
AcDbLine
 10
347.9400955157289
 20
128.0706647125525
 30
0.0
 11
347.9400955157289
 21
118.5739370192525
 31
0.0
  0
LINE
  5
1655
330
1B
100
AcDbEntity
  8
0
  6
CONTINUOUS
 62
     7
100
AcDbLine
 10
368.2400955157291
 20
134.3223008659526
 30
0.0
 11
368.2400955157291
 21
128.3227726886525
 31
0.0
  0
LINE
  5
1656
330
1B
100
AcDbEntity
  8
0
  6
CONTINUOUS
 62
     7
100
AcDbLine
 10
341.2400955157291
 20
202.6488083608525
 30
0.0
 11
368.2400955157291
 21
202.6488083608525
 31
0.0
  0
LINE
  5
1657
330
1B
100
AcDbEntity
  8
0
  6
CONTINUOUS
 62
     7
100
AcDbLine
 10
341.2400955157291
 20
199.6488083608524
 30
0.0
 11
368.2400955157291
 21
199.6488083608524
 31
0.0
  0
LINE
  5
1658
330
1B
100
AcDbEntity
  8
0
  6
CONTINUOUS
 62
     7
100
AcDbLine
 10
368.2400955157291
 20
202.6488083608525
 30
0.0
 11
368.2400955157291
 21
199.6488083608524
 31
0.0
  0
ARC
  5
1659
330
1B
100
AcDbEntity
  8
0
  6
CONTINUOUS
 62
     7
100
AcDbCircle
 10
389.2490141660833
 20
202.6488083608525
 30
0.0
 40
6.0
100
AcDbArc
 50
203.556464309102
 51
336.4435356908979
  0
CIRCLE
  5
165A
330
1B
100
AcDbEntity
  8
0
  6
CONTINUOUS
 62
     7
100
AcDbCircle
 10
387.7490141660833
 20
201.1488083608525
 30
0.0
 40
1.5
  0
ARC
  5
165B
330
1B
100
AcDbEntity
  8
0
  6
CONTINUOUS
 62
     7
100
AcDbCircle
 10
380.2490141660833
 20
195.6488083608524
 30
0.0
 40
5.0
100
AcDbArc
 50
180.0
 51
270.0
  0
ARC
  5
165C
330
1B
100
AcDbEntity
  8
0
  6
CONTINUOUS
 62
     7
100
AcDbCircle
 10
382.2490141660833
 20
197.6488083608524
 30
0.0
 40
2.0
100
AcDbArc
 50
180.0
 51
270.0
  0
LINE
  5
165D
330
1B
100
AcDbEntity
  8
0
  6
CONTINUOUS
 62
     7
100
AcDbLine
 10
383.7490141660833
 20
200.2508925991525
 30
0.0
 11
383.7490141660833
 21
205.0467241224525
 31
0.0
  0
LINE
  5
165E
330
1B
100
AcDbEntity
  8
0
  6
CONTINUOUS
 62
     7
100
AcDbLine
 10
392.7490141660833
 20
190.6488083608525
 30
0.0
 11
392.7490141660833
 21
181.6488083608525
 31
0.0
  0
ARC
  5
165F
330
1B
100
AcDbEntity
  8
0
  6
CONTINUOUS
 62
     7
100
AcDbCircle
 10
393.7490141660833
 20
181.6488083608525
 30
0.0
 40
1.0
100
AcDbArc
 50
180.0
 51
270.0
  0
CIRCLE
  5
1660
330
1B
100
AcDbEntity
  8
0
  6
CONTINUOUS
 62
     7
100
AcDbCircle
 10
390.7490141660833
 20
201.1488083608525
 30
0.0
 40
1.5
  0
LINE
  5
1661
330
1B
100
AcDbEntity
  8
0
  6
CONTINUOUS
 62
     7
100
AcDbLine
 10
394.7490141660833
 20
205.0467241224525
 30
0.0
 11
394.7490141660833
 21
200.2508925991525
 31
0.0
  0
LINE
  5
1662
330
1B
100
AcDbEntity
  8
0
  6
CONTINUOUS
 62
     7
100
AcDbLine
 10
347.9400955157289
 20
232.1988083608525
 30
0.0
 11
347.9400955157289
 21
222.6988083608524
 31
0.0
  0
LINE
  5
1663
330
1B
100
AcDbEntity
  8
0
  6
CONTINUOUS
 62
     7
100
AcDbLine
 10
341.2400955157291
 20
222.6988083608524
 30
0.0
 11
347.9400955157289
 21
222.6988083608524
 31
0.0
  0
LINE
  5
1664
330
1B
100
AcDbEntity
  8
0
  6
CONTINUOUS
 62
     7
100
AcDbLine
 10
341.2400955157291
 20
232.1988083608525
 30
0.0
 11
347.9400955157289
 21
232.1988083608525
 31
0.0
  0
LINE
  5
1665
330
1B
100
AcDbEntity
  8
0
  6
CONTINUOUS
 62
     7
100
AcDbLine
 10
396.2490141660833
 20
245.6488083608524
 30
0.0
 11
382.2490141660833
 21
245.6488083608524
 31
0.0
  0
LINE
  5
1666
330
1B
100
AcDbEntity
  8
5_ALL_CURVES
  6
CONTINUOUS
 62
    40
100
AcDbLine
 10
383.1240141660833
 20
209.6488083608525
 30
0.0
 11
383.7490141660833
 21
211.6488083608525
 31
0.0
  0
LINE
  5
1667
330
1B
100
AcDbEntity
  8
5_ALL_CURVES
  6
CONTINUOUS
 62
    40
100
AcDbLine
 10
385.1240141660833
 20
210.1488083608524
 30
0.0
 11
384.9990141660833
 21
210.6488083608525
 31
0.0
  0
LINE
  5
1668
330
1B
100
AcDbEntity
  8
5_ALL_CURVES
  6
CONTINUOUS
 62
    40
100
AcDbLine
 10
384.9990141660833
 20
210.6488083608525
 30
0.0
 11
385.1240141660833
 21
211.1488083608525
 31
0.0
  0
LINE
  5
1669
330
1B
100
AcDbEntity
  8
5_ALL_CURVES
  6
CONTINUOUS
 62
    40
100
AcDbLine
 10
385.3740141660833
 20
209.8154750324524
 30
0.0
 11
385.1240141660833
 21
210.1488083608524
 31
0.0
  0
LINE
  5
166A
330
1B
100
AcDbEntity
  8
5_ALL_CURVES
  6
CONTINUOUS
 62
    40
100
AcDbLine
 10
386.1240141660833
 20
211.4821417338525
 30
0.0
 11
386.2490141660833
 21
211.3154749877525
 31
0.0
  0
LINE
  5
166B
330
1B
100
AcDbEntity
  8
5_ALL_CURVES
  6
CONTINUOUS
 62
    40
100
AcDbLine
 10
385.1240141660833
 20
211.1488083608525
 30
0.0
 11
385.3740141660833
 21
211.4821417338525
 31
0.0
  0
LINE
  5
166C
330
1B
100
AcDbEntity
  8
5_ALL_CURVES
  6
CONTINUOUS
 62
    40
100
AcDbLine
 10
386.2490141660833
 20
209.9821417040525
 30
0.0
 11
386.1240141660833
 21
209.8154750324524
 31
0.0
  0
LINE
  5
166D
330
1B
100
AcDbEntity
  8
5_ALL_CURVES
  6
CONTINUOUS
 62
    40
100
AcDbLine
 10
385.6240141660833
 20
209.6488083608525
 30
0.0
 11
385.3740141660833
 21
209.8154750324524
 31
0.0
  0
LINE
  5
166E
330
1B
100
AcDbEntity
  8
5_ALL_CURVES
  6
CONTINUOUS
 62
    40
100
AcDbLine
 10
385.8740141660833
 20
211.6488083608525
 30
0.0
 11
386.1240141660833
 21
211.4821417338525
 31
0.0
  0
LINE
  5
166F
330
1B
100
AcDbEntity
  8
5_ALL_CURVES
  6
CONTINUOUS
 62
    40
100
AcDbLine
 10
385.3740141660833
 20
211.4821417338525
 30
0.0
 11
385.6240141660833
 21
211.6488083608525
 31
0.0
  0
LINE
  5
1670
330
1B
100
AcDbEntity
  8
5_ALL_CURVES
  6
CONTINUOUS
 62
    40
100
AcDbLine
 10
386.1240141660833
 20
209.8154750324524
 30
0.0
 11
385.8740141660833
 21
209.6488083608525
 31
0.0
  0
LINE
  5
1671
330
1B
100
AcDbEntity
  8
5_ALL_CURVES
  6
CONTINUOUS
 62
    40
100
AcDbLine
 10
385.8740141660833
 20
209.6488083608525
 30
0.0
 11
385.6240141660833
 21
209.6488083608525
 31
0.0
  0
LINE
  5
1672
330
1B
100
AcDbEntity
  8
5_ALL_CURVES
  6
CONTINUOUS
 62
    40
100
AcDbLine
 10
385.6240141660833
 20
211.6488083608525
 30
0.0
 11
385.8740141660833
 21
211.6488083608525
 31
0.0
  0
LINE
  5
1673
330
1B
100
AcDbEntity
  8
5_ALL_CURVES
  6
CONTINUOUS
 62
    40
100
AcDbLine
 10
383.3740141660833
 20
210.3154750473525
 30
0.0
 11
384.1240141660833
 21
210.3154750473525
 31
0.0
  0
LINE
  5
1674
330
1B
100
AcDbEntity
  8
5_ALL_CURVES
  6
CONTINUOUS
 62
    40
100
AcDbLine
 10
383.7490141660833
 20
211.6488083608525
 30
0.0
 11
384.3740141660833
 21
209.6488083608525
 31
0.0
  0
ARC
  5
1675
330
1B
100
AcDbEntity
  8
0
  6
CONTINUOUS
 62
     7
100
AcDbCircle
 10
380.2490141660833
 20
245.6488083608524
 30
0.0
 40
5.0
100
AcDbArc
 50
90.0
 51
180.0
  0
ARC
  5
1676
330
1B
100
AcDbEntity
  8
0
  6
CONTINUOUS
 62
     7
100
AcDbCircle
 10
382.2490141660833
 20
243.6488083608524
 30
0.0
 40
2.0
100
AcDbArc
 50
90.0
 51
180.0
  0
LINE
  5
1677
330
1B
100
AcDbEntity
  8
0
  6
CONTINUOUS
 62
     7
100
AcDbLine
 10
385.2490141660833
 20
250.6488083608525
 30
0.0
 11
385.2490141660833
 21
250.7488083608525
 31
0.0
  0
CIRCLE
  5
1678
330
1B
100
AcDbEntity
  8
0
  6
CONTINUOUS
 62
     7
100
AcDbCircle
 10
397.2490141660833
 20
227.4488083608524
 30
0.0
 40
4.45
  0
CIRCLE
  5
1679
330
1B
100
AcDbEntity
  8
0
  6
CONTINUOUS
 62
     7
100
AcDbCircle
 10
397.2490141660833
 20
227.4488083608524
 30
0.0
 40
4.75
  0
LINE
  5
167A
330
1B
100
AcDbEntity
  8
5_ALL_CURVES
  6
CONTINUOUS
 62
    40
100
AcDbLine
 10
395.1240141660833
 20
211.6488083608525
 30
0.0
 11
395.7490141660833
 21
209.6488083608525
 31
0.0
  0
CIRCLE
  5
167B
330
1B
100
AcDbEntity
  8
0
  6
CONTINUOUS
 62
     7
100
AcDbCircle
 10
397.2490141660833
 20
227.4488083608524
 30
0.0
 40
2.399999999999999
  0
LINE
  5
167C
330
1B
100
AcDbEntity
  8
5_ALL_CURVES
  6
CONTINUOUS
 62
    40
100
AcDbLine
 10
391.3740141660833
 20
209.9821417040525
 30
0.0
 11
391.2490141660833
 21
210.3154750473525
 31
0.0
  0
LINE
  5
167D
330
1B
100
AcDbEntity
  8
5_ALL_CURVES
  6
CONTINUOUS
 62
    40
100
AcDbLine
 10
391.2490141660833
 20
210.9821417338525
 30
0.0
 11
391.3740141660833
 21
211.3154749877525
 31
0.0
  0
LINE
  5
167E
330
1B
100
AcDbEntity
  8
5_ALL_CURVES
  6
CONTINUOUS
 62
    40
100
AcDbLine
 10
389.7490141660833
 20
211.6488083608525
 30
0.0
 11
389.7490141660833
 21
209.6488083608525
 31
0.0
  0
LINE
  5
167F
330
1B
100
AcDbEntity
  8
5_ALL_CURVES
  6
CONTINUOUS
 62
    40
100
AcDbLine
 10
391.2490141660833
 20
210.3154750473525
 30
0.0
 11
391.2490141660833
 21
210.9821417338525
 31
0.0
  0
LINE
  5
1680
330
1B
100
AcDbEntity
  8
5_ALL_CURVES
  6
CONTINUOUS
 62
    40
100
AcDbLine
 10
393.3740141660833
 20
209.9821417040525
 30
0.0
 11
393.2490141660833
 21
210.3154750473525
 31
0.0
  0
LINE
  5
1681
330
1B
100
AcDbEntity
  8
5_ALL_CURVES
  6
CONTINUOUS
 62
    40
100
AcDbLine
 10
393.2490141660833
 20
210.3154750473525
 30
0.0
 11
393.2490141660833
 21
210.9821417338525
 31
0.0
  0
LINE
  5
1682
330
1B
100
AcDbEntity
  8
5_ALL_CURVES
  6
CONTINUOUS
 62
    40
100
AcDbLine
 10
394.2490141660833
 20
210.9821417338525
 30
0.0
 11
394.2490141660833
 21
210.3154750473525
 31
0.0
  0
LINE
  5
1683
330
1B
100
AcDbEntity
  8
5_ALL_CURVES
  6
CONTINUOUS
 62
    40
100
AcDbLine
 10
393.4990141660833
 20
209.8154750324524
 30
0.0
 11
393.3740141660833
 21
209.9821417040525
 31
0.0
  0
LINE
  5
1684
330
1B
100
AcDbEntity
  8
5_ALL_CURVES
  6
CONTINUOUS
 62
    40
100
AcDbLine
 10
393.9990141660833
 20
211.4821417338525
 30
0.0
 11
394.1240141660833
 21
211.3154749877525
 31
0.0
  0
LINE
  5
1685
330
1B
100
AcDbEntity
  8
5_ALL_CURVES
  6
CONTINUOUS
 62
    40
100
AcDbLine
 10
394.1240141660833
 20
211.3154749877525
 30
0.0
 11
394.2490141660833
 21
210.9821417338525
 31
0.0
  0
LINE
  5
1686
330
1B
100
AcDbEntity
  8
5_ALL_CURVES
  6
CONTINUOUS
 62
    40
100
AcDbLine
 10
393.2490141660833
 20
210.9821417338525
 30
0.0
 11
393.3740141660833
 21
211.3154749877525
 31
0.0
  0
LINE
  5
1687
330
1B
100
AcDbEntity
  8
5_ALL_CURVES
  6
CONTINUOUS
 62
    40
100
AcDbLine
 10
394.2490141660833
 20
210.3154750473525
 30
0.0
 11
394.1240141660833
 21
209.9821417040525
 31
0.0
  0
LINE
  5
1688
330
1B
100
AcDbEntity
  8
5_ALL_CURVES
  6
CONTINUOUS
 62
    40
100
AcDbLine
 10
393.7490141660833
 20
209.6488083608525
 30
0.0
 11
393.4990141660833
 21
209.8154750324524
 31
0.0
  0
LINE
  5
1689
330
1B
100
AcDbEntity
  8
5_ALL_CURVES
  6
CONTINUOUS
 62
    40
100
AcDbLine
 10
393.3740141660833
 20
211.3154749877525
 30
0.0
 11
393.4990141660833
 21
211.4821417338525
 31
0.0
  0
LINE
  5
168A
330
1B
100
AcDbEntity
  8
5_ALL_CURVES
  6
CONTINUOUS
 62
    40
100
AcDbLine
 10
394.1240141660833
 20
209.9821417040525
 30
0.0
 11
393.9990141660833
 21
209.8154750324524
 31
0.0
  0
LINE
  5
168B
330
1B
100
AcDbEntity
  8
5_ALL_CURVES
  6
CONTINUOUS
 62
    40
100
AcDbLine
 10
393.7490141660833
 20
211.6488083608525
 30
0.0
 11
393.9990141660833
 21
211.4821417338525
 31
0.0
  0
LINE
  5
168C
330
1B
100
AcDbEntity
  8
5_ALL_CURVES
  6
CONTINUOUS
 62
    40
100
AcDbLine
 10
393.4990141660833
 20
211.4821417338525
 30
0.0
 11
393.7490141660833
 21
211.6488083608525
 31
0.0
  0
LINE
  5
168D
330
1B
100
AcDbEntity
  8
5_ALL_CURVES
  6
CONTINUOUS
 62
    40
100
AcDbLine
 10
393.9990141660833
 20
209.8154750324524
 30
0.0
 11
393.7490141660833
 21
209.6488083608525
 31
0.0
  0
LINE
  5
168E
330
1B
100
AcDbEntity
  8
5_ALL_CURVES
  6
CONTINUOUS
 62
    40
100
AcDbLine
 10
392.2490141660833
 20
210.9821417338525
 30
0.0
 11
392.2490141660833
 21
210.3154750473525
 31
0.0
  0
LINE
  5
168F
330
1B
100
AcDbEntity
  8
5_ALL_CURVES
  6
CONTINUOUS
 62
    40
100
AcDbLine
 10
392.1240141660833
 20
211.3154749877525
 30
0.0
 11
392.2490141660833
 21
210.9821417338525
 31
0.0
  0
LINE
  5
1690
330
1B
100
AcDbEntity
  8
5_ALL_CURVES
  6
CONTINUOUS
 62
    40
100
AcDbLine
 10
392.2490141660833
 20
210.3154750473525
 30
0.0
 11
392.1240141660833
 21
209.9821417040525
 31
0.0
  0
LINE
  5
1691
330
1B
100
AcDbEntity
  8
5_ALL_CURVES
  6
CONTINUOUS
 62
    40
100
AcDbLine
 10
391.4990141660833
 20
209.8154750324524
 30
0.0
 11
391.3740141660833
 21
209.9821417040525
 31
0.0
  0
LINE
  5
1692
330
1B
100
AcDbEntity
  8
5_ALL_CURVES
  6
CONTINUOUS
 62
    40
100
AcDbLine
 10
391.9990141660833
 20
211.4821417338525
 30
0.0
 11
392.1240141660833
 21
211.3154749877525
 31
0.0
  0
LINE
  5
1693
330
1B
100
AcDbEntity
  8
5_ALL_CURVES
  6
CONTINUOUS
 62
    40
100
AcDbLine
 10
391.3740141660833
 20
211.3154749877525
 30
0.0
 11
391.4990141660833
 21
211.4821417338525
 31
0.0
  0
LINE
  5
1694
330
1B
100
AcDbEntity
  8
5_ALL_CURVES
  6
CONTINUOUS
 62
    40
100
AcDbLine
 10
391.7490141660833
 20
209.6488083608525
 30
0.0
 11
391.4990141660833
 21
209.8154750324524
 31
0.0
  0
LINE
  5
1695
330
1B
100
AcDbEntity
  8
5_ALL_CURVES
  6
CONTINUOUS
 62
    40
100
AcDbLine
 10
391.7490141660833
 20
211.6488083608525
 30
0.0
 11
391.9990141660833
 21
211.4821417338525
 31
0.0
  0
LINE
  5
1696
330
1B
100
AcDbEntity
  8
5_ALL_CURVES
  6
CONTINUOUS
 62
    40
100
AcDbLine
 10
392.1240141660833
 20
209.9821417040525
 30
0.0
 11
391.9990141660833
 21
209.8154750324524
 31
0.0
  0
LINE
  5
1697
330
1B
100
AcDbEntity
  8
5_ALL_CURVES
  6
CONTINUOUS
 62
    40
100
AcDbLine
 10
391.4990141660833
 20
211.4821417338525
 30
0.0
 11
391.7490141660833
 21
211.6488083608525
 31
0.0
  0
LINE
  5
1698
330
1B
100
AcDbEntity
  8
5_ALL_CURVES
  6
CONTINUOUS
 62
    40
100
AcDbLine
 10
391.9990141660833
 20
209.8154750324524
 30
0.0
 11
391.7490141660833
 21
209.6488083608525
 31
0.0
  0
LINE
  5
1699
330
1B
100
AcDbEntity
  8
5_ALL_CURVES
  6
CONTINUOUS
 62
    40
100
AcDbLine
 10
395.7490141660833
 20
209.6488083608525
 30
0.0
 11
396.3740141660833
 21
211.6488083608525
 31
0.0
  0
ARC
  5
169A
330
1B
100
AcDbEntity
  8
0
  6
CONTINUOUS
 62
     7
100
AcDbCircle
 10
396.7490141660833
 20
242.1488083608525
 30
0.0
 40
9.9874921777
100
AcDbArc
 50
92.86957619589824
 51
98.63781302719715
  0
LINE
  5
169B
330
1B
100
AcDbEntity
  8
5_ALL_CURVES
  6
CONTINUOUS
 62
    40
100
AcDbLine
 10
394.6865141660833
 20
237.6488083608524
 30
0.0
 11
395.8115141660833
 21
237.6488083608524
 31
0.0
  0
LINE
  5
169C
330
1B
100
AcDbEntity
  8
0
  6
CONTINUOUS
 62
     7
100
AcDbLine
 10
394.2013788625832
 20
251.8188421953525
 30
0.0
 11
399.2966494695834
 21
251.8188421953525
 31
0.0
  0
LINE
  5
169D
330
1B
100
AcDbEntity
  8
0
  6
CONTINUOUS
 62
     7
100
AcDbLine
 10
394.9990144044834
 20
250.8488083608524
 30
0.0
 11
397.3115141660833
 21
250.8488083608524
 31
0.0
  0
LINE
  5
169E
330
1B
100
AcDbEntity
  8
5_ALL_CURVES
  6
CONTINUOUS
 62
    40
100
AcDbLine
 10
391.1990141660833
 20
236.6488083608525
 30
0.0
 11
391.7615141660833
 21
236.6488083608525
 31
0.0
  0
LINE
  5
169F
330
1B
100
AcDbEntity
  8
5_ALL_CURVES
  6
CONTINUOUS
 62
    40
100
AcDbLine
 10
391.1990141660833
 20
237.6488083608524
 30
0.0
 11
392.0990141660834
 21
237.6488083608524
 31
0.0
  0
LINE
  5
16A0
330
1B
100
AcDbEntity
  8
5_ALL_CURVES
  6
CONTINUOUS
 62
    40
100
AcDbLine
 10
392.0990141660834
 20
235.6488083608524
 30
0.0
 11
391.1990141660833
 21
235.6488083608524
 31
0.0
  0
LINE
  5
16A1
330
1B
100
AcDbEntity
  8
5_ALL_CURVES
  6
CONTINUOUS
 62
    40
100
AcDbLine
 10
391.1990141660833
 20
235.6488083608524
 30
0.0
 11
391.1990141660833
 21
237.6488083608524
 31
0.0
  0
LINE
  5
16A2
330
1B
100
AcDbEntity
  8
5_ALL_CURVES
  6
CONTINUOUS
 62
    40
100
AcDbLine
 10
392.9990141660833
 20
235.6488083608524
 30
0.0
 11
393.8990141660834
 21
237.6488083608524
 31
0.0
  0
LINE
  5
16A3
330
1B
100
AcDbEntity
  8
5_ALL_CURVES
  6
CONTINUOUS
 62
    40
100
AcDbLine
 10
392.9990141660833
 20
237.6488083608524
 30
0.0
 11
393.8990141660834
 21
235.6488083608524
 31
0.0
  0
LINE
  5
16A4
330
1B
100
AcDbEntity
  8
5_ALL_CURVES
  6
CONTINUOUS
 62
    40
100
AcDbLine
 10
395.2490141660833
 20
237.6488083608524
 30
0.0
 11
395.2490141660833
 21
235.6488083608524
 31
0.0
  0
LINE
  5
16A5
330
1B
100
AcDbEntity
  8
0
  6
CONTINUOUS
 62
     7
100
AcDbLine
 10
391.2490140468833
 20
250.8488083608524
 30
0.0
 11
391.6240140468833
 21
250.8488083608524
 31
0.0
  0
LINE
  5
16A6
330
1B
100
AcDbEntity
  8
0
  6
CONTINUOUS
 62
     7
100
AcDbLine
 10
388.9990141362833
 20
250.7488083608525
 30
0.0
 11
388.9990141362833
 21
250.8488083608524
 31
0.0
  0
LINE
  5
16A7
330
1B
100
AcDbEntity
  8
0
  6
CONTINUOUS
 62
     7
100
AcDbLine
 10
389.4990141064834
 20
250.7488083608525
 30
0.0
 11
389.4990141064834
 21
250.8488083608524
 31
0.0
  0
LINE
  5
16A8
330
1B
100
AcDbEntity
  8
0
  6
CONTINUOUS
 62
     7
100
AcDbLine
 10
390.3740141660833
 20
250.7488083608525
 30
0.0
 11
390.3740141660833
 21
250.8488083608524
 31
0.0
  0
LINE
  5
16A9
330
1B
100
AcDbEntity
  8
0
  6
CONTINUOUS
 62
     7
100
AcDbLine
 10
390.7490141660833
 20
250.7488083608525
 30
0.0
 11
390.7490141660833
 21
250.8488083608524
 31
0.0
  0
LINE
  5
16AA
330
1B
100
AcDbEntity
  8
0
  6
CONTINUOUS
 62
     7
100
AcDbLine
 10
391.2490140468833
 20
250.7488083608525
 30
0.0
 11
391.2490140468833
 21
250.8488083608524
 31
0.0
  0
LINE
  5
16AB
330
1B
100
AcDbEntity
  8
0
  6
CONTINUOUS
 62
     7
100
AcDbLine
 10
387.7490141660833
 20
250.7488083608525
 30
0.0
 11
387.7490141660833
 21
250.8488083608524
 31
0.0
  0
LINE
  5
16AC
330
1B
100
AcDbEntity
  8
0
  6
CONTINUOUS
 62
     7
100
AcDbLine
 10
388.1240141660833
 20
250.7488083608525
 30
0.0
 11
388.1240141660833
 21
250.8488083608524
 31
0.0
  0
LINE
  5
16AD
330
1B
100
AcDbEntity
  8
0
  6
CONTINUOUS
 62
     7
100
AcDbLine
 10
387.7490141660833
 20
250.8488083608524
 30
0.0
 11
390.7490141660833
 21
250.8488083608524
 31
0.0
  0
LINE
  5
16AE
330
1B
100
AcDbEntity
  8
0
  6
CONTINUOUS
 62
     7
100
AcDbLine
 10
395.2490141660833
 20
252.0356683274524
 30
0.0
 11
394.2013788625832
 21
251.8188421953525
 31
0.0
  0
LINE
  5
16AF
330
1B
100
AcDbEntity
  8
0
  6
CONTINUOUS
 62
     7
100
AcDbLine
 10
394.2013788625832
 20
251.8188421953525
 30
0.0
 11
394.1165118987833
 21
250.8488083608524
 31
0.0
  0
LINE
  5
16B0
330
1B
100
AcDbEntity
  8
0
  6
CONTINUOUS
 62
     7
100
AcDbLine
 10
393.1240140468833
 20
250.7488083608525
 30
0.0
 11
393.1240140468833
 21
250.8488083608524
 31
0.0
  0
LINE
  5
16B1
330
1B
100
AcDbEntity
  8
0
  6
CONTINUOUS
 62
     7
100
AcDbLine
 10
393.4990140468833
 20
250.7488083608525
 30
0.0
 11
393.4990140468833
 21
250.8488083608524
 31
0.0
  0
LINE
  5
16B2
330
1B
100
AcDbEntity
  8
0
  6
CONTINUOUS
 62
     7
100
AcDbLine
 10
394.4990141660833
 20
250.7488083608525
 30
0.0
 11
394.4990141660833
 21
250.8488083608524
 31
0.0
  0
LINE
  5
16B3
330
1B
100
AcDbEntity
  8
0
  6
CONTINUOUS
 62
     7
100
AcDbLine
 10
394.9990144044834
 20
250.7488083608525
 30
0.0
 11
394.9990144044834
 21
250.8488083608524
 31
0.0
  0
LINE
  5
16B4
330
1B
100
AcDbEntity
  8
0
  6
CONTINUOUS
 62
     7
100
AcDbLine
 10
395.0615141660833
 20
250.7488083608525
 30
0.0
 11
395.0615141660833
 21
250.8488083608524
 31
0.0
  0
LINE
  5
16B5
330
1B
100
AcDbEntity
  8
0
  6
CONTINUOUS
 62
     7
100
AcDbLine
 10
395.2490141660833
 20
250.7488083608525
 30
0.0
 11
395.2490141660833
 21
250.8488083608524
 31
0.0
  0
LINE
  5
16B6
330
1B
100
AcDbEntity
  8
0
  6
CONTINUOUS
 62
     7
100
AcDbLine
 10
395.2490141660833
 20
252.0230171898525
 30
0.0
 11
395.2490141660833
 21
252.0356683274524
 31
0.0
  0
LINE
  5
16B7
330
1B
100
AcDbEntity
  8
0
  6
CONTINUOUS
 62
     7
100
AcDbLine
 10
391.6240140468833
 20
250.7488083608525
 30
0.0
 11
391.6240140468833
 21
250.8488083608524
 31
0.0
  0
LINE
  5
16B8
330
1B
100
AcDbEntity
  8
0
  6
CONTINUOUS
 62
     7
100
AcDbLine
 10
392.1240142852833
 20
250.7488083608525
 30
0.0
 11
392.1240142852833
 21
250.8488083608524
 31
0.0
  0
LINE
  5
16B9
330
1B
100
AcDbEntity
  8
0
  6
CONTINUOUS
 62
     7
100
AcDbLine
 10
392.1240142852833
 20
250.8488083608524
 30
0.0
 11
394.4990141660833
 21
250.8488083608524
 31
0.0
  0
LINE
  5
16BA
330
1B
100
AcDbEntity
  8
0
  6
CONTINUOUS
 62
     7
100
AcDbLine
 10
400.7490141660833
 20
242.1488083608525
 30
0.0
 11
400.7490141660833
 21
243.1488083608525
 31
0.0
  0
LINE
  5
16BB
330
1B
100
AcDbEntity
  8
0
  6
CONTINUOUS
 62
     7
100
AcDbLine
 10
401.7490141660833
 20
243.1488083608525
 30
0.0
 11
401.7490141660833
 21
242.1488083608525
 31
0.0
  0
LINE
  5
16BC
330
1B
100
AcDbEntity
  8
5_ALL_CURVES
  6
CONTINUOUS
 62
    40
100
AcDbLine
 10
398.5115141660833
 20
236.9821417338525
 30
0.0
 11
399.1865141660833
 21
236.4821416742525
 31
0.0
  0
LINE
  5
16BD
330
1B
100
AcDbEntity
  8
5_ALL_CURVES
  6
CONTINUOUS
 62
    40
100
AcDbLine
 10
398.9615141660834
 20
237.6488083608524
 30
0.0
 11
398.7365141660835
 21
237.6488083608524
 31
0.0
  0
LINE
  5
16BE
330
1B
100
AcDbEntity
  8
5_ALL_CURVES
  6
CONTINUOUS
 62
    40
100
AcDbLine
 10
398.9615141660834
 20
235.6488083608524
 30
0.0
 11
398.7365141660835
 21
235.6488083608524
 31
0.0
  0
LINE
  5
16BF
330
1B
100
AcDbEntity
  8
5_ALL_CURVES
  6
CONTINUOUS
 62
    40
100
AcDbLine
 10
396.9365141660833
 20
235.8154750324525
 30
0.0
 11
397.0490141660835
 21
235.6488083608524
 31
0.0
  0
LINE
  5
16C0
330
1B
100
AcDbEntity
  8
5_ALL_CURVES
  6
CONTINUOUS
 62
    40
100
AcDbLine
 10
397.0490141660835
 20
235.6488083608524
 30
0.0
 11
396.9365141660833
 21
235.6488083608524
 31
0.0
  0
LINE
  5
16C1
330
1B
100
AcDbEntity
  8
5_ALL_CURVES
  6
CONTINUOUS
 62
    40
100
AcDbLine
 10
396.9365141660833
 20
235.6488083608524
 30
0.0
 11
396.9365141660833
 21
235.8154750324525
 31
0.0
  0
LINE
  5
16C2
330
1B
100
AcDbEntity
  8
5_ALL_CURVES
  6
CONTINUOUS
 62
    40
100
AcDbLine
 10
398.5115141660833
 20
237.4821417338524
 30
0.0
 11
398.3990141660834
 21
237.3154749877525
 31
0.0
  0
LINE
  5
16C3
330
1B
100
AcDbEntity
  8
5_ALL_CURVES
  6
CONTINUOUS
 62
    40
100
AcDbLine
 10
398.7365141660835
 20
237.6488083608524
 30
0.0
 11
398.5115141660833
 21
237.4821417338524
 31
0.0
  0
LINE
  5
16C4
330
1B
100
AcDbEntity
  8
5_ALL_CURVES
  6
CONTINUOUS
 62
    40
100
AcDbLine
 10
398.3990141660834
 20
237.3154749877525
 30
0.0
 11
398.3990141660834
 21
237.1488083608524
 31
0.0
  0
LINE
  5
16C5
330
1B
100
AcDbEntity
  8
5_ALL_CURVES
  6
CONTINUOUS
 62
    40
100
AcDbLine
 10
398.3990141660834
 20
237.1488083608524
 30
0.0
 11
398.5115141660833
 21
236.9821417338525
 31
0.0
  0
LINE
  5
16C6
330
1B
100
AcDbEntity
  8
5_ALL_CURVES
  6
CONTINUOUS
 62
    40
100
AcDbLine
 10
398.5115141660833
 20
235.8154750324525
 30
0.0
 11
398.2865141660834
 21
236.1488083608525
 31
0.0
  0
LINE
  5
16C7
330
1B
100
AcDbEntity
  8
5_ALL_CURVES
  6
CONTINUOUS
 62
    40
100
AcDbLine
 10
398.7365141660835
 20
235.6488083608524
 30
0.0
 11
398.5115141660833
 21
235.8154750324525
 31
0.0
  0
LINE
  5
16C8
330
1B
100
AcDbEntity
  8
5_ALL_CURVES
  6
CONTINUOUS
 62
    40
100
AcDbLine
 10
399.1865141660833
 20
237.4821417338524
 30
0.0
 11
398.9615141660834
 21
237.6488083608524
 31
0.0
  0
LINE
  5
16C9
330
1B
100
AcDbEntity
  8
5_ALL_CURVES
  6
CONTINUOUS
 62
    40
100
AcDbLine
 10
399.1865141660833
 20
235.8154750324525
 30
0.0
 11
398.9615141660834
 21
235.6488083608524
 31
0.0
  0
LINE
  5
16CA
330
1B
100
AcDbEntity
  8
5_ALL_CURVES
  6
CONTINUOUS
 62
    40
100
AcDbLine
 10
399.1865141660833
 20
236.4821416742525
 30
0.0
 11
399.2990141660835
 21
236.3154750473525
 31
0.0
  0
LINE
  5
16CB
330
1B
100
AcDbEntity
  8
5_ALL_CURVES
  6
CONTINUOUS
 62
    40
100
AcDbLine
 10
399.2990141660835
 20
237.3154749877525
 30
0.0
 11
399.1865141660833
 21
237.4821417338524
 31
0.0
  0
LINE
  5
16CC
330
1B
100
AcDbEntity
  8
5_ALL_CURVES
  6
CONTINUOUS
 62
    40
100
AcDbLine
 10
399.2990141660835
 20
235.9821417040525
 30
0.0
 11
399.1865141660833
 21
235.8154750324525
 31
0.0
  0
LINE
  5
16CD
330
1B
100
AcDbEntity
  8
5_ALL_CURVES
  6
CONTINUOUS
 62
    40
100
AcDbLine
 10
399.2990141660835
 20
236.3154750473525
 30
0.0
 11
399.2990141660835
 21
235.9821417040525
 31
0.0
  0
LINE
  5
16CE
330
1B
100
AcDbEntity
  8
5_ALL_CURVES
  6
CONTINUOUS
 62
    40
100
AcDbLine
 10
401.9990141660833
 20
237.6488083608524
 30
0.0
 11
402.8990141660834
 21
235.6488083608524
 31
0.0
  0
LINE
  5
16CF
330
1B
100
AcDbEntity
  8
5_ALL_CURVES
  6
CONTINUOUS
 62
    40
100
AcDbLine
 10
401.9990141660833
 20
235.6488083608524
 30
0.0
 11
401.9990141660833
 21
237.6488083608524
 31
0.0
  0
LINE
  5
16D0
330
1B
100
AcDbEntity
  8
0
  6
CONTINUOUS
 62
     7
100
AcDbLine
 10
401.7490141660833
 20
242.1488083608525
 30
0.0
 11
400.7490141660833
 21
242.1488083608525
 31
0.0
  0
LINE
  5
16D1
330
1B
100
AcDbEntity
  8
5_ALL_CURVES
  6
CONTINUOUS
 62
    40
100
AcDbLine
 10
402.8990141660834
 20
235.6488083608524
 30
0.0
 11
402.8990141660834
 21
237.6488083608524
 31
0.0
  0
LINE
  5
16D2
330
1B
100
AcDbEntity
  8
5_ALL_CURVES
  6
CONTINUOUS
 62
    40
100
AcDbLine
 10
400.1990141660833
 20
237.6488083608524
 30
0.0
 11
400.6490141660834
 21
236.6488083608525
 31
0.0
  0
LINE
  5
16D3
330
1B
100
AcDbEntity
  8
5_ALL_CURVES
  6
CONTINUOUS
 62
    40
100
AcDbLine
 10
400.6490141660834
 20
236.6488083608525
 30
0.0
 11
400.6490141660834
 21
235.6488083608524
 31
0.0
  0
LINE
  5
16D4
330
1B
100
AcDbEntity
  8
5_ALL_CURVES
  6
CONTINUOUS
 62
    40
100
AcDbLine
 10
400.6490141660834
 20
236.6488083608525
 30
0.0
 11
401.0990141660834
 21
237.6488083608524
 31
0.0
  0
LINE
  5
16D5
330
1B
100
AcDbEntity
  8
0
  6
CONTINUOUS
 62
     7
100
AcDbLine
 10
397.8115144044835
 20
250.8488083608524
 30
0.0
 11
400.0615136892834
 21
250.8488083608524
 31
0.0
  0
LINE
  5
16D6
330
1B
100
AcDbEntity
  8
0
  6
CONTINUOUS
 62
     7
100
AcDbLine
 10
398.2490141660833
 20
252.0356683274524
 30
0.0
 11
399.2966494695834
 21
251.8188421953525
 31
0.0
  0
LINE
  5
16D7
330
1B
100
AcDbEntity
  8
0
  6
CONTINUOUS
 62
     7
100
AcDbLine
 10
396.6865144044835
 20
250.7488083608525
 30
0.0
 11
396.6865144044835
 21
250.8488083608524
 31
0.0
  0
LINE
  5
16D8
330
1B
100
AcDbEntity
  8
0
  6
CONTINUOUS
 62
     7
100
AcDbLine
 10
396.9365141660833
 20
250.7488083608525
 30
0.0
 11
396.9365141660833
 21
250.8488083608524
 31
0.0
  0
LINE
  5
16D9
330
1B
100
AcDbEntity
  8
0
  6
CONTINUOUS
 62
     7
100
AcDbLine
 10
397.1865139276833
 20
250.7488083608525
 30
0.0
 11
397.1865139276833
 21
250.8488083608524
 31
0.0
  0
LINE
  5
16DA
330
1B
100
AcDbEntity
  8
0
  6
CONTINUOUS
 62
     7
100
AcDbLine
 10
397.2490141660833
 20
252.1237770324525
 30
0.0
 11
397.2490141660833
 21
252.0230171898525
 31
0.0
  0
LINE
  5
16DB
330
1B
100
AcDbEntity
  8
0
  6
CONTINUOUS
 62
     7
100
AcDbLine
 10
397.3115141660833
 20
250.7488083608525
 30
0.0
 11
397.3115141660833
 21
250.8488083608524
 31
0.0
  0
LINE
  5
16DC
330
1B
100
AcDbEntity
  8
0
  6
CONTINUOUS
 62
     7
100
AcDbLine
 10
397.8115144044835
 20
250.7488083608525
 30
0.0
 11
397.8115144044835
 21
250.8488083608524
 31
0.0
  0
LINE
  5
16DD
330
1B
100
AcDbEntity
  8
0
  6
CONTINUOUS
 62
     7
100
AcDbLine
 10
397.8740141660833
 20
250.7488083608525
 30
0.0
 11
397.8740141660833
 21
250.8488083608524
 31
0.0
  0
LINE
  5
16DE
330
1B
100
AcDbEntity
  8
0
  6
CONTINUOUS
 62
     7
100
AcDbLine
 10
397.9990144044835
 20
250.7488083608525
 30
0.0
 11
397.9990144044835
 21
250.8488083608524
 31
0.0
  0
LINE
  5
16DF
330
1B
100
AcDbEntity
  8
0
  6
CONTINUOUS
 62
     7
100
AcDbLine
 10
398.2490141660833
 20
252.0356683274524
 30
0.0
 11
398.2490141660833
 21
252.0230171898525
 31
0.0
  0
LINE
  5
16E0
330
1B
100
AcDbEntity
  8
0
  6
CONTINUOUS
 62
     7
100
AcDbLine
 10
398.2490141660833
 20
250.7488083608525
 30
0.0
 11
398.2490141660833
 21
250.8488083608524
 31
0.0
  0
LINE
  5
16E1
330
1B
100
AcDbEntity
  8
0
  6
CONTINUOUS
 62
     7
100
AcDbLine
 10
398.4990139276833
 20
250.7488083608525
 30
0.0
 11
398.4990139276833
 21
250.8488083608524
 31
0.0
  0
ARC
  5
16E2
330
1B
100
AcDbEntity
  8
0
  6
CONTINUOUS
 62
     7
100
AcDbCircle
 10
396.7490141660833
 20
242.1488083608525
 30
0.0
 40
9.9874921777
100
AcDbArc
 50
81.36218697280284
 51
87.13042380410177
  0
LINE
  5
16E3
330
1B
100
AcDbEntity
  8
0
  6
CONTINUOUS
 62
     7
100
AcDbLine
 10
398.8115141660833
 20
250.7488083608525
 30
0.0
 11
398.8115141660833
 21
250.8488083608524
 31
0.0
  0
LINE
  5
16E4
330
1B
100
AcDbEntity
  8
0
  6
CONTINUOUS
 62
     7
100
AcDbLine
 10
399.0615139276834
 20
250.7488083608525
 30
0.0
 11
399.0615139276834
 21
250.8488083608524
 31
0.0
  0
LINE
  5
16E5
330
1B
100
AcDbEntity
  8
0
  6
CONTINUOUS
 62
     7
100
AcDbLine
 10
399.3740141660833
 20
250.7488083608525
 30
0.0
 11
399.3740141660833
 21
250.8488083608524
 31
0.0
  0
LINE
  5
16E6
330
1B
100
AcDbEntity
  8
0
  6
CONTINUOUS
 62
     7
100
AcDbLine
 10
399.2966494695834
 20
251.8188421953525
 30
0.0
 11
399.3814594452834
 21
250.8494597383525
 31
0.0
  0
LINE
  5
16E7
330
1B
100
AcDbEntity
  8
0
  6
CONTINUOUS
 62
     7
100
AcDbLine
 10
395.5615144044834
 20
250.7488083608525
 30
0.0
 11
395.5615144044834
 21
250.8488083608524
 31
0.0
  0
LINE
  5
16E8
330
1B
100
AcDbEntity
  8
0
  6
CONTINUOUS
 62
     7
100
AcDbLine
 10
395.8740139276834
 20
250.7488083608525
 30
0.0
 11
395.8740139276834
 21
250.8488083608524
 31
0.0
  0
LINE
  5
16E9
330
1B
100
AcDbEntity
  8
0
  6
CONTINUOUS
 62
     7
100
AcDbLine
 10
396.2490141660833
 20
252.0230171898525
 30
0.0
 11
396.2490141660833
 21
252.1237770324525
 31
0.0
  0
LINE
  5
16EA
330
1B
100
AcDbEntity
  8
0
  6
CONTINUOUS
 62
     7
100
AcDbLine
 10
396.3740141660833
 20
250.7488083608525
 30
0.0
 11
396.3740141660833
 21
250.8488083608524
 31
0.0
  0
LINE
  5
16EB
330
1B
100
AcDbEntity
  8
0
  6
CONTINUOUS
 62
     7
100
AcDbLine
 10
396.2490141660833
 20
243.6488083608524
 30
0.0
 11
396.2490141660833
 21
245.6732454517524
 31
0.0
  0
ARC
  5
16EC
330
1B
100
AcDbEntity
  8
0
  6
CONTINUOUS
 62
     7
100
AcDbCircle
 10
396.7490141660833
 20
242.1488083608525
 30
0.0
 40
9.886859966599999
100
AcDbArc
 50
87.10119134839962
 51
92.89880865160041
  0
LINE
  5
16ED
330
1B
100
AcDbEntity
  8
0
  6
CONTINUOUS
 62
     7
100
AcDbLine
 10
398.3639992141832
 20
245.6732454517524
 30
0.0
 11
396.2490141660833
 21
245.6732454517524
 31
0.0
  0
LINE
  5
16EE
330
1B
100
AcDbEntity
  8
0
  6
CONTINUOUS
 62
     7
100
AcDbLine
 10
402.3740141660833
 20
250.7488083608525
 30
0.0
 11
402.3740141660833
 21
250.8488083608524
 31
0.0
  0
LINE
  5
16EF
330
1B
100
AcDbEntity
  8
0
  6
CONTINUOUS
 62
     7
100
AcDbLine
 10
402.6240146428833
 20
250.7488083608525
 30
0.0
 11
402.6240146428833
 21
250.8488083608524
 31
0.0
  0
LINE
  5
16F0
330
1B
100
AcDbEntity
  8
0
  6
CONTINUOUS
 62
     7
100
AcDbLine
 10
402.8115146428834
 20
250.7488083608525
 30
0.0
 11
402.8115146428834
 21
250.8488083608524
 31
0.0
  0
LINE
  5
16F1
330
1B
100
AcDbEntity
  8
0
  6
CONTINUOUS
 62
     7
100
AcDbLine
 10
402.0615146428831
 20
250.7488083608525
 30
0.0
 11
402.0615146428831
 21
250.8488083608524
 31
0.0
  0
LINE
  5
16F2
330
1B
100
AcDbEntity
  8
0
  6
CONTINUOUS
 62
     7
100
AcDbLine
 10
400.7490141660833
 20
245.1488083608525
 30
0.0
 11
401.7490141660833
 21
245.1488083608525
 31
0.0
  0
LINE
  5
16F3
330
1B
100
AcDbEntity
  8
0
  6
CONTINUOUS
 62
     7
100
AcDbLine
 10
400.7490141660833
 20
244.1488083608525
 30
0.0
 11
400.7490141660833
 21
245.1488083608525
 31
0.0
  0
LINE
  5
16F4
330
1B
100
AcDbEntity
  8
0
  6
CONTINUOUS
 62
     7
100
AcDbLine
 10
401.7490141660833
 20
245.1488083608525
 30
0.0
 11
401.7490141660833
 21
244.1488083608525
 31
0.0
  0
LINE
  5
16F5
330
1B
100
AcDbEntity
  8
0
  6
CONTINUOUS
 62
     7
100
AcDbLine
 10
402.7490141660833
 20
244.1488083608525
 30
0.0
 11
402.7490141660833
 21
243.1488083608525
 31
0.0
  0
LINE
  5
16F6
330
1B
100
AcDbEntity
  8
0
  6
CONTINUOUS
 62
     7
100
AcDbLine
 10
402.7490141660833
 20
243.1488083608525
 30
0.0
 11
401.7490141660833
 21
243.1488083608525
 31
0.0
  0
LINE
  5
16F7
330
1B
100
AcDbEntity
  8
0
  6
CONTINUOUS
 62
     7
100
AcDbLine
 10
401.7490141660833
 20
244.1488083608525
 30
0.0
 11
402.7490141660833
 21
244.1488083608525
 31
0.0
  0
LINE
  5
16F8
330
1B
100
AcDbEntity
  8
0
  6
CONTINUOUS
 62
     7
100
AcDbLine
 10
402.8740136892834
 20
250.7488083608525
 30
0.0
 11
402.8740136892834
 21
250.8488083608524
 31
0.0
  0
LINE
  5
16F9
330
1B
100
AcDbEntity
  8
0
  6
CONTINUOUS
 62
     7
100
AcDbLine
 10
403.3740146428831
 20
250.7488083608525
 30
0.0
 11
403.3740146428831
 21
250.8488083608524
 31
0.0
  0
LINE
  5
16FA
330
1B
100
AcDbEntity
  8
0
  6
CONTINUOUS
 62
     7
100
AcDbLine
 10
399.6240139276833
 20
250.7488083608525
 30
0.0
 11
399.6240139276833
 21
250.8488083608524
 31
0.0
  0
LINE
  5
16FB
330
1B
100
AcDbEntity
  8
0
  6
CONTINUOUS
 62
     7
100
AcDbLine
 10
399.8740136892834
 20
250.7488083608525
 30
0.0
 11
399.8740136892834
 21
250.8488083608524
 31
0.0
  0
LINE
  5
16FC
330
1B
100
AcDbEntity
  8
0
  6
CONTINUOUS
 62
     7
100
AcDbLine
 10
399.9990146428834
 20
250.7488083608525
 30
0.0
 11
399.9990146428834
 21
250.8488083608524
 31
0.0
  0
LINE
  5
16FD
330
1B
100
AcDbEntity
  8
0
  6
CONTINUOUS
 62
     7
100
AcDbLine
 10
400.0615136892834
 20
250.7488083608525
 30
0.0
 11
400.0615136892834
 21
250.8488083608524
 31
0.0
  0
LINE
  5
16FE
330
1B
100
AcDbEntity
  8
0
  6
CONTINUOUS
 62
     7
100
AcDbLine
 10
400.5615146428834
 20
250.7488083608525
 30
0.0
 11
400.5615146428834
 21
250.8488083608524
 31
0.0
  0
LINE
  5
16FF
330
1B
100
AcDbEntity
  8
0
  6
CONTINUOUS
 62
     7
100
AcDbLine
 10
399.7490141660833
 20
243.1488083608525
 30
0.0
 11
399.7490141660833
 21
244.1488083608525
 31
0.0
  0
LINE
  5
1700
330
1B
100
AcDbEntity
  8
0
  6
CONTINUOUS
 62
     7
100
AcDbLine
 10
400.5615146428834
 20
250.8488083608524
 30
0.0
 11
402.8740136892834
 21
250.8488083608524
 31
0.0
  0
LINE
  5
1701
330
1B
100
AcDbEntity
  8
0
  6
CONTINUOUS
 62
     7
100
AcDbLine
 10
400.7490141660833
 20
243.1488083608525
 30
0.0
 11
399.7490141660833
 21
243.1488083608525
 31
0.0
  0
LINE
  5
1702
330
1B
100
AcDbEntity
  8
0
  6
CONTINUOUS
 62
     7
100
AcDbLine
 10
399.7490141660833
 20
244.1488083608525
 30
0.0
 11
400.7490141660833
 21
244.1488083608525
 31
0.0
  0
LINE
  5
1703
330
1B
100
AcDbEntity
  8
0
  6
CONTINUOUS
 62
     7
100
AcDbLine
 10
440.2490141660833
 20
197.6488083608524
 30
0.0
 11
440.2490141660833
 21
243.6488083608524
 31
0.0
  0
LINE
  5
1704
330
1B
100
AcDbEntity
  8
0
  6
CONTINUOUS
 62
     7
100
AcDbLine
 10
445.2490141660833
 20
245.6488083608524
 30
0.0
 11
445.2490141660833
 21
195.6488083608524
 31
0.0
  0
CIRCLE
  5
1705
330
1B
100
AcDbEntity
  8
0
  6
CONTINUOUS
 62
     7
100
AcDbCircle
 10
431.0490141660834
 20
209.8488083608524
 30
0.0
 40
2.0
  0
LINE
  5
1706
330
1B
100
AcDbEntity
  8
0
  6
CONTINUOUS
 62
     7
100
AcDbLine
 10
424.2490141660833
 20
195.6488083608524
 30
0.0
 11
438.2490141660833
 21
195.6488083608524
 31
0.0
  0
LINE
  5
1707
330
1B
100
AcDbEntity
  8
0
  6
CONTINUOUS
 62
     7
100
AcDbLine
 10
420.7490141660833
 20
197.1488083608525
 30
0.0
 11
419.7490141660833
 21
197.1488083608525
 31
0.0
  0
LINE
  5
1708
330
1B
100
AcDbEntity
  8
0
  6
CONTINUOUS
 62
     7
100
AcDbLine
 10
419.7490141660833
 20
198.1488083608525
 30
0.0
 11
420.7490141660833
 21
198.1488083608525
 31
0.0
  0
ARC
  5
1709
330
1B
100
AcDbEntity
  8
0
  6
CONTINUOUS
 62
     7
100
AcDbCircle
 10
419.2490141660833
 20
197.6488083608524
 30
0.0
 40
5.0
100
AcDbArc
 50
0.0
 51
180.0
  0
CIRCLE
  5
170A
330
1B
100
AcDbEntity
  8
0
  6
CONTINUOUS
 62
     7
100
AcDbCircle
 10
419.2490141660833
 20
197.6488083608524
 30
0.0
 40
2.649999999999999
  0
CIRCLE
  5
170B
330
1B
100
AcDbEntity
  8
0
  6
CONTINUOUS
 62
     7
100
AcDbCircle
 10
419.2490141660833
 20
197.6488083608524
 30
0.0
 40
2.547635303499999
  0
ARC
  5
170C
330
1B
100
AcDbEntity
  8
0
  6
CONTINUOUS
 62
     7
100
AcDbCircle
 10
419.2490141660833
 20
197.6488083608524
 30
0.0
 40
3.524437090899998
100
AcDbArc
 50
215.0576331084001
 51
324.9423668915992
  0
LINE
  5
170D
330
1B
100
AcDbEntity
  8
0
  6
CONTINUOUS
 62
     7
100
AcDbLine
 10
414.2490141660833
 20
187.6488083608525
 30
0.0
 11
414.2490141660833
 21
181.6488083608525
 31
0.0
  0
LINE
  5
170E
330
1B
100
AcDbEntity
  8
0
  6
CONTINUOUS
 62
     7
100
AcDbLine
 10
406.2490141660833
 20
181.6488083608525
 30
0.0
 11
406.2490141660833
 21
187.6488083608525
 31
0.0
  0
ARC
  5
170F
330
1B
100
AcDbEntity
  8
0
  6
CONTINUOUS
 62
     7
100
AcDbCircle
 10
405.2490141660832
 20
181.6488083608525
 30
0.0
 40
1.0
100
AcDbArc
 50
270.0
 51
0.0
  0
ARC
  5
1710
330
1B
100
AcDbEntity
  8
0
  6
CONTINUOUS
 62
     7
100
AcDbCircle
 10
415.2490141660833
 20
181.6488083608525
 30
0.0
 40
1.0
100
AcDbArc
 50
180.0
 51
270.0
  0
ARC
  5
1711
330
1B
100
AcDbEntity
  8
0
  6
CONTINUOUS
 62
     7
100
AcDbCircle
 10
410.2490141660833
 20
196.1488083608525
 30
0.0
 40
9.9874921777
100
AcDbArc
 50
272.8695761958982
 51
278.6378130271971
  0
LINE
  5
1712
330
1B
100
AcDbEntity
  8
0
  6
CONTINUOUS
 62
     7
100
AcDbLine
 10
407.7013788625834
 20
186.4787745263525
 30
0.0
 11
412.7966494695834
 21
186.4787745263525
 31
0.0
  0
LINE
  5
1713
330
1B
100
AcDbEntity
  8
0
  6
CONTINUOUS
 62
     7
100
AcDbLine
 10
405.2490141660832
 20
187.6488083608525
 30
0.0
 11
415.2490141660833
 21
187.6488083608525
 31
0.0
  0
LINE
  5
1714
330
1B
100
AcDbEntity
  8
0
  6
CONTINUOUS
 62
     7
100
AcDbLine
 10
409.7490141660832
 20
186.1738396891525
 30
0.0
 11
409.7490141660832
 21
186.2745995317524
 31
0.0
  0
LINE
  5
1715
330
1B
100
AcDbEntity
  8
0
  6
CONTINUOUS
 62
     7
100
AcDbLine
 10
410.7490141660833
 20
186.2745995317524
 30
0.0
 11
410.7490141660833
 21
186.1738396891525
 31
0.0
  0
ARC
  5
1716
330
1B
100
AcDbEntity
  8
0
  6
CONTINUOUS
 62
     7
100
AcDbCircle
 10
410.2490141660833
 20
196.1488083608525
 30
0.0
 40
9.886859966599999
100
AcDbArc
 50
267.1011913483996
 51
272.8988086516003
  0
LINE
  5
1717
330
1B
100
AcDbEntity
  8
0
  6
CONTINUOUS
 62
     7
100
AcDbLine
 10
408.7490141660833
 20
186.2619483941525
 30
0.0
 11
407.7013788625834
 21
186.4787745263525
 31
0.0
  0
LINE
  5
1718
330
1B
100
AcDbEntity
  8
0
  6
CONTINUOUS
 62
     7
100
AcDbLine
 10
407.7013788625834
 20
186.4787745263525
 30
0.0
 11
407.5990141660835
 21
187.6488083608525
 31
0.0
  0
LINE
  5
1719
330
1B
100
AcDbEntity
  8
0
  6
CONTINUOUS
 62
     7
100
AcDbLine
 10
408.7490141660833
 20
186.2619483941525
 30
0.0
 11
408.7490141660833
 21
186.2745995317524
 31
0.0
  0
ARC
  5
171A
330
1B
100
AcDbEntity
  8
0
  6
CONTINUOUS
 62
     7
100
AcDbCircle
 10
410.2490141660833
 20
196.1488083608525
 30
0.0
 40
9.9874921777
100
AcDbArc
 50
261.3621869728028
 51
267.1304238041017
  0
LINE
  5
171B
330
1B
100
AcDbEntity
  8
0
  6
CONTINUOUS
 62
     7
100
AcDbLine
 10
418.7490141660833
 20
196.1488083608525
 30
0.0
 11
418.7490141660833
 21
197.1488083608525
 31
0.0
  0
LINE
  5
171C
330
1B
100
AcDbEntity
  8
0
  6
CONTINUOUS
 62
     7
100
AcDbLine
 10
414.2490141660833
 20
195.6243712699525
 30
0.0
 11
414.2490141660833
 21
197.6488083608524
 31
0.0
  0
LINE
  5
171D
330
1B
100
AcDbEntity
  8
0
  6
CONTINUOUS
 62
     7
100
AcDbLine
 10
419.7490141660833
 20
197.1488083608525
 30
0.0
 11
419.7490141660833
 21
196.1488083608525
 31
0.0
  0
LINE
  5
171E
330
1B
100
AcDbEntity
  8
0
  6
CONTINUOUS
 62
     7
100
AcDbLine
 10
414.2490141660833
 20
195.6243712699525
 30
0.0
 11
416.3639992141835
 21
195.6243712699525
 31
0.0
  0
LINE
  5
171F
330
1B
100
AcDbEntity
  8
0
  6
CONTINUOUS
 62
     7
100
AcDbLine
 10
411.7490141660833
 20
186.2619483941525
 30
0.0
 11
412.7966494695834
 21
186.4787745263525
 31
0.0
  0
LINE
  5
1720
330
1B
100
AcDbEntity
  8
0
  6
CONTINUOUS
 62
     7
100
AcDbLine
 10
411.7490141660833
 20
186.2745995317524
 30
0.0
 11
411.7490141660833
 21
186.2619483941525
 31
0.0
  0
LINE
  5
1721
330
1B
100
AcDbEntity
  8
0
  6
CONTINUOUS
 62
     7
100
AcDbLine
 10
412.7966494695834
 20
186.4787745263525
 30
0.0
 11
412.8990141660834
 21
187.6488083608525
 31
0.0
  0
LINE
  5
1722
330
1B
100
AcDbEntity
  8
0
  6
CONTINUOUS
 62
     7
100
AcDbLine
 10
419.7490141660833
 20
196.1488083608525
 30
0.0
 11
418.7490141660833
 21
196.1488083608525
 31
0.0
  0
LINE
  5
1723
330
1B
100
AcDbEntity
  8
0
  6
CONTINUOUS
 62
     7
100
AcDbLine
 10
418.7490141660833
 20
199.1488083608525
 30
0.0
 11
419.7490141660833
 21
199.1488083608525
 31
0.0
  0
LINE
  5
1724
330
1B
100
AcDbEntity
  8
0
  6
CONTINUOUS
 62
     7
100
AcDbLine
 10
418.7490141660833
 20
197.1488083608525
 30
0.0
 11
417.7490141660832
 21
197.1488083608525
 31
0.0
  0
LINE
  5
1725
330
1B
100
AcDbEntity
  8
0
  6
CONTINUOUS
 62
     7
100
AcDbLine
 10
417.7490141660832
 20
198.1488083608525
 30
0.0
 11
418.7490141660833
 21
198.1488083608525
 31
0.0
  0
LINE
  5
1726
330
1B
100
AcDbEntity
  8
0
  6
CONTINUOUS
 62
     7
100
AcDbLine
 10
417.7490141660832
 20
197.1488083608525
 30
0.0
 11
417.7490141660832
 21
198.1488083608525
 31
0.0
  0
LINE
  5
1727
330
1B
100
AcDbEntity
  8
0
  6
CONTINUOUS
 62
     7
100
AcDbLine
 10
418.7490141660833
 20
198.1488083608525
 30
0.0
 11
418.7490141660833
 21
199.1488083608525
 31
0.0
  0
LINE
  5
1728
330
1B
100
AcDbEntity
  8
0
  6
CONTINUOUS
 62
     7
100
AcDbLine
 10
419.7490141660833
 20
199.1488083608525
 30
0.0
 11
419.7490141660833
 21
198.1488083608525
 31
0.0
  0
LINE
  5
1729
330
1B
100
AcDbEntity
  8
0
  6
CONTINUOUS
 62
     7
100
AcDbLine
 10
427.7490141660833
 20
190.6488083608525
 30
0.0
 11
427.7490141660833
 21
181.6488083608525
 31
0.0
  0
ARC
  5
172A
330
1B
100
AcDbEntity
  8
0
  6
CONTINUOUS
 62
     7
100
AcDbCircle
 10
426.7490141660833
 20
181.6488083608525
 30
0.0
 40
1.0
100
AcDbArc
 50
270.0
 51
0.0
  0
LINE
  5
172B
330
1B
100
AcDbEntity
  8
0
  6
CONTINUOUS
 62
     7
100
AcDbLine
 10
424.2490141660833
 20
197.6488083608524
 30
0.0
 11
424.2490141660833
 21
195.6243712699525
 31
0.0
  0
LINE
  5
172C
330
1B
100
AcDbEntity
  8
0
  6
CONTINUOUS
 62
     7
100
AcDbLine
 10
422.1340291179833
 20
195.6243712699525
 30
0.0
 11
424.2490141660833
 21
195.6243712699525
 31
0.0
  0
LINE
  5
172D
330
1B
100
AcDbEntity
  8
0
  6
CONTINUOUS
 62
     7
100
AcDbLine
 10
420.7490141660833
 20
198.1488083608525
 30
0.0
 11
420.7490141660833
 21
197.1488083608525
 31
0.0
  0
ARC
  5
172E
330
1B
100
AcDbEntity
  8
0
  6
CONTINUOUS
 62
     7
100
AcDbCircle
 10
440.2490141660833
 20
195.6488083608524
 30
0.0
 40
5.0
100
AcDbArc
 50
270.0
 51
0.0
  0
ARC
  5
172F
330
1B
100
AcDbEntity
  8
0
  6
CONTINUOUS
 62
     7
100
AcDbCircle
 10
438.2490141660833
 20
197.6488083608524
 30
0.0
 40
2.0
100
AcDbArc
 50
270.0
 51
0.0
  0
LINE
  5
1730
330
1B
100
AcDbEntity
  8
0
  6
CONTINUOUS
 62
     7
100
AcDbLine
 10
438.2490141660833
 20
245.6488083608524
 30
0.0
 11
406.2490141660833
 21
245.6488083608524
 31
0.0
  0
CIRCLE
  5
1731
330
1B
100
AcDbEntity
  8
0
  6
CONTINUOUS
 62
     7
100
AcDbCircle
 10
417.2490141660833
 20
227.4488083608524
 30
0.0
 40
4.45
  0
CIRCLE
  5
1732
330
1B
100
AcDbEntity
  8
0
  6
CONTINUOUS
 62
     7
100
AcDbCircle
 10
417.2490141660833
 20
227.4488083608524
 30
0.0
 40
4.75
  0
CIRCLE
  5
1733
330
1B
100
AcDbEntity
  8
0
  6
CONTINUOUS
 62
     7
100
AcDbCircle
 10
417.2490141660833
 20
227.4488083608524
 30
0.0
 40
7.25
  0
CIRCLE
  5
1734
330
1B
100
AcDbEntity
  8
0
  6
CONTINUOUS
 62
     7
100
AcDbCircle
 10
417.2490141660833
 20
227.4488083608524
 30
0.0
 40
7.5
  0
CIRCLE
  5
1735
330
1B
100
AcDbEntity
  8
0
  6
CONTINUOUS
 62
     7
100
AcDbCircle
 10
417.2490141660833
 20
227.4488083608524
 30
0.0
 40
2.399999999999999
  0
ARC
  5
1736
330
1B
100
AcDbEntity
  8
0
  6
CONTINUOUS
 62
     7
100
AcDbCircle
 10
410.2490141660833
 20
242.1488083608525
 30
0.0
 40
9.9874921777
100
AcDbArc
 50
81.36218697280284
 51
87.13042380410177
  0
LINE
  5
1737
330
1B
100
AcDbEntity
  8
0
  6
CONTINUOUS
 62
     7
100
AcDbLine
 10
407.7013788625834
 20
251.8188421953525
 30
0.0
 11
412.7966494695834
 21
251.8188421953525
 31
0.0
  0
LINE
  5
1738
330
1B
100
AcDbEntity
  8
5_ALL_CURVES
  6
CONTINUOUS
 62
    40
100
AcDbLine
 10
403.9115141660834
 20
237.4821417338524
 30
0.0
 11
404.1365141660834
 21
237.6488083608524
 31
0.0
  0
LINE
  5
1739
330
1B
100
AcDbEntity
  8
5_ALL_CURVES
  6
CONTINUOUS
 62
    40
100
AcDbLine
 10
403.6865141660832
 20
237.1488083608524
 30
0.0
 11
403.9115141660834
 21
237.4821417338524
 31
0.0
  0
LINE
  5
173A
330
1B
100
AcDbEntity
  8
5_ALL_CURVES
  6
CONTINUOUS
 62
    40
100
AcDbLine
 10
403.5740141660833
 20
236.6488083608525
 30
0.0
 11
403.6865141660832
 21
237.1488083608524
 31
0.0
  0
LINE
  5
173B
330
1B
100
AcDbEntity
  8
5_ALL_CURVES
  6
CONTINUOUS
 62
    40
100
AcDbLine
 10
404.5865141660834
 20
237.4821417338524
 30
0.0
 11
404.6990141660833
 21
237.3154749877525
 31
0.0
  0
LINE
  5
173C
330
1B
100
AcDbEntity
  8
5_ALL_CURVES
  6
CONTINUOUS
 62
    40
100
AcDbLine
 10
404.3615141660835
 20
237.6488083608524
 30
0.0
 11
404.5865141660834
 21
237.4821417338524
 31
0.0
  0
LINE
  5
173D
330
1B
100
AcDbEntity
  8
5_ALL_CURVES
  6
CONTINUOUS
 62
    40
100
AcDbLine
 10
404.1365141660834
 20
237.6488083608524
 30
0.0
 11
404.3615141660835
 21
237.6488083608524
 31
0.0
  0
LINE
  5
173E
330
1B
100
AcDbEntity
  8
5_ALL_CURVES
  6
CONTINUOUS
 62
    40
100
AcDbLine
 10
404.6990141660833
 20
235.9821417040525
 30
0.0
 11
404.5865141660834
 21
235.8154750324525
 31
0.0
  0
LINE
  5
173F
330
1B
100
AcDbEntity
  8
5_ALL_CURVES
  6
CONTINUOUS
 62
    40
100
AcDbLine
 10
404.5865141660834
 20
235.8154750324525
 30
0.0
 11
404.3615141660835
 21
235.6488083608524
 31
0.0
  0
LINE
  5
1740
330
1B
100
AcDbEntity
  8
5_ALL_CURVES
  6
CONTINUOUS
 62
    40
100
AcDbLine
 10
403.9115141660834
 20
235.8154750324525
 30
0.0
 11
403.6865141660832
 21
236.1488083608525
 31
0.0
  0
LINE
  5
1741
330
1B
100
AcDbEntity
  8
5_ALL_CURVES
  6
CONTINUOUS
 62
    40
100
AcDbLine
 10
404.1365141660834
 20
235.6488083608524
 30
0.0
 11
403.9115141660834
 21
235.8154750324525
 31
0.0
  0
LINE
  5
1742
330
1B
100
AcDbEntity
  8
5_ALL_CURVES
  6
CONTINUOUS
 62
    40
100
AcDbLine
 10
404.3615141660835
 20
235.6488083608524
 30
0.0
 11
404.1365141660834
 21
235.6488083608524
 31
0.0
  0
LINE
  5
1743
330
1B
100
AcDbEntity
  8
5_ALL_CURVES
  6
CONTINUOUS
 62
    40
100
AcDbLine
 10
403.6865141660832
 20
236.1488083608525
 30
0.0
 11
403.5740141660833
 21
236.6488083608525
 31
0.0
  0
LINE
  5
1744
330
1B
100
AcDbEntity
  8
0
  6
CONTINUOUS
 62
     7
100
AcDbLine
 10
407.0615141660833
 20
250.8488083608524
 30
0.0
 11
409.5615146428833
 21
250.8488083608524
 31
0.0
  0
LINE
  5
1745
330
1B
100
AcDbEntity
  8
0
  6
CONTINUOUS
 62
     7
100
AcDbLine
 10
404.8115141660833
 20
250.7488083608525
 30
0.0
 11
404.8115141660833
 21
250.8488083608524
 31
0.0
  0
LINE
  5
1746
330
1B
100
AcDbEntity
  8
0
  6
CONTINUOUS
 62
     7
100
AcDbLine
 10
405.1240136892834
 20
250.7488083608525
 30
0.0
 11
405.1240136892834
 21
250.8488083608524
 31
0.0
  0
LINE
  5
1747
330
1B
100
AcDbEntity
  8
0
  6
CONTINUOUS
 62
     7
100
AcDbLine
 10
405.6240146428832
 20
250.7488083608525
 30
0.0
 11
405.6240146428832
 21
250.8488083608524
 31
0.0
  0
LINE
  5
1748
330
1B
100
AcDbEntity
  8
0
  6
CONTINUOUS
 62
     7
100
AcDbLine
 10
405.9365141660832
 20
250.7488083608525
 30
0.0
 11
405.9365141660832
 21
250.8488083608524
 31
0.0
  0
LINE
  5
1749
330
1B
100
AcDbEntity
  8
0
  6
CONTINUOUS
 62
     7
100
AcDbLine
 10
406.1865146428834
 20
250.7488083608525
 30
0.0
 11
406.1865146428834
 21
250.8488083608524
 31
0.0
  0
LINE
  5
174A
330
1B
100
AcDbEntity
  8
0
  6
CONTINUOUS
 62
     7
100
AcDbLine
 10
406.4365136892834
 20
250.7488083608525
 30
0.0
 11
406.4365136892834
 21
250.8488083608524
 31
0.0
  0
LINE
  5
174B
330
1B
100
AcDbEntity
  8
0
  6
CONTINUOUS
 62
     7
100
AcDbLine
 10
406.5615146428831
 20
250.7488083608525
 30
0.0
 11
406.5615146428831
 21
250.8488083608524
 31
0.0
  0
LINE
  5
174C
330
1B
100
AcDbEntity
  8
0
  6
CONTINUOUS
 62
     7
100
AcDbLine
 10
406.2490141660833
 20
245.6732454517524
 30
0.0
 11
406.2490141660833
 21
243.6488083608524
 31
0.0
  0
LINE
  5
174D
330
1B
100
AcDbEntity
  8
0
  6
CONTINUOUS
 62
     7
100
AcDbLine
 10
407.0615141660833
 20
250.7488083608525
 30
0.0
 11
407.0615141660833
 21
250.8488083608524
 31
0.0
  0
LINE
  5
174E
330
1B
100
AcDbEntity
  8
0
  6
CONTINUOUS
 62
     7
100
AcDbLine
 10
407.4365141660833
 20
250.7488083608525
 30
0.0
 11
407.4365141660833
 21
250.8488083608524
 31
0.0
  0
LINE
  5
174F
330
1B
100
AcDbEntity
  8
0
  6
CONTINUOUS
 62
     7
100
AcDbLine
 10
403.7490146428834
 20
250.7488083608525
 30
0.0
 11
403.7490146428834
 21
250.8488083608524
 31
0.0
  0
LINE
  5
1750
330
1B
100
AcDbEntity
  8
0
  6
CONTINUOUS
 62
     7
100
AcDbLine
 10
404.2490141660833
 20
250.7488083608525
 30
0.0
 11
404.2490141660833
 21
250.8488083608524
 31
0.0
  0
LINE
  5
1751
330
1B
100
AcDbEntity
  8
0
  6
CONTINUOUS
 62
     7
100
AcDbLine
 10
404.3115146428831
 20
250.7488083608525
 30
0.0
 11
404.3115146428831
 21
250.8488083608524
 31
0.0
  0
LINE
  5
1752
330
1B
100
AcDbEntity
  8
0
  6
CONTINUOUS
 62
     7
100
AcDbLine
 10
404.4990146428832
 20
250.7488083608525
 30
0.0
 11
404.4990146428832
 21
250.8488083608524
 31
0.0
  0
LINE
  5
1753
330
1B
100
AcDbEntity
  8
0
  6
CONTINUOUS
 62
     7
100
AcDbLine
 10
404.2490141660833
 20
250.8488083608524
 30
0.0
 11
406.5615146428831
 21
250.8488083608524
 31
0.0
  0
LINE
  5
1754
330
1B
100
AcDbEntity
  8
0
  6
CONTINUOUS
 62
     7
100
AcDbLine
 10
406.2490141660833
 20
245.6732454517524
 30
0.0
 11
404.1340291179833
 21
245.6732454517524
 31
0.0
  0
LINE
  5
1755
330
1B
100
AcDbEntity
  8
0
  6
CONTINUOUS
 62
     7
100
AcDbLine
 10
409.1865146428832
 20
250.7488083608525
 30
0.0
 11
409.1865146428832
 21
250.8488083608524
 31
0.0
  0
LINE
  5
1756
330
1B
100
AcDbEntity
  8
0
  6
CONTINUOUS
 62
     7
100
AcDbLine
 10
409.5615146428833
 20
250.7488083608525
 30
0.0
 11
409.5615146428833
 21
250.8488083608524
 31
0.0
  0
LINE
  5
1757
330
1B
100
AcDbEntity
  8
0
  6
CONTINUOUS
 62
     7
100
AcDbLine
 10
409.7490141660832
 20
252.0230171898525
 30
0.0
 11
409.7490141660832
 21
252.1237770324525
 31
0.0
  0
LINE
  5
1758
330
1B
100
AcDbEntity
  8
0
  6
CONTINUOUS
 62
     7
100
AcDbLine
 10
410.0615141660833
 20
250.7488083608525
 30
0.0
 11
410.0615141660833
 21
250.8488083608524
 31
0.0
  0
LINE
  5
1759
330
1B
100
AcDbEntity
  8
0
  6
CONTINUOUS
 62
     7
100
AcDbLine
 10
410.4365141660833
 20
250.7488083608525
 30
0.0
 11
410.4365141660833
 21
250.8488083608524
 31
0.0
  0
LINE
  5
175A
330
1B
100
AcDbEntity
  8
0
  6
CONTINUOUS
 62
     7
100
AcDbLine
 10
410.7490141660833
 20
252.1237770324525
 30
0.0
 11
410.7490141660833
 21
252.0230171898525
 31
0.0
  0
LINE
  5
175B
330
1B
100
AcDbEntity
  8
0
  6
CONTINUOUS
 62
     7
100
AcDbLine
 10
410.0615141660833
 20
250.8488083608524
 30
0.0
 11
410.4365141660833
 21
250.8488083608524
 31
0.0
  0
ARC
  5
175C
330
1B
100
AcDbEntity
  8
0
  6
CONTINUOUS
 62
     7
100
AcDbCircle
 10
410.2490141660833
 20
242.1488083608525
 30
0.0
 40
9.886859966599999
100
AcDbArc
 50
87.10119134839962
 51
92.89880865160041
  0
LINE
  5
175D
330
1B
100
AcDbEntity
  8
0
  6
CONTINUOUS
 62
     7
100
AcDbLine
 10
407.7013788625834
 20
251.8188421953525
 30
0.0
 11
407.6165118987833
 21
250.8488083608524
 31
0.0
  0
LINE
  5
175E
330
1B
100
AcDbEntity
  8
0
  6
CONTINUOUS
 62
     7
100
AcDbLine
 10
408.7490141660833
 20
252.0230171898525
 30
0.0
 11
408.7490141660833
 21
252.0356683274524
 31
0.0
  0
LINE
  5
175F
330
1B
100
AcDbEntity
  8
0
  6
CONTINUOUS
 62
     7
100
AcDbLine
 10
408.7490141660833
 20
252.0356683274524
 30
0.0
 11
407.7013788625834
 21
251.8188421953525
 31
0.0
  0
ARC
  5
1760
330
1B
100
AcDbEntity
  8
0
  6
CONTINUOUS
 62
     7
100
AcDbCircle
 10
410.2490141660833
 20
242.1488083608525
 30
0.0
 40
9.9874921777
100
AcDbArc
 50
92.86957619589824
 51
98.63781302719715
  0
LINE
  5
1761
330
1B
100
AcDbEntity
  8
5_ALL_CURVES
  6
CONTINUOUS
 62
    40
100
AcDbLine
 10
413.2490141660833
 20
235.6488083608524
 30
0.0
 11
413.8740141660833
 21
237.6488083608524
 31
0.0
  0
LINE
  5
1762
330
1B
100
AcDbEntity
  8
5_ALL_CURVES
  6
CONTINUOUS
 62
    40
100
AcDbLine
 10
415.2490141660833
 20
237.6488083608524
 30
0.0
 11
415.2490141660833
 21
235.6488083608524
 31
0.0
  0
LINE
  5
1763
330
1B
100
AcDbEntity
  8
5_ALL_CURVES
  6
CONTINUOUS
 62
    40
100
AcDbLine
 10
412.6240141660833
 20
237.6488083608524
 30
0.0
 11
413.2490141660833
 21
235.6488083608524
 31
0.0
  0
LINE
  5
1764
330
1B
100
AcDbEntity
  8
5_ALL_CURVES
  6
CONTINUOUS
 62
    40
100
AcDbLine
 10
418.7490141660833
 20
236.6488083608525
 30
0.0
 11
419.3740141660833
 21
236.6488083608525
 31
0.0
  0
LINE
  5
1765
330
1B
100
AcDbEntity
  8
5_ALL_CURVES
  6
CONTINUOUS
 62
    40
100
AcDbLine
 10
418.7490141660833
 20
237.6488083608524
 30
0.0
 11
419.7490141660833
 21
237.6488083608524
 31
0.0
  0
LINE
  5
1766
330
1B
100
AcDbEntity
  8
5_ALL_CURVES
  6
CONTINUOUS
 62
    40
100
AcDbLine
 10
419.7490141660833
 20
235.6488083608524
 30
0.0
 11
418.7490141660833
 21
235.6488083608524
 31
0.0
  0
LINE
  5
1767
330
1B
100
AcDbEntity
  8
5_ALL_CURVES
  6
CONTINUOUS
 62
    40
100
AcDbLine
 10
417.2490141660833
 20
237.6488083608524
 30
0.0
 11
417.4990141660833
 21
237.4821417338524
 31
0.0
  0
LINE
  5
1768
330
1B
100
AcDbEntity
  8
5_ALL_CURVES
  6
CONTINUOUS
 62
    40
100
AcDbLine
 10
417.4990141660833
 20
235.8154750324525
 30
0.0
 11
417.2490141660833
 21
235.6488083608524
 31
0.0
  0
LINE
  5
1769
330
1B
100
AcDbEntity
  8
5_ALL_CURVES
  6
CONTINUOUS
 62
    40
100
AcDbLine
 10
417.7490141660832
 20
237.1488083608524
 30
0.0
 11
417.8740141660833
 21
236.6488083608525
 31
0.0
  0
LINE
  5
176A
330
1B
100
AcDbEntity
  8
5_ALL_CURVES
  6
CONTINUOUS
 62
    40
100
AcDbLine
 10
417.4990141660833
 20
237.4821417338524
 30
0.0
 11
417.7490141660832
 21
237.1488083608524
 31
0.0
  0
LINE
  5
176B
330
1B
100
AcDbEntity
  8
5_ALL_CURVES
  6
CONTINUOUS
 62
    40
100
AcDbLine
 10
417.7490141660832
 20
236.1488083608525
 30
0.0
 11
417.4990141660833
 21
235.8154750324525
 31
0.0
  0
LINE
  5
176C
330
1B
100
AcDbEntity
  8
5_ALL_CURVES
  6
CONTINUOUS
 62
    40
100
AcDbLine
 10
417.8740141660833
 20
236.6488083608525
 30
0.0
 11
417.7490141660832
 21
236.1488083608525
 31
0.0
  0
LINE
  5
176D
330
1B
100
AcDbEntity
  8
5_ALL_CURVES
  6
CONTINUOUS
 62
    40
100
AcDbLine
 10
418.7490141660833
 20
235.6488083608524
 30
0.0
 11
418.7490141660833
 21
237.6488083608524
 31
0.0
  0
LINE
  5
176E
330
1B
100
AcDbEntity
  8
5_ALL_CURVES
  6
CONTINUOUS
 62
    40
100
AcDbLine
 10
416.7490141660833
 20
235.6488083608524
 30
0.0
 11
416.7490141660833
 21
237.6488083608524
 31
0.0
  0
LINE
  5
176F
330
1B
100
AcDbEntity
  8
5_ALL_CURVES
  6
CONTINUOUS
 62
    40
100
AcDbLine
 10
417.2490141660833
 20
235.6488083608524
 30
0.0
 11
416.7490141660833
 21
235.6488083608524
 31
0.0
  0
LINE
  5
1770
330
1B
100
AcDbEntity
  8
5_ALL_CURVES
  6
CONTINUOUS
 62
    40
100
AcDbLine
 10
416.7490141660833
 20
237.6488083608524
 30
0.0
 11
417.2490141660833
 21
237.6488083608524
 31
0.0
  0
LINE
  5
1771
330
1B
100
AcDbEntity
  8
0
  6
CONTINUOUS
 62
     7
100
AcDbLine
 10
411.7490141660833
 20
252.0356683274524
 30
0.0
 11
411.7490141660833
 21
252.0230171898525
 31
0.0
  0
LINE
  5
1772
330
1B
100
AcDbEntity
  8
0
  6
CONTINUOUS
 62
     7
100
AcDbLine
 10
411.7490141660833
 20
252.0356683274524
 30
0.0
 11
412.7966494695834
 21
251.8188421953525
 31
0.0
  0
LINE
  5
1773
330
1B
100
AcDbEntity
  8
0
  6
CONTINUOUS
 62
     7
100
AcDbLine
 10
412.7966494695834
 20
251.8188421953525
 30
0.0
 11
412.8902652997833
 21
250.7488083608525
 31
0.0
  0
LINE
  5
1774
330
1B
100
AcDbEntity
  8
5_ALL_CURVES
  6
CONTINUOUS
 62
    40
100
AcDbLine
 10
433.5490141660835
 20
230.6488083608525
 30
0.0
 11
433.5490141660835
 21
232.6488083608525
 31
0.0
  0
LINE
  5
1775
330
1B
100
AcDbEntity
  8
5_ALL_CURVES
  6
CONTINUOUS
 62
    40
100
AcDbLine
 10
432.5490141660835
 20
231.1488083608524
 30
0.0
 11
432.2990141660834
 21
230.8154750324525
 31
0.0
  0
LINE
  5
1776
330
1B
100
AcDbEntity
  8
5_ALL_CURVES
  6
CONTINUOUS
 62
    40
100
AcDbLine
 10
431.5490141660835
 20
230.6488083608525
 30
0.0
 11
431.5490141660835
 21
232.6488083608525
 31
0.0
  0
LINE
  5
1777
330
1B
100
AcDbEntity
  8
5_ALL_CURVES
  6
CONTINUOUS
 62
    40
100
AcDbLine
 10
429.6740141660834
 20
230.8154750324525
 30
0.0
 11
429.4240141660835
 21
231.1488083608524
 31
0.0
  0
LINE
  5
1778
330
1B
100
AcDbEntity
  8
5_ALL_CURVES
  6
CONTINUOUS
 62
    40
100
AcDbLine
 10
430.6740141660835
 20
231.1488083608524
 30
0.0
 11
430.4240141660835
 21
230.8154750324525
 31
0.0
  0
LINE
  5
1779
330
1B
100
AcDbEntity
  8
5_ALL_CURVES
  6
CONTINUOUS
 62
    40
100
AcDbLine
 10
427.4240141660834
 20
230.6488083608525
 30
0.0
 11
427.4240141660834
 21
232.6488083608525
 31
0.0
  0
LINE
  5
177A
330
1B
100
AcDbEntity
  8
5_ALL_CURVES
  6
CONTINUOUS
 62
    40
100
AcDbLine
 10
428.6740141660835
 20
232.6488083608525
 30
0.0
 11
428.6740141660835
 21
230.6488083608525
 31
0.0
  0
LINE
  5
177B
330
1B
100
AcDbEntity
  8
5_ALL_CURVES
  6
CONTINUOUS
 62
    40
100
AcDbLine
 10
427.5490141660835
 20
214.6488083608524
 30
0.0
 11
428.0490141660835
 21
214.6488083608524
 31
0.0
  0
LINE
  5
177C
330
1B
100
AcDbEntity
  8
5_ALL_CURVES
  6
CONTINUOUS
 62
    40
100
AcDbLine
 10
428.0490141660835
 20
212.6488083608524
 30
0.0
 11
427.5490141660835
 21
212.6488083608524
 31
0.0
  0
LINE
  5
177D
330
1B
100
AcDbEntity
  8
5_ALL_CURVES
  6
CONTINUOUS
 62
    40
100
AcDbLine
 10
427.5490141660835
 20
212.6488083608524
 30
0.0
 11
427.5490141660835
 21
214.6488083608524
 31
0.0
  0
CIRCLE
  5
177E
330
1B
100
AcDbEntity
  8
0
  6
CONTINUOUS
 62
     7
100
AcDbCircle
 10
431.0490141660834
 20
218.8488083608525
 30
0.0
 40
1.7
  0
CIRCLE
  5
177F
330
1B
100
AcDbEntity
  8
0
  6
CONTINUOUS
 62
     7
100
AcDbCircle
 10
431.0490141660834
 20
218.8488083608525
 30
0.0
 40
1.5
  0
CIRCLE
  5
1780
330
1B
100
AcDbEntity
  8
0
  6
CONTINUOUS
 62
     7
100
AcDbCircle
 10
431.0490141660834
 20
218.8488083608525
 30
0.0
 40
2.0
  0
CIRCLE
  5
1781
330
1B
100
AcDbEntity
  8
0
  6
CONTINUOUS
 62
     7
100
AcDbCircle
 10
431.0490141660834
 20
209.8488083608524
 30
0.0
 40
1.7
  0
CIRCLE
  5
1782
330
1B
100
AcDbEntity
  8
0
  6
CONTINUOUS
 62
     7
100
AcDbCircle
 10
431.0490141660834
 20
209.8488083608524
 30
0.0
 40
1.5
  0
LINE
  5
1783
330
1B
100
AcDbEntity
  8
5_ALL_CURVES
  6
CONTINUOUS
 62
    40
100
AcDbLine
 10
431.6740141660835
 20
212.6488083608524
 30
0.0
 11
432.0490141660835
 21
214.6488083608524
 31
0.0
  0
LINE
  5
1784
330
1B
100
AcDbEntity
  8
5_ALL_CURVES
  6
CONTINUOUS
 62
    40
100
AcDbLine
 10
429.4240141660835
 20
214.1488083608524
 30
0.0
 11
429.6740141660834
 21
214.4821417338524
 31
0.0
  0
LINE
  5
1785
330
1B
100
AcDbEntity
  8
5_ALL_CURVES
  6
CONTINUOUS
 62
    40
100
AcDbLine
 10
429.6740141660834
 20
212.8154750324525
 30
0.0
 11
429.4240141660835
 21
213.1488083608525
 31
0.0
  0
LINE
  5
1786
330
1B
100
AcDbEntity
  8
5_ALL_CURVES
  6
CONTINUOUS
 62
    40
100
AcDbLine
 10
429.2990141660835
 20
213.6488083608525
 30
0.0
 11
429.4240141660835
 21
214.1488083608524
 31
0.0
  0
LINE
  5
1787
330
1B
100
AcDbEntity
  8
5_ALL_CURVES
  6
CONTINUOUS
 62
    40
100
AcDbLine
 10
429.4240141660835
 20
213.1488083608525
 30
0.0
 11
429.2990141660835
 21
213.6488083608525
 31
0.0
  0
LINE
  5
1788
330
1B
100
AcDbEntity
  8
5_ALL_CURVES
  6
CONTINUOUS
 62
    40
100
AcDbLine
 10
429.9240141660835
 20
214.6488083608524
 30
0.0
 11
430.1740141660835
 21
214.6488083608524
 31
0.0
  0
LINE
  5
1789
330
1B
100
AcDbEntity
  8
5_ALL_CURVES
  6
CONTINUOUS
 62
    40
100
AcDbLine
 10
429.6740141660834
 20
214.4821417338524
 30
0.0
 11
429.9240141660835
 21
214.6488083608524
 31
0.0
  0
LINE
  5
178A
330
1B
100
AcDbEntity
  8
5_ALL_CURVES
  6
CONTINUOUS
 62
    40
100
AcDbLine
 10
430.1740141660835
 20
214.6488083608524
 30
0.0
 11
430.4240141660835
 21
214.4821417338524
 31
0.0
  0
LINE
  5
178B
330
1B
100
AcDbEntity
  8
5_ALL_CURVES
  6
CONTINUOUS
 62
    40
100
AcDbLine
 10
430.4240141660835
 20
214.4821417338524
 30
0.0
 11
430.6740141660835
 21
214.1488083608524
 31
0.0
  0
LINE
  5
178C
330
1B
100
AcDbEntity
  8
5_ALL_CURVES
  6
CONTINUOUS
 62
    40
100
AcDbLine
 10
430.6740141660835
 20
214.1488083608524
 30
0.0
 11
430.7990141660835
 21
213.6488083608525
 31
0.0
  0
LINE
  5
178D
330
1B
100
AcDbEntity
  8
5_ALL_CURVES
  6
CONTINUOUS
 62
    40
100
AcDbLine
 10
430.7990141660835
 20
213.6488083608525
 30
0.0
 11
430.6740141660835
 21
213.1488083608525
 31
0.0
  0
LINE
  5
178E
330
1B
100
AcDbEntity
  8
5_ALL_CURVES
  6
CONTINUOUS
 62
    40
100
AcDbLine
 10
430.1740141660835
 20
212.6488083608524
 30
0.0
 11
429.9240141660835
 21
212.6488083608524
 31
0.0
  0
LINE
  5
178F
330
1B
100
AcDbEntity
  8
5_ALL_CURVES
  6
CONTINUOUS
 62
    40
100
AcDbLine
 10
429.9240141660835
 20
212.6488083608524
 30
0.0
 11
429.6740141660834
 21
212.8154750324525
 31
0.0
  0
LINE
  5
1790
330
1B
100
AcDbEntity
  8
5_ALL_CURVES
  6
CONTINUOUS
 62
    40
100
AcDbLine
 10
430.4240141660835
 20
212.8154750324525
 30
0.0
 11
430.1740141660835
 21
212.6488083608524
 31
0.0
  0
LINE
  5
1791
330
1B
100
AcDbEntity
  8
5_ALL_CURVES
  6
CONTINUOUS
 62
    40
100
AcDbLine
 10
430.6740141660835
 20
213.1488083608525
 30
0.0
 11
430.4240141660835
 21
212.8154750324525
 31
0.0
  0
LINE
  5
1792
330
1B
100
AcDbEntity
  8
5_ALL_CURVES
  6
CONTINUOUS
 62
    40
100
AcDbLine
 10
431.2990141660835
 20
214.6488083608524
 30
0.0
 11
431.6740141660835
 21
212.6488083608524
 31
0.0
  0
LINE
  5
1793
330
1B
100
AcDbEntity
  8
5_ALL_CURVES
  6
CONTINUOUS
 62
    40
100
AcDbLine
 10
428.0490141660835
 20
214.6488083608524
 30
0.0
 11
428.2990141660834
 21
214.4821417338524
 31
0.0
  0
LINE
  5
1794
330
1B
100
AcDbEntity
  8
5_ALL_CURVES
  6
CONTINUOUS
 62
    40
100
AcDbLine
 10
428.2990141660834
 20
214.4821417338524
 30
0.0
 11
428.5490141660835
 21
214.1488083608524
 31
0.0
  0
LINE
  5
1795
330
1B
100
AcDbEntity
  8
5_ALL_CURVES
  6
CONTINUOUS
 62
    40
100
AcDbLine
 10
428.6740141660835
 20
213.6488083608525
 30
0.0
 11
428.5490141660835
 21
213.1488083608525
 31
0.0
  0
LINE
  5
1796
330
1B
100
AcDbEntity
  8
5_ALL_CURVES
  6
CONTINUOUS
 62
    40
100
AcDbLine
 10
428.5490141660835
 20
214.1488083608524
 30
0.0
 11
428.6740141660835
 21
213.6488083608525
 31
0.0
  0
LINE
  5
1797
330
1B
100
AcDbEntity
  8
5_ALL_CURVES
  6
CONTINUOUS
 62
    40
100
AcDbLine
 10
428.2990141660834
 20
212.8154750324525
 30
0.0
 11
428.0490141660835
 21
212.6488083608524
 31
0.0
  0
LINE
  5
1798
330
1B
100
AcDbEntity
  8
5_ALL_CURVES
  6
CONTINUOUS
 62
    40
100
AcDbLine
 10
428.5490141660835
 20
213.1488083608525
 30
0.0
 11
428.2990141660834
 21
212.8154750324525
 31
0.0
  0
LINE
  5
1799
330
1B
100
AcDbEntity
  8
5_ALL_CURVES
  6
CONTINUOUS
 62
    40
100
AcDbLine
 10
433.5490141660835
 20
214.6488083608524
 30
0.0
 11
434.5490141660834
 21
212.6488083608524
 31
0.0
  0
LINE
  5
179A
330
1B
100
AcDbEntity
  8
5_ALL_CURVES
  6
CONTINUOUS
 62
    40
100
AcDbLine
 10
433.5490141660835
 20
212.6488083608524
 30
0.0
 11
433.5490141660835
 21
214.6488083608524
 31
0.0
  0
LINE
  5
179B
330
1B
100
AcDbEntity
  8
5_ALL_CURVES
  6
CONTINUOUS
 62
    40
100
AcDbLine
 10
434.5490141660834
 20
212.6488083608524
 30
0.0
 11
434.5490141660834
 21
214.6488083608524
 31
0.0
  0
LINE
  5
179C
330
1B
100
AcDbEntity
  8
5_ALL_CURVES
  6
CONTINUOUS
 62
    40
100
AcDbLine
 10
432.4240141660835
 20
212.6488083608524
 30
0.0
 11
432.7990141660834
 21
214.6488083608524
 31
0.0
  0
LINE
  5
179D
330
1B
100
AcDbEntity
  8
5_ALL_CURVES
  6
CONTINUOUS
 62
    40
100
AcDbLine
 10
432.0490141660835
 20
214.6488083608524
 30
0.0
 11
432.4240141660835
 21
212.6488083608524
 31
0.0
  0
CIRCLE
  5
179E
330
1B
100
AcDbEntity
  8
0
  6
CONTINUOUS
 62
     7
100
AcDbCircle
 10
431.0490141660834
 20
227.8488083608525
 30
0.0
 40
1.7
  0
CIRCLE
  5
179F
330
1B
100
AcDbEntity
  8
0
  6
CONTINUOUS
 62
     7
100
AcDbCircle
 10
431.0490141660834
 20
227.8488083608525
 30
0.0
 40
1.5
  0
LINE
  5
17A0
330
1B
100
AcDbEntity
  8
5_ALL_CURVES
  6
CONTINUOUS
 62
    40
100
AcDbLine
 10
432.0490141660835
 20
230.6488083608525
 30
0.0
 11
431.5490141660835
 21
230.6488083608525
 31
0.0
  0
LINE
  5
17A1
330
1B
100
AcDbEntity
  8
5_ALL_CURVES
  6
CONTINUOUS
 62
    40
100
AcDbLine
 10
432.1740141660835
 20
222.6488083608524
 30
0.0
 11
431.5490141660835
 21
222.6488083608524
 31
0.0
  0
LINE
  5
17A2
330
1B
100
AcDbEntity
  8
5_ALL_CURVES
  6
CONTINUOUS
 62
    40
100
AcDbLine
 10
431.5490141660835
 20
223.6488083608525
 30
0.0
 11
432.1740141660835
 21
223.6488083608525
 31
0.0
  0
CIRCLE
  5
17A3
330
1B
100
AcDbEntity
  8
0
  6
CONTINUOUS
 62
     7
100
AcDbCircle
 10
431.0490141660834
 20
227.8488083608525
 30
0.0
 40
2.0
  0
LINE
  5
17A4
330
1B
100
AcDbEntity
  8
5_ALL_CURVES
  6
CONTINUOUS
 62
    40
100
AcDbLine
 10
430.4240141660835
 20
230.8154750324525
 30
0.0
 11
430.1740141660835
 21
230.6488083608525
 31
0.0
  0
LINE
  5
17A5
330
1B
100
AcDbEntity
  8
5_ALL_CURVES
  6
CONTINUOUS
 62
    40
100
AcDbLine
 10
430.1740141660835
 20
230.6488083608525
 30
0.0
 11
429.9240141660835
 21
230.6488083608525
 31
0.0
  0
LINE
  5
17A6
330
1B
100
AcDbEntity
  8
5_ALL_CURVES
  6
CONTINUOUS
 62
    40
100
AcDbLine
 10
429.9240141660835
 20
230.6488083608525
 30
0.0
 11
429.6740141660834
 21
230.8154750324525
 31
0.0
  0
LINE
  5
17A7
330
1B
100
AcDbEntity
  8
5_ALL_CURVES
  6
CONTINUOUS
 62
    40
100
AcDbLine
 10
430.4240141660835
 20
221.8154750324524
 30
0.0
 11
430.1740141660835
 21
221.6488083608525
 31
0.0
  0
LINE
  5
17A8
330
1B
100
AcDbEntity
  8
5_ALL_CURVES
  6
CONTINUOUS
 62
    40
100
AcDbLine
 10
430.5490141660834
 20
221.9821417040524
 30
0.0
 11
430.4240141660835
 21
221.8154750324524
 31
0.0
  0
LINE
  5
17A9
330
1B
100
AcDbEntity
  8
5_ALL_CURVES
  6
CONTINUOUS
 62
    40
100
AcDbLine
 10
430.1740141660835
 20
221.6488083608525
 30
0.0
 11
429.9240141660835
 21
221.6488083608525
 31
0.0
  0
LINE
  5
17AA
330
1B
100
AcDbEntity
  8
5_ALL_CURVES
  6
CONTINUOUS
 62
    40
100
AcDbLine
 10
429.5490141660835
 20
221.9821417040524
 30
0.0
 11
429.5490141660835
 21
223.6488083608525
 31
0.0
  0
LINE
  5
17AB
330
1B
100
AcDbEntity
  8
5_ALL_CURVES
  6
CONTINUOUS
 62
    40
100
AcDbLine
 10
429.9240141660835
 20
221.6488083608525
 30
0.0
 11
429.6740141660834
 21
221.8154750324524
 31
0.0
  0
LINE
  5
17AC
330
1B
100
AcDbEntity
  8
5_ALL_CURVES
  6
CONTINUOUS
 62
    40
100
AcDbLine
 10
430.5490141660834
 20
223.6488083608525
 30
0.0
 11
430.5490141660834
 21
221.9821417040524
 31
0.0
  0
LINE
  5
17AD
330
1B
100
AcDbEntity
  8
5_ALL_CURVES
  6
CONTINUOUS
 62
    40
100
AcDbLine
 10
429.6740141660834
 20
221.8154750324524
 30
0.0
 11
429.5490141660835
 21
221.9821417040524
 31
0.0
  0
LINE
  5
17AE
330
1B
100
AcDbEntity
  8
5_ALL_CURVES
  6
CONTINUOUS
 62
    40
100
AcDbLine
 10
431.5490141660835
 20
221.6488083608525
 30
0.0
 11
431.5490141660835
 21
223.6488083608525
 31
0.0
  0
LINE
  5
17AF
330
1B
100
AcDbEntity
  8
5_ALL_CURVES
  6
CONTINUOUS
 62
    40
100
AcDbLine
 10
434.5490141660834
 20
230.6488083608525
 30
0.0
 11
433.5490141660835
 21
230.6488083608525
 31
0.0
  0
LINE
  5
17B0
330
1B
100
AcDbEntity
  8
5_ALL_CURVES
  6
CONTINUOUS
 62
    40
100
AcDbLine
 10
432.2990141660834
 20
230.8154750324525
 30
0.0
 11
432.0490141660835
 21
230.6488083608525
 31
0.0
  0
LINE
  5
17B1
330
1B
100
AcDbEntity
  8
5_ALL_CURVES
  6
CONTINUOUS
 62
    40
100
AcDbLine
 10
432.4240141660835
 20
222.8154749877525
 30
0.0
 11
432.1740141660835
 21
222.6488083608524
 31
0.0
  0
LINE
  5
17B2
330
1B
100
AcDbEntity
  8
5_ALL_CURVES
  6
CONTINUOUS
 62
    40
100
AcDbLine
 10
432.5490141660835
 20
222.9821417338524
 30
0.0
 11
432.4240141660835
 21
222.8154749877525
 31
0.0
  0
LINE
  5
17B3
330
1B
100
AcDbEntity
  8
5_ALL_CURVES
  6
CONTINUOUS
 62
    40
100
AcDbLine
 10
432.5490141660835
 20
223.3154749877524
 30
0.0
 11
432.5490141660835
 21
222.9821417338524
 31
0.0
  0
LINE
  5
17B4
330
1B
100
AcDbEntity
  8
5_ALL_CURVES
  6
CONTINUOUS
 62
    40
100
AcDbLine
 10
432.1740141660835
 20
223.6488083608525
 30
0.0
 11
432.4240141660835
 21
223.4821417338525
 31
0.0
  0
LINE
  5
17B5
330
1B
100
AcDbEntity
  8
5_ALL_CURVES
  6
CONTINUOUS
 62
    40
100
AcDbLine
 10
432.4240141660835
 20
223.4821417338525
 30
0.0
 11
432.5490141660835
 21
223.3154749877524
 31
0.0
  0
LINE
  5
17B6
330
1B
100
AcDbEntity
  8
5_ALL_CURVES
  6
CONTINUOUS
 62
    40
100
AcDbLine
 10
427.4240141660834
 20
232.6488083608525
 30
0.0
 11
428.0490141660835
 21
230.9821417040524
 31
0.0
  0
LINE
  5
17B7
330
1B
100
AcDbEntity
  8
5_ALL_CURVES
  6
CONTINUOUS
 62
    40
100
AcDbLine
 10
421.1240141660833
 20
237.6488083608524
 30
0.0
 11
421.3740141660833
 21
237.6488083608524
 31
0.0
  0
LINE
  5
17B8
330
1B
100
AcDbEntity
  8
5_ALL_CURVES
  6
CONTINUOUS
 62
    40
100
AcDbLine
 10
421.3740141660833
 20
235.6488083608524
 30
0.0
 11
421.1240141660833
 21
235.6488083608524
 31
0.0
  0
LINE
  5
17B9
330
1B
100
AcDbEntity
  8
5_ALL_CURVES
  6
CONTINUOUS
 62
    40
100
AcDbLine
 10
421.8740141660833
 20
237.1488083608524
 30
0.0
 11
421.9990141660833
 21
236.6488083608525
 31
0.0
  0
LINE
  5
17BA
330
1B
100
AcDbEntity
  8
5_ALL_CURVES
  6
CONTINUOUS
 62
    40
100
AcDbLine
 10
421.6240141660833
 20
237.4821417338524
 30
0.0
 11
421.8740141660833
 21
237.1488083608524
 31
0.0
  0
LINE
  5
17BB
330
1B
100
AcDbEntity
  8
5_ALL_CURVES
  6
CONTINUOUS
 62
    40
100
AcDbLine
 10
421.3740141660833
 20
237.6488083608524
 30
0.0
 11
421.6240141660833
 21
237.4821417338524
 31
0.0
  0
LINE
  5
17BC
330
1B
100
AcDbEntity
  8
5_ALL_CURVES
  6
CONTINUOUS
 62
    40
100
AcDbLine
 10
421.6240141660833
 20
235.8154750324525
 30
0.0
 11
421.3740141660833
 21
235.6488083608524
 31
0.0
  0
LINE
  5
17BD
330
1B
100
AcDbEntity
  8
5_ALL_CURVES
  6
CONTINUOUS
 62
    40
100
AcDbLine
 10
421.8740141660833
 20
236.1488083608525
 30
0.0
 11
421.6240141660833
 21
235.8154750324525
 31
0.0
  0
LINE
  5
17BE
330
1B
100
AcDbEntity
  8
5_ALL_CURVES
  6
CONTINUOUS
 62
    40
100
AcDbLine
 10
421.9990141660833
 20
236.6488083608525
 30
0.0
 11
421.8740141660833
 21
236.1488083608525
 31
0.0
  0
LINE
  5
17BF
330
1B
100
AcDbEntity
  8
5_ALL_CURVES
  6
CONTINUOUS
 62
    40
100
AcDbLine
 10
420.6240141660833
 20
237.1488083608524
 30
0.0
 11
420.8740141660832
 21
237.4821417338524
 31
0.0
  0
LINE
  5
17C0
330
1B
100
AcDbEntity
  8
5_ALL_CURVES
  6
CONTINUOUS
 62
    40
100
AcDbLine
 10
420.4990141660833
 20
236.6488083608525
 30
0.0
 11
420.6240141660833
 21
237.1488083608524
 31
0.0
  0
LINE
  5
17C1
330
1B
100
AcDbEntity
  8
5_ALL_CURVES
  6
CONTINUOUS
 62
    40
100
AcDbLine
 10
420.8740141660832
 20
235.8154750324525
 30
0.0
 11
420.6240141660833
 21
236.1488083608525
 31
0.0
  0
LINE
  5
17C2
330
1B
100
AcDbEntity
  8
5_ALL_CURVES
  6
CONTINUOUS
 62
    40
100
AcDbLine
 10
420.6240141660833
 20
236.1488083608525
 30
0.0
 11
420.4990141660833
 21
236.6488083608525
 31
0.0
  0
LINE
  5
17C3
330
1B
100
AcDbEntity
  8
5_ALL_CURVES
  6
CONTINUOUS
 62
    40
100
AcDbLine
 10
420.8740141660832
 20
237.4821417338524
 30
0.0
 11
421.1240141660833
 21
237.6488083608524
 31
0.0
  0
LINE
  5
17C4
330
1B
100
AcDbEntity
  8
5_ALL_CURVES
  6
CONTINUOUS
 62
    40
100
AcDbLine
 10
421.1240141660833
 20
235.6488083608524
 30
0.0
 11
420.8740141660832
 21
235.8154750324525
 31
0.0
  0
LINE
  5
17C5
330
1B
100
AcDbEntity
  8
5_ALL_CURVES
  6
CONTINUOUS
 62
    40
100
AcDbLine
 10
427.4240141660834
 20
240.8154749877524
 30
0.0
 11
427.1740141660835
 21
240.6488083608525
 31
0.0
  0
LINE
  5
17C6
330
1B
100
AcDbEntity
  8
5_ALL_CURVES
  6
CONTINUOUS
 62
    40
100
AcDbLine
 10
427.1740141660835
 20
241.6488083608524
 30
0.0
 11
427.4240141660834
 21
241.4821417338524
 31
0.0
  0
LINE
  5
17C7
330
1B
100
AcDbEntity
  8
5_ALL_CURVES
  6
CONTINUOUS
 62
    40
100
AcDbLine
 10
426.5490141660834
 20
239.6488083608524
 30
0.0
 11
426.5490141660834
 21
241.6488083608524
 31
0.0
  0
LINE
  5
17C8
330
1B
100
AcDbEntity
  8
5_ALL_CURVES
  6
CONTINUOUS
 62
    40
100
AcDbLine
 10
427.1740141660835
 20
240.6488083608525
 30
0.0
 11
426.5490141660834
 21
240.6488083608525
 31
0.0
  0
LINE
  5
17C9
330
1B
100
AcDbEntity
  8
5_ALL_CURVES
  6
CONTINUOUS
 62
    40
100
AcDbLine
 10
426.5490141660834
 20
241.6488083608524
 30
0.0
 11
427.1740141660835
 21
241.6488083608524
 31
0.0
  0
LINE
  5
17CA
330
1B
100
AcDbEntity
  8
5_ALL_CURVES
  6
CONTINUOUS
 62
    40
100
AcDbLine
 10
427.5490141660835
 20
241.3154749877525
 30
0.0
 11
427.5490141660835
 21
240.9821417338525
 31
0.0
  0
LINE
  5
17CB
330
1B
100
AcDbEntity
  8
5_ALL_CURVES
  6
CONTINUOUS
 62
    40
100
AcDbLine
 10
427.5490141660835
 20
240.9821417338525
 30
0.0
 11
427.4240141660834
 21
240.8154749877524
 31
0.0
  0
LINE
  5
17CC
330
1B
100
AcDbEntity
  8
5_ALL_CURVES
  6
CONTINUOUS
 62
    40
100
AcDbLine
 10
427.4240141660834
 20
241.4821417338524
 30
0.0
 11
427.5490141660835
 21
241.3154749877525
 31
0.0
  0
ARC
  5
17CD
330
1B
100
AcDbEntity
  8
0
  6
CONTINUOUS
 62
     7
100
AcDbCircle
 10
423.7490141660833
 20
242.1488083608525
 30
0.0
 40
9.886859966599999
100
AcDbArc
 50
87.10119134839962
 51
92.89880865160041
  0
LINE
  5
17CE
330
1B
100
AcDbEntity
  8
0
  6
CONTINUOUS
 62
     7
100
AcDbLine
 10
421.2013788625834
 20
251.8188421953525
 30
0.0
 11
426.2966494695834
 21
251.8188421953525
 31
0.0
  0
ARC
  5
17CF
330
1B
100
AcDbEntity
  8
0
  6
CONTINUOUS
 62
     7
100
AcDbCircle
 10
423.7490141660833
 20
242.1488083608525
 30
0.0
 40
9.9874921777
100
AcDbArc
 50
92.86957619589824
 51
98.63781302719715
  0
LINE
  5
17D0
330
1B
100
AcDbEntity
  8
0
  6
CONTINUOUS
 62
     7
100
AcDbLine
 10
422.2490141660832
 20
252.0356683274524
 30
0.0
 11
421.2013788625834
 21
251.8188421953525
 31
0.0
  0
LINE
  5
17D1
330
1B
100
AcDbEntity
  8
0
  6
CONTINUOUS
 62
     7
100
AcDbLine
 10
421.2013788625834
 20
251.8188421953525
 30
0.0
 11
421.1077630324835
 21
250.7488083608525
 31
0.0
  0
LINE
  5
17D2
330
1B
100
AcDbEntity
  8
0
  6
CONTINUOUS
 62
     7
100
AcDbLine
 10
422.2490141660832
 20
252.0230171898525
 30
0.0
 11
422.2490141660832
 21
252.0356683274524
 31
0.0
  0
LINE
  5
17D3
330
1B
100
AcDbEntity
  8
0
  6
CONTINUOUS
 62
     7
100
AcDbLine
 10
423.2490141660833
 20
252.0230171898525
 30
0.0
 11
423.2490141660833
 21
252.1237770324525
 31
0.0
  0
LINE
  5
17D4
330
1B
100
AcDbEntity
  8
0
  6
CONTINUOUS
 62
     7
100
AcDbLine
 10
425.2490141660833
 20
252.0356683274524
 30
0.0
 11
426.2966494695834
 21
251.8188421953525
 31
0.0
  0
LINE
  5
17D5
330
1B
100
AcDbEntity
  8
0
  6
CONTINUOUS
 62
     7
100
AcDbLine
 10
425.2490141660833
 20
252.0356683274524
 30
0.0
 11
425.2490141660833
 21
252.0230171898525
 31
0.0
  0
LINE
  5
17D6
330
1B
100
AcDbEntity
  8
0
  6
CONTINUOUS
 62
     7
100
AcDbLine
 10
426.2966494695834
 20
251.8188421953525
 30
0.0
 11
426.3902652997833
 21
250.7488083608525
 31
0.0
  0
LINE
  5
17D7
330
1B
100
AcDbEntity
  8
0
  6
CONTINUOUS
 62
     7
100
AcDbLine
 10
424.2490141660833
 20
252.1237770324525
 30
0.0
 11
424.2490141660833
 21
252.0230171898525
 31
0.0
  0
ARC
  5
17D8
330
1B
100
AcDbEntity
  8
0
  6
CONTINUOUS
 62
     7
100
AcDbCircle
 10
423.7490141660833
 20
242.1488083608525
 30
0.0
 40
9.9874921777
100
AcDbArc
 50
81.36218697280284
 51
87.13042380410177
  0
CIRCLE
  5
17D9
330
1B
100
AcDbEntity
  8
0
  6
CONTINUOUS
 62
     7
100
AcDbCircle
 10
431.0490141660834
 20
236.8488083608524
 30
0.0
 40
1.5
  0
LINE
  5
17DA
330
1B
100
AcDbEntity
  8
5_ALL_CURVES
  6
CONTINUOUS
 62
    40
100
AcDbLine
 10
431.5490141660835
 20
232.6488083608525
 30
0.0
 11
432.0490141660835
 21
232.6488083608525
 31
0.0
  0
CIRCLE
  5
17DB
330
1B
100
AcDbEntity
  8
0
  6
CONTINUOUS
 62
     7
100
AcDbCircle
 10
431.0490141660834
 20
236.8488083608524
 30
0.0
 40
2.0
  0
LINE
  5
17DC
330
1B
100
AcDbEntity
  8
5_ALL_CURVES
  6
CONTINUOUS
 62
    40
100
AcDbLine
 10
431.0490141660834
 20
241.6488083608524
 30
0.0
 11
431.4240141660834
 21
239.6488083608524
 31
0.0
  0
LINE
  5
17DD
330
1B
100
AcDbEntity
  8
5_ALL_CURVES
  6
CONTINUOUS
 62
    40
100
AcDbLine
 10
430.6740141660835
 20
239.6488083608524
 30
0.0
 11
431.0490141660834
 21
241.6488083608524
 31
0.0
  0
LINE
  5
17DE
330
1B
100
AcDbEntity
  8
5_ALL_CURVES
  6
CONTINUOUS
 62
    40
100
AcDbLine
 10
430.2990141660835
 20
241.6488083608524
 30
0.0
 11
430.6740141660835
 21
239.6488083608524
 31
0.0
  0
LINE
  5
17DF
330
1B
100
AcDbEntity
  8
5_ALL_CURVES
  6
CONTINUOUS
 62
    40
100
AcDbLine
 10
429.4240141660835
 20
241.4821417338524
 30
0.0
 11
429.6740141660834
 21
241.1488083608525
 31
0.0
  0
LINE
  5
17E0
330
1B
100
AcDbEntity
  8
5_ALL_CURVES
  6
CONTINUOUS
 62
    40
100
AcDbLine
 10
429.6740141660834
 20
240.1488083608525
 30
0.0
 11
429.4240141660835
 21
239.8154750324525
 31
0.0
  0
LINE
  5
17E1
330
1B
100
AcDbEntity
  8
5_ALL_CURVES
  6
CONTINUOUS
 62
    40
100
AcDbLine
 10
429.4240141660835
 20
239.8154750324525
 30
0.0
 11
429.1740141660834
 21
239.6488083608524
 31
0.0
  0
LINE
  5
17E2
330
1B
100
AcDbEntity
  8
5_ALL_CURVES
  6
CONTINUOUS
 62
    40
100
AcDbLine
 10
429.7990141660835
 20
240.6488083608525
 30
0.0
 11
429.6740141660834
 21
240.1488083608525
 31
0.0
  0
LINE
  5
17E3
330
1B
100
AcDbEntity
  8
5_ALL_CURVES
  6
CONTINUOUS
 62
    40
100
AcDbLine
 10
429.6740141660834
 20
241.1488083608525
 30
0.0
 11
429.7990141660835
 21
240.6488083608525
 31
0.0
  0
LINE
  5
17E4
330
1B
100
AcDbEntity
  8
5_ALL_CURVES
  6
CONTINUOUS
 62
    40
100
AcDbLine
 10
429.1740141660834
 20
241.6488083608524
 30
0.0
 11
429.4240141660835
 21
241.4821417338524
 31
0.0
  0
LINE
  5
17E5
330
1B
100
AcDbEntity
  8
5_ALL_CURVES
  6
CONTINUOUS
 62
    40
100
AcDbLine
 10
429.4240141660835
 20
232.1488083608525
 30
0.0
 11
429.6740141660834
 21
232.4821417338525
 31
0.0
  0
LINE
  5
17E6
330
1B
100
AcDbEntity
  8
5_ALL_CURVES
  6
CONTINUOUS
 62
    40
100
AcDbLine
 10
429.2990141660835
 20
231.6488083608525
 30
0.0
 11
429.4240141660835
 21
232.1488083608525
 31
0.0
  0
LINE
  5
17E7
330
1B
100
AcDbEntity
  8
5_ALL_CURVES
  6
CONTINUOUS
 62
    40
100
AcDbLine
 10
429.4240141660835
 20
231.1488083608524
 30
0.0
 11
429.2990141660835
 21
231.6488083608525
 31
0.0
  0
LINE
  5
17E8
330
1B
100
AcDbEntity
  8
5_ALL_CURVES
  6
CONTINUOUS
 62
    40
100
AcDbLine
 10
429.6740141660834
 20
232.4821417338525
 30
0.0
 11
429.9240141660835
 21
232.6488083608525
 31
0.0
  0
LINE
  5
17E9
330
1B
100
AcDbEntity
  8
5_ALL_CURVES
  6
CONTINUOUS
 62
    40
100
AcDbLine
 10
430.7990141660835
 20
231.6488083608525
 30
0.0
 11
430.6740141660835
 21
231.1488083608524
 31
0.0
  0
LINE
  5
17EA
330
1B
100
AcDbEntity
  8
5_ALL_CURVES
  6
CONTINUOUS
 62
    40
100
AcDbLine
 10
430.6740141660835
 20
232.1488083608525
 30
0.0
 11
430.7990141660835
 21
231.6488083608525
 31
0.0
  0
LINE
  5
17EB
330
1B
100
AcDbEntity
  8
5_ALL_CURVES
  6
CONTINUOUS
 62
    40
100
AcDbLine
 10
429.9240141660835
 20
232.6488083608525
 30
0.0
 11
430.1740141660835
 21
232.6488083608525
 31
0.0
  0
LINE
  5
17EC
330
1B
100
AcDbEntity
  8
5_ALL_CURVES
  6
CONTINUOUS
 62
    40
100
AcDbLine
 10
430.4240141660835
 20
232.4821417338525
 30
0.0
 11
430.6740141660835
 21
232.1488083608525
 31
0.0
  0
LINE
  5
17ED
330
1B
100
AcDbEntity
  8
5_ALL_CURVES
  6
CONTINUOUS
 62
    40
100
AcDbLine
 10
430.1740141660835
 20
232.6488083608525
 30
0.0
 11
430.4240141660835
 21
232.4821417338525
 31
0.0
  0
LINE
  5
17EE
330
1B
100
AcDbEntity
  8
5_ALL_CURVES
  6
CONTINUOUS
 62
    40
100
AcDbLine
 10
431.4240141660834
 20
239.6488083608524
 30
0.0
 11
431.7990141660835
 21
241.6488083608524
 31
0.0
  0
LINE
  5
17EF
330
1B
100
AcDbEntity
  8
5_ALL_CURVES
  6
CONTINUOUS
 62
    40
100
AcDbLine
 10
428.4240141660835
 20
241.1488083608525
 30
0.0
 11
428.6740141660835
 21
241.4821417338524
 31
0.0
  0
LINE
  5
17F0
330
1B
100
AcDbEntity
  8
5_ALL_CURVES
  6
CONTINUOUS
 62
    40
100
AcDbLine
 10
428.2990141660834
 20
240.6488083608525
 30
0.0
 11
428.4240141660835
 21
241.1488083608525
 31
0.0
  0
LINE
  5
17F1
330
1B
100
AcDbEntity
  8
5_ALL_CURVES
  6
CONTINUOUS
 62
    40
100
AcDbLine
 10
428.4240141660835
 20
240.1488083608525
 30
0.0
 11
428.2990141660834
 21
240.6488083608525
 31
0.0
  0
LINE
  5
17F2
330
1B
100
AcDbEntity
  8
5_ALL_CURVES
  6
CONTINUOUS
 62
    40
100
AcDbLine
 10
428.6740141660835
 20
239.8154750324525
 30
0.0
 11
428.4240141660835
 21
240.1488083608525
 31
0.0
  0
LINE
  5
17F3
330
1B
100
AcDbEntity
  8
5_ALL_CURVES
  6
CONTINUOUS
 62
    40
100
AcDbLine
 10
428.9240141660835
 20
239.6488083608524
 30
0.0
 11
428.6740141660835
 21
239.8154750324525
 31
0.0
  0
LINE
  5
17F4
330
1B
100
AcDbEntity
  8
5_ALL_CURVES
  6
CONTINUOUS
 62
    40
100
AcDbLine
 10
428.6740141660835
 20
241.4821417338524
 30
0.0
 11
428.9240141660835
 21
241.6488083608524
 31
0.0
  0
LINE
  5
17F5
330
1B
100
AcDbEntity
  8
5_ALL_CURVES
  6
CONTINUOUS
 62
    40
100
AcDbLine
 10
428.0490141660835
 20
230.9821417040524
 30
0.0
 11
428.6740141660835
 21
232.6488083608525
 31
0.0
  0
LINE
  5
17F6
330
1B
100
AcDbEntity
  8
5_ALL_CURVES
  6
CONTINUOUS
 62
    40
100
AcDbLine
 10
429.1740141660834
 20
239.6488083608524
 30
0.0
 11
428.9240141660835
 21
239.6488083608524
 31
0.0
  0
LINE
  5
17F7
330
1B
100
AcDbEntity
  8
5_ALL_CURVES
  6
CONTINUOUS
 62
    40
100
AcDbLine
 10
428.9240141660835
 20
241.6488083608524
 30
0.0
 11
429.1740141660834
 21
241.6488083608524
 31
0.0
  0
LINE
  5
17F8
330
1B
100
AcDbEntity
  8
5_ALL_CURVES
  6
CONTINUOUS
 62
    40
100
AcDbLine
 10
435.4240141660834
 20
240.8154749877524
 30
0.0
 11
435.1740141660835
 21
240.6488083608525
 31
0.0
  0
LINE
  5
17F9
330
1B
100
AcDbEntity
  8
5_ALL_CURVES
  6
CONTINUOUS
 62
    40
100
AcDbLine
 10
435.1740141660835
 20
240.6488083608525
 30
0.0
 11
435.5490141660835
 21
239.6488083608524
 31
0.0
  0
LINE
  5
17FA
330
1B
100
AcDbEntity
  8
5_ALL_CURVES
  6
CONTINUOUS
 62
    40
100
AcDbLine
 10
435.1740141660835
 20
241.6488083608524
 30
0.0
 11
435.4240141660834
 21
241.4821417338524
 31
0.0
  0
LINE
  5
17FB
330
1B
100
AcDbEntity
  8
5_ALL_CURVES
  6
CONTINUOUS
 62
    40
100
AcDbLine
 10
434.5490141660834
 20
239.6488083608524
 30
0.0
 11
434.5490141660834
 21
241.6488083608524
 31
0.0
  0
LINE
  5
17FC
330
1B
100
AcDbEntity
  8
5_ALL_CURVES
  6
CONTINUOUS
 62
    40
100
AcDbLine
 10
435.1740141660835
 20
240.6488083608525
 30
0.0
 11
434.5490141660834
 21
240.6488083608525
 31
0.0
  0
LINE
  5
17FD
330
1B
100
AcDbEntity
  8
5_ALL_CURVES
  6
CONTINUOUS
 62
    40
100
AcDbLine
 10
434.5490141660834
 20
241.6488083608524
 30
0.0
 11
435.1740141660835
 21
241.6488083608524
 31
0.0
  0
LINE
  5
17FE
330
1B
100
AcDbEntity
  8
5_ALL_CURVES
  6
CONTINUOUS
 62
    40
100
AcDbLine
 10
433.5490141660835
 20
231.6488083608525
 30
0.0
 11
434.1740141660834
 21
231.6488083608525
 31
0.0
  0
LINE
  5
17FF
330
1B
100
AcDbEntity
  8
5_ALL_CURVES
  6
CONTINUOUS
 62
    40
100
AcDbLine
 10
433.5490141660835
 20
232.6488083608525
 30
0.0
 11
434.5490141660834
 21
232.6488083608525
 31
0.0
  0
LINE
  5
1800
330
1B
100
AcDbEntity
  8
5_ALL_CURVES
  6
CONTINUOUS
 62
    40
100
AcDbLine
 10
435.5490141660835
 20
241.3154749877525
 30
0.0
 11
435.5490141660835
 21
240.9821417338525
 31
0.0
  0
LINE
  5
1801
330
1B
100
AcDbEntity
  8
5_ALL_CURVES
  6
CONTINUOUS
 62
    40
100
AcDbLine
 10
435.5490141660835
 20
240.9821417338525
 30
0.0
 11
435.4240141660834
 21
240.8154749877524
 31
0.0
  0
LINE
  5
1802
330
1B
100
AcDbEntity
  8
5_ALL_CURVES
  6
CONTINUOUS
 62
    40
100
AcDbLine
 10
435.4240141660834
 20
241.4821417338524
 30
0.0
 11
435.5490141660835
 21
241.3154749877525
 31
0.0
  0
LINE
  5
1803
330
1B
100
AcDbEntity
  8
5_ALL_CURVES
  6
CONTINUOUS
 62
    40
100
AcDbLine
 10
432.5490141660835
 20
239.6488083608524
 30
0.0
 11
432.5490141660835
 21
241.6488083608524
 31
0.0
  0
LINE
  5
1804
330
1B
100
AcDbEntity
  8
5_ALL_CURVES
  6
CONTINUOUS
 62
    40
100
AcDbLine
 10
432.5490141660835
 20
240.6488083608525
 30
0.0
 11
433.1740141660834
 21
240.6488083608525
 31
0.0
  0
LINE
  5
1805
330
1B
100
AcDbEntity
  8
5_ALL_CURVES
  6
CONTINUOUS
 62
    40
100
AcDbLine
 10
432.6740141660835
 20
231.6488083608525
 30
0.0
 11
432.5490141660835
 21
231.1488083608524
 31
0.0
  0
LINE
  5
1806
330
1B
100
AcDbEntity
  8
5_ALL_CURVES
  6
CONTINUOUS
 62
    40
100
AcDbLine
 10
432.5490141660835
 20
232.1488083608525
 30
0.0
 11
432.6740141660835
 21
231.6488083608525
 31
0.0
  0
LINE
  5
1807
330
1B
100
AcDbEntity
  8
5_ALL_CURVES
  6
CONTINUOUS
 62
    40
100
AcDbLine
 10
432.0490141660835
 20
232.6488083608525
 30
0.0
 11
432.2990141660834
 21
232.4821417338525
 31
0.0
  0
LINE
  5
1808
330
1B
100
AcDbEntity
  8
5_ALL_CURVES
  6
CONTINUOUS
 62
    40
100
AcDbLine
 10
432.2990141660834
 20
232.4821417338525
 30
0.0
 11
432.5490141660835
 21
232.1488083608525
 31
0.0
  0
LINE
  5
1809
330
1B
100
AcDbEntity
  8
5_ALL_CURVES
  6
CONTINUOUS
 62
    40
100
AcDbLine
 10
433.5490141660835
 20
239.6488083608524
 30
0.0
 11
432.5490141660835
 21
239.6488083608524
 31
0.0
  0
LINE
  5
180A
330
1B
100
AcDbEntity
  8
5_ALL_CURVES
  6
CONTINUOUS
 62
    40
100
AcDbLine
 10
432.5490141660835
 20
241.6488083608524
 30
0.0
 11
433.5490141660835
 21
241.6488083608524
 31
0.0
  0
LINE
  5
180B
330
1B
100
AcDbEntity
  8
0
  6
CONTINUOUS
 62
     7
100
AcDbLine
 10
435.2490141660833
 20
250.6488083608525
 30
0.0
 11
435.2490141660833
 21
250.7488083608525
 31
0.0
  0
ARC
  5
180C
330
1B
100
AcDbEntity
  8
0
  6
CONTINUOUS
 62
     7
100
AcDbCircle
 10
440.2490141660833
 20
245.6488083608524
 30
0.0
 40
5.0
100
AcDbArc
 50
0.0
 51
90.0
  0
ARC
  5
180D
330
1B
100
AcDbEntity
  8
0
  6
CONTINUOUS
 62
     7
100
AcDbCircle
 10
438.2490141660833
 20
243.6488083608524
 30
0.0
 40
2.0
100
AcDbArc
 50
0.0
 51
90.0
  0
ENDSEC
  0
SECTION
  2
OBJECTS
  0
DICTIONARY
  5
ADD
330
0
100
AcDbDictionary
  3
ACAD_GROUP
350
ADE
  3
ACAD_LAYOUT
350
AE6
  3
ACAD_MLINESTYLE
350
ADF
  3
ACAD_PLOTSETTINGS
350
AE7
  3
ACAD_PLOTSTYLENAME
350
AE4
  3
ACDBHEADERROUNDTRIPXREC
350
19C7
  3
ACDBVARIABLEDICTIONARY
350
B08
  3
DWGPROPS
350
B0A
  0
DICTIONARY
  5
B2C
330
1B
100
AcDbDictionary
280
     1
  3
ACAD_LAYOUTSELFREF
360
19E7
  0
DICTIONARY
  5
B2E
330
1C
100
AcDbDictionary
280
     1
  3
ACAD_LAYOUTSELFREF
360
19E8
  0
DICTIONARY
  5
ADE
102
{ACAD_REACTORS
330
ADD
102
}
330
ADD
100
AcDbDictionary
  0
DICTIONARY
  5
AE6
102
{ACAD_REACTORS
330
ADD
102
}
330
ADD
100
AcDbDictionary
  0
DICTIONARY
  5
ADF
102
{ACAD_REACTORS
330
ADD
102
}
330
ADD
100
AcDbDictionary
  3
STANDARD
350
AE0
  0
DICTIONARY
  5
AE7
102
{ACAD_REACTORS
330
ADD
102
}
330
ADD
100
AcDbDictionary
  0
ACDBDICTIONARYWDFLT
  5
AE4
102
{ACAD_REACTORS
330
ADD
102
}
330
ADD
100
AcDbDictionary
281
     1
  3
Normal
350
AE5
100
AcDbDictionaryWithDefault
340
AE5
  0
DICTIONARY
  5
19C7
102
{ACAD_REACTORS
330
ADD
102
}
330
ADD
100
AcDbDictionary
  3
CEPSNTYPE
350
19D1
  3
FINGERPRINTGUID
350
19D2
  3
HYPERLINKBASE
350
19CA
  3
INSUNITS
350
19D0
  3
LAYOUTDICT
350
19CC
  3
LWETCUNION
350
19CF
  3
PLOTSETDICT
350
19CD
  3
PLOTSTYLNAMDICT
350
19CE
  3
PSVPSCALE
350
19D4
  3
PUCSBASE
350
19D7
  3
PUCSORGBACK
350
19DD
  3
PUCSORGBOTTOM
350
19D9
  3
PUCSORGFRONT
350
19DC
  3
PUCSORGLEFT
350
19DA
  3
PUCSORGRIGHT
350
19DB
  3
PUCSORGTOP
350
19D8
  3
PUCSORTHOREF
350
19D5
  3
PUCSORTHOVIEW
350
19D6
  3
STYLESHEET
350
19CB
  3
TSTACKALIGN
350
19C8
  3
TSTACKSIZE
350
19C9
  3
UCSBASE
350
19E0
  3
UCSORGBACK
350
19E6
  3
UCSORGBOTTOM
350
19E2
  3
UCSORGFRONT
350
19E5
  3
UCSORGLEFT
350
19E3
  3
UCSORGRIGHT
350
19E4
  3
UCSORGTOP
350
19E1
  3
UCSORTHOREF
350
19DE
  3
UCSORTHOVIEW
350
19DF
  3
VERSIONGUID
350
19D3
  0
DICTIONARY
  5
B08
102
{ACAD_REACTORS
330
ADD
102
}
330
ADD
100
AcDbDictionary
  3
DIMASSOC
350
B09
  0
XRECORD
  5
B0A
102
{ACAD_REACTORS
330
ADD
102
}
330
ADD
100
AcDbXrecord
  1
DWGPROPS COOKIE
  2

  3

  4

  6

  7

  8

  9

300
=
301
=
302
=
303
=
304
=
305
=
306
=
307
=
308
=
309
=
 40
0.0098721412037037
 41
2453707.551603009
 42
2453707.561473703
  1

 90
        0
  0
XRECORD
  5
19E7
102
{ACAD_REACTORS
330
B2C
102
}
330
B2C
100
AcDbXrecord
340
1B
  0
XRECORD
  5
19E8
102
{ACAD_REACTORS
330
B2E
102
}
330
B2E
100
AcDbXrecord
340
1C
  0
MLINESTYLE
  5
AE0
102
{ACAD_REACTORS
330
ADF
102
}
330
ADF
100
AcDbMlineStyle
  2
STANDARD
 70
     0
  3

 62
   256
 51
90.0
 52
90.0
 71
     2
 49
0.5
 62
   256
  6
BYLAYER
 49
-0.5
 62
   256
  6
BYLAYER
  0
ACDBPLACEHOLDER
  5
AE5
102
{ACAD_REACTORS
330
AE4
102
}
330
AE4
100
AcDbPlaceHolder
280
     0
  0
XRECORD
  5
19D1
102
{ACAD_REACTORS
330
19C7
102
}
330
19C7
100
AcDbXrecord
 90
        0
  0
XRECORD
  5
19D2
102
{ACAD_REACTORS
330
19C7
102
}
330
19C7
100
AcDbXrecord
  1
{05B9E73C-1614-46F8-82C7-7CDA422BB402}
  0
XRECORD
  5
19CA
102
{ACAD_REACTORS
330
19C7
102
}
330
19C7
100
AcDbXrecord
  1

  0
XRECORD
  5
19D0
102
{ACAD_REACTORS
330
19C7
102
}
330
19C7
100
AcDbXrecord
 90
        0
  0
XRECORD
  5
19CC
102
{ACAD_REACTORS
330
19C7
102
}
330
19C7
100
AcDbXrecord
340
AE6
  0
XRECORD
  5
19CF
102
{ACAD_REACTORS
330
19C7
102
}
330
19C7
100
AcDbXrecord
 90
    10781
  0
XRECORD
  5
19CD
102
{ACAD_REACTORS
330
19C7
102
}
330
19C7
100
AcDbXrecord
340
AE7
  0
XRECORD
  5
19CE
102
{ACAD_REACTORS
330
19C7
102
}
330
19C7
100
AcDbXrecord
340
AE4
  0
XRECORD
  5
19D4
102
{ACAD_REACTORS
330
19C7
102
}
330
19C7
100
AcDbXrecord
 40
0.0
  0
XRECORD
  5
19D7
102
{ACAD_REACTORS
330
19C7
102
}
330
19C7
100
AcDbXrecord
340
0
  0
XRECORD
  5
19DD
102
{ACAD_REACTORS
330
19C7
102
}
330
19C7
100
AcDbXrecord
 10
0.0
 20
0.0
 30
0.0
  0
XRECORD
  5
19D9
102
{ACAD_REACTORS
330
19C7
102
}
330
19C7
100
AcDbXrecord
 10
0.0
 20
0.0
 30
0.0
  0
XRECORD
  5
19DC
102
{ACAD_REACTORS
330
19C7
102
}
330
19C7
100
AcDbXrecord
 10
0.0
 20
0.0
 30
0.0
  0
XRECORD
  5
19DA
102
{ACAD_REACTORS
330
19C7
102
}
330
19C7
100
AcDbXrecord
 10
0.0
 20
0.0
 30
0.0
  0
XRECORD
  5
19DB
102
{ACAD_REACTORS
330
19C7
102
}
330
19C7
100
AcDbXrecord
 10
0.0
 20
0.0
 30
0.0
  0
XRECORD
  5
19D8
102
{ACAD_REACTORS
330
19C7
102
}
330
19C7
100
AcDbXrecord
 10
0.0
 20
0.0
 30
0.0
  0
XRECORD
  5
19D5
102
{ACAD_REACTORS
330
19C7
102
}
330
19C7
100
AcDbXrecord
340
0
  0
XRECORD
  5
19D6
102
{ACAD_REACTORS
330
19C7
102
}
330
19C7
100
AcDbXrecord
 70
     0
  0
XRECORD
  5
19CB
102
{ACAD_REACTORS
330
19C7
102
}
330
19C7
100
AcDbXrecord
  1

  0
XRECORD
  5
19C8
102
{ACAD_REACTORS
330
19C7
102
}
330
19C7
100
AcDbXrecord
 90
        1
  0
XRECORD
  5
19C9
102
{ACAD_REACTORS
330
19C7
102
}
330
19C7
100
AcDbXrecord
 90
       70
  0
XRECORD
  5
19E0
102
{ACAD_REACTORS
330
19C7
102
}
330
19C7
100
AcDbXrecord
340
0
  0
XRECORD
  5
19E6
102
{ACAD_REACTORS
330
19C7
102
}
330
19C7
100
AcDbXrecord
 10
0.0
 20
0.0
 30
0.0
  0
XRECORD
  5
19E2
102
{ACAD_REACTORS
330
19C7
102
}
330
19C7
100
AcDbXrecord
 10
0.0
 20
0.0
 30
0.0
  0
XRECORD
  5
19E5
102
{ACAD_REACTORS
330
19C7
102
}
330
19C7
100
AcDbXrecord
 10
0.0
 20
0.0
 30
0.0
  0
XRECORD
  5
19E3
102
{ACAD_REACTORS
330
19C7
102
}
330
19C7
100
AcDbXrecord
 10
0.0
 20
0.0
 30
0.0
  0
XRECORD
  5
19E4
102
{ACAD_REACTORS
330
19C7
102
}
330
19C7
100
AcDbXrecord
 10
0.0
 20
0.0
 30
0.0
  0
XRECORD
  5
19E1
102
{ACAD_REACTORS
330
19C7
102
}
330
19C7
100
AcDbXrecord
 10
0.0
 20
0.0
 30
0.0
  0
XRECORD
  5
19DE
102
{ACAD_REACTORS
330
19C7
102
}
330
19C7
100
AcDbXrecord
340
0
  0
XRECORD
  5
19DF
102
{ACAD_REACTORS
330
19C7
102
}
330
19C7
100
AcDbXrecord
 70
     0
  0
XRECORD
  5
19D3
102
{ACAD_REACTORS
330
19C7
102
}
330
19C7
100
AcDbXrecord
  1
{DFADC908-2C87-4210-92BF-71682B47D9EB}
  0
DICTIONARYVAR
  5
B09
102
{ACAD_REACTORS
330
B08
102
}
330
B08
100
DictionaryVariables
280
     0
  1
1
  0
ENDSEC
  0
EOF
